  0
SECTION
  2
HEADER
  9
$ACADVER
  1
AC1015
  9
$ACADMAINTVER
 70
    20
  9
$DWGCODEPAGE
  3
ANSI_932
  9
$INSBASE
 10
0.0
 20
0.0
 30
0.0
  9
$EXTMIN
 10
-0.1655938998871989
 20
-0.0033065199730231
 30
-0.0000000349181948
  9
$EXTMAX
 10
275.0083608265983
 20
100.00764034573
 30
0.0000000814935747
  9
$LIMMIN
 10
-5.027069091796875
 20
-5.027082920074462
  9
$LIMMAX
 10
291.89892578125
 20
204.9462447166443
  9
$ORTHOMODE
 70
     0
  9
$REGENMODE
 70
     1
  9
$FILLMODE
 70
     1
  9
$QTEXTMODE
 70
     0
  9
$MIRRTEXT
 70
     0
  9
$LTSCALE
 40
1.0
  9
$ATTMODE
 70
     1
  9
$TEXTSIZE
 40
2.5
  9
$TRACEWID
 40
1.0
  9
$TEXTSTYLE
  7
STANDARD
  9
$CLAYER
  8
AM_0
  9
$CELTYPE
  6
ByLayer
  9
$CECOLOR
 62
   256
  9
$CELTSCALE
 40
1.0
  9
$DISPSILH
 70
     0
  9
$DIMSCALE
 40
1.0
  9
$DIMASZ
 40
2.5
  9
$DIMEXO
 40
0.5
  9
$DIMDLI
 40
8.0
  9
$DIMRND
 40
0.0
  9
$DIMDLE
 40
0.0
  9
$DIMEXE
 40
1.0
  9
$DIMTP
 40
0.0
  9
$DIMTM
 40
0.0
  9
$DIMTXT
 40
3.5
  9
$DIMCEN
 40
0.0
  9
$DIMTSZ
 40
0.0
  9
$DIMTOL
 70
     0
  9
$DIMLIM
 70
     0
  9
$DIMTIH
 70
     0
  9
$DIMTOH
 70
     0
  9
$DIMSE1
 70
     0
  9
$DIMSE2
 70
     0
  9
$DIMTAD
 70
     3
  9
$DIMZIN
 70
     8
  9
$DIMBLK
  1
Open
  9
$DIMASO
 70
     1
  9
$DIMSHO
 70
     1
  9
$DIMPOST
  1

  9
$DIMAPOST
  1
"
  9
$DIMALT
 70
     0
  9
$DIMALTD
 70
     2
  9
$DIMALTF
 40
0.0393701
  9
$DIMLFAC
 40
1.0
  9
$DIMTOFL
 70
     1
  9
$DIMTVP
 40
0.0
  9
$DIMTIX
 70
     0
  9
$DIMSOXD
 70
     0
  9
$DIMSAH
 70
     0
  9
$DIMBLK1
  1

  9
$DIMBLK2
  1

  9
$DIMSTYLE
  2
AM_JIS
  9
$DIMCLRD
 70
   256
  9
$DIMCLRE
 70
   256
  9
$DIMCLRT
 70
   140
  9
$DIMTFAC
 40
0.55
  9
$DIMGAP
 40
0.8
  9
$DIMJUST
 70
     0
  9
$DIMSD1
 70
     0
  9
$DIMSD2
 70
     0
  9
$DIMTOLJ
 70
     0
  9
$DIMTZIN
 70
     8
  9
$DIMALTZ
 70
     0
  9
$DIMALTTZ
 70
     0
  9
$DIMUPT
 70
     0
  9
$DIMDEC
 70
     3
  9
$DIMTDEC
 70
     3
  9
$DIMALTU
 70
     2
  9
$DIMALTTD
 70
     2
  9
$DIMTXSTY
  7
STANDARD
  9
$DIMAUNIT
 70
     0
  9
$DIMADEC
 70
     0
  9
$DIMALTRND
 40
0.0
  9
$DIMAZIN
 70
     2
  9
$DIMDSEP
 70
    46
  9
$DIMATFIT
 70
     3
  9
$DIMFRAC
 70
     0
  9
$DIMLDRBLK
  1
Open
  9
$DIMLUNIT
 70
     2
  9
$DIMLWD
 70
    -1
  9
$DIMLWE
 70
    -1
  9
$DIMTMOVE
 70
     0
  9
$LUNITS
 70
     2
  9
$LUPREC
 70
     2
  9
$SKETCHINC
 40
1.0
  9
$FILLETRAD
 40
2.5
  9
$AUNITS
 70
     0
  9
$AUPREC
 70
     0
  9
$MENU
  1
.
  9
$ELEVATION
 40
0.0
  9
$PELEVATION
 40
0.0
  9
$THICKNESS
 40
0.0
  9
$LIMCHECK
 70
     0
  9
$CHAMFERA
 40
2.5
  9
$CHAMFERB
 40
2.5
  9
$CHAMFERC
 40
20.0
  9
$CHAMFERD
 40
0.0
  9
$SKPOLY
 70
     0
  9
$TDCREATE
 40
2456560.689008600
  9
$TDUCREATE
 40
2456560.314008600
  9
$TDUPDATE
 40
2457997.661722743
  9
$TDUUPDATE
 40
2457997.286722743
  9
$TDINDWG
 40
0.1306196181
  9
$TDUSRTIMER
 40
0.1306192940
  9
$USRTIMER
 70
     1
  9
$ANGBASE
 50
0.0
  9
$ANGDIR
 70
     0
  9
$PDMODE
 70
     0
  9
$PDSIZE
 40
0.0
  9
$PLINEWID
 40
0.0
  9
$SPLFRAME
 70
     0
  9
$SPLINETYPE
 70
     6
  9
$SPLINESEGS
 70
     8
  9
$HANDSEED
  5
1146
  9
$SURFTAB1
 70
     6
  9
$SURFTAB2
 70
     6
  9
$SURFTYPE
 70
     6
  9
$SURFU
 70
     6
  9
$SURFV
 70
     6
  9
$UCSBASE
  2

  9
$UCSNAME
  2

  9
$UCSORG
 10
0.0
 20
0.0
 30
0.0
  9
$UCSXDIR
 10
1.0
 20
0.0
 30
0.0
  9
$UCSYDIR
 10
0.0
 20
1.0
 30
0.0
  9
$UCSORTHOREF
  2

  9
$UCSORTHOVIEW
 70
     0
  9
$UCSORGTOP
 10
0.0
 20
0.0
 30
0.0
  9
$UCSORGBOTTOM
 10
0.0
 20
0.0
 30
0.0
  9
$UCSORGLEFT
 10
0.0
 20
0.0
 30
0.0
  9
$UCSORGRIGHT
 10
0.0
 20
0.0
 30
0.0
  9
$UCSORGFRONT
 10
0.0
 20
0.0
 30
0.0
  9
$UCSORGBACK
 10
0.0
 20
0.0
 30
0.0
  9
$PUCSBASE
  2

  9
$PUCSNAME
  2

  9
$PUCSORG
 10
0.0
 20
0.0
 30
0.0
  9
$PUCSXDIR
 10
1.0
 20
0.0
 30
0.0
  9
$PUCSYDIR
 10
0.0
 20
1.0
 30
0.0
  9
$PUCSORTHOREF
  2

  9
$PUCSORTHOVIEW
 70
     0
  9
$PUCSORGTOP
 10
0.0
 20
0.0
 30
0.0
  9
$PUCSORGBOTTOM
 10
0.0
 20
0.0
 30
0.0
  9
$PUCSORGLEFT
 10
0.0
 20
0.0
 30
0.0
  9
$PUCSORGRIGHT
 10
0.0
 20
0.0
 30
0.0
  9
$PUCSORGFRONT
 10
0.0
 20
0.0
 30
0.0
  9
$PUCSORGBACK
 10
0.0
 20
0.0
 30
0.0
  9
$USERI1
 70
     0
  9
$USERI2
 70
     0
  9
$USERI3
 70
     0
  9
$USERI4
 70
     0
  9
$USERI5
 70
     0
  9
$USERR1
 40
0.0
  9
$USERR2
 40
0.0
  9
$USERR3
 40
0.0
  9
$USERR4
 40
0.0
  9
$USERR5
 40
0.0
  9
$WORLDVIEW
 70
     1
  9
$SHADEDGE
 70
     3
  9
$SHADEDIF
 70
    70
  9
$TILEMODE
 70
     1
  9
$MAXACTVP
 70
    64
  9
$PINSBASE
 10
0.0
 20
0.0
 30
0.0
  9
$PLIMCHECK
 70
     0
  9
$PEXTMIN
 10
1.000000000000000E+20
 20
1.000000000000000E+20
 30
1.000000000000000E+20
  9
$PEXTMAX
 10
-1.000000000000000E+20
 20
-1.000000000000000E+20
 30
-1.000000000000000E+20
  9
$PLIMMIN
 10
0.0
 20
0.0
  9
$PLIMMAX
 10
12.0
 20
9.0
  9
$UNITMODE
 70
     0
  9
$VISRETAIN
 70
     1
  9
$PLINEGEN
 70
     0
  9
$PSLTSCALE
 70
     1
  9
$TREEDEPTH
 70
  3020
  9
$CMLSTYLE
  2
Standard
  9
$CMLJUST
 70
     0
  9
$CMLSCALE
 40
20.0
  9
$PROXYGRAPHICS
 70
     1
  9
$MEASUREMENT
 70
     1
  9
$CELWEIGHT
370
    -1
  9
$ENDCAPS
280
     0
  9
$JOINSTYLE
280
     0
  9
$LWDISPLAY
290
     1
  9
$INSUNITS
 70
     4
  9
$HYPERLINKBASE
  1

  9
$STYLESHEET
  1

  9
$XEDIT
290
     1
  9
$CEPSNTYPE
380
     0
  9
$PSTYLEMODE
290
     1
  9
$FINGERPRINTGUID
  2
{FC0B9077-ED63-4724-A07A-90C707FF0193}
  9
$VERSIONGUID
  2
{89E404EC-AA44-4EFA-8CDC-0D740CEA7F12}
  9
$EXTNAMES
290
     1
  9
$PSVPSCALE
 40
0.0
  9
$OLESTARTUP
290
     0
  0
ENDSEC
  0
SECTION
  2
CLASSES
  0
CLASS
  1
ACDBDICTIONARYWDFLT
  2
AcDbDictionaryWithDefault
  3
ObjectDBX Classes
 90
        0
280
     0
281
     0
  0
CLASS
  1
MATERIAL
  2
AcDbMaterial
  3
ObjectDBX Classes
 90
     1153
280
     0
281
     0
  0
CLASS
  1
VISUALSTYLE
  2
AcDbVisualStyle
  3
ObjectDBX Classes
 90
     4095
280
     0
281
     0
  0
CLASS
  1
SCALE
  2
AcDbScale
  3
ObjectDBX Classes
 90
     1153
280
     0
281
     0
  0
CLASS
  1
TABLESTYLE
  2
AcDbTableStyle
  3
ObjectDBX Classes
 90
     4095
280
     0
281
     0
  0
CLASS
  1
MLEADERSTYLE
  2
AcDbMLeaderStyle
  3
ACDB_MLEADERSTYLE_CLASS
 90
     4095
280
     0
281
     0
  0
CLASS
  1
DIMASSOC
  2
AcDbDimAssoc
  3
"AcDbDimAssoc|Product Desc:     AcDim ARX App For Dimension|Company:          Autodesk, Inc.|WEB Address:      www.autodesk.com"
 90
        0
280
     0
281
     0
  0
CLASS
  1
SORTENTSTABLE
  2
AcDbSortentsTable
  3
ObjectDBX Classes
 90
        0
280
     0
281
     0
  0
CLASS
  1
DICTIONARYVAR
  2
AcDbDictionaryVar
  3
ObjectDBX Classes
 90
        0
280
     0
281
     0
  0
CLASS
  1
ACME_DOCUMENT
  2
AcMeDbDoc
  3
AcMeServices
 90
     1024
280
     0
281
     0
  0
CLASS
  1
AMGSETTINGSOBJ
  2
AmgSettingsObj
  3
"AcadM|Product Description: AutoCAD Mechanical|Company: Autodesk, Inc."
 90
     1024
280
     0
281
     0
  0
CLASS
  1
AMGOBJPROPCFG
  2
AmgObjPropCfg
  3
"AmgLay|Product Description: AutoCAD Mechanical|Company: Autodesk, Inc."
 90
     1025
280
     0
281
     0
  0
CLASS
  1
ACMESCOPE
  2
AcMeScope
  3
AcMeServices
 90
     1024
280
     0
281
     0
  0
CLASS
  1
ACGREFMASTER
  2
AcGrefMaster
  3
AcAttribServices
 90
     1024
280
     0
281
     0
  0
CLASS
  1
ACMECOMMANDHISTORY
  2
AcMeCommandHistory
  3
AcMeServices
 90
     1024
280
     0
281
     0
  0
CLASS
  1
ACIMSYSVARMAN
  2
AcImSysVarManager
  3
AcMeServices
 90
     1024
280
     0
281
     0
  0
CLASS
  1
ACIMINTSYSVAR
  2
AcImIntSysVar
  3
AcMeServices
 90
     1024
280
     0
281
     0
  0
CLASS
  1
ACMEDRAWINGMAN
  2
AcMeDrawingMan
  3
AcMeServices
 90
     1024
280
     0
281
     0
  0
CLASS
  1
ACMEVIEW
  2
AcMeView
  3
AcMeServices
 90
     1024
280
     0
281
     0
  0
CLASS
  1
ACDBENTITYCACHE
  2
AcMeEntityCache
  3
AcMeServices
 90
     1024
280
     0
281
     0
  0
CLASS
  1
ACMESTATEMGR
  2
AcMeStateMgr
  3
AcMeServices
 90
     1024
280
     0
281
     0
  0
CLASS
  1
AM_DRAWING_MGR
  2
AcDmDwgMgr
  3
AcMechDwgViewMgmt
 90
     1024
280
     0
281
     0
  0
CLASS
  1
AM_DWG_DOCUMENT
  2
AcDmDwgDocument
  3
AcMechDwgViewMgmt
 90
     1024
280
     0
281
     0
  0
CLASS
  1
AM_DWG_SHEET
  2
AcDmSheet
  3
AcMechDwgViewMgmt
 90
     1024
280
     0
281
     0
  0
CLASS
  1
AM_VIEWDIMPARMAP
  2
AcDmViewDimParMap
  3
AcMechDwgViewMgmt
 90
     1024
280
     0
281
     0
  0
CLASS
  1
AMDTINTERNALREACTOR
  2
AmdtInternalReactor
  3
AcMeServices
 90
     1024
280
     0
281
     0
  0
CLASS
  1
ACIMREALSYSVAR
  2
AcImRealSysVar
  3
AcMeServices
 90
     1024
280
     0
281
     0
  0
CLASS
  1
AM_DWGMGR_NAME
  2
AcDmDwgMgrName
  3
AcMechDwgViewMgmt
 90
     1024
280
     0
281
     0
  0
CLASS
  1
ACME_DATABASE
  2
AcMeDbDatabase
  3
AcMeServices
 90
     1024
280
     0
281
     0
  0
CLASS
  1
ACRFINSADJUSTERMGR
  2
AcRfInsAdjusterMgr
  3
AcMeServices
 90
     1024
280
     0
281
     0
  0
CLASS
  1
ACGREFACADMASTER
  2
AcGrefacadMaster
  3
AcGrefServices
 90
     1024
280
     0
281
     0
  0
CLASS
  1
AMDTMENUSTATEMGR
  2
AmdtMenuStateMgr
  3
McadcomServices
 90
     1024
280
     0
281
     0
  0
CLASS
  1
AMDTMCOMMENUSTATE
  2
AmdtMcomMenuState
  3
McadcomServices
 90
     1024
280
     0
281
     0
  0
CLASS
  1
AMIMASTER
  2
AmiMaster
  3
AmiServices
 90
     1024
280
     0
281
     0
  0
CLASS
  1
MAPIAMMOUDLE
  2
MApiAmModule
  3
MApiAmServices
 90
     1024
280
     0
281
     0
  0
CLASS
  1
AMDTWELDINGLIBRARY
  2
AmdtWeldingLibrary
  3
"AcmSymBB|Product Description: AutoCAD Mechanical|Company: Autodesk, Inc."
 90
    36863
280
     0
281
     0
  0
CLASS
  1
AMDTWELDINGLIBOBJECT
  2
AmdtWeldingLibObject
  3
"AcmSymBB|Product Description: AutoCAD Mechanical|Company: Autodesk, Inc."
 90
    36863
280
     0
281
     0
  0
CLASS
  1
AMDTEDGELIBRARY
  2
AmdtEdgeLibrary
  3
"AcmSymBB|Product Description: AutoCAD Mechanical|Company: Autodesk, Inc."
 90
    36863
280
     0
281
     0
  0
CLASS
  1
AMDTEDGELIBOBJECT
  2
AmdtEdgeLibObject
  3
"AcmSymBB|Product Description: AutoCAD Mechanical|Company: Autodesk, Inc."
 90
    36863
280
     0
281
     0
  0
CLASS
  1
AMDTFCFLIBRARY
  2
AmdtFCFLibrary
  3
"AcmSymBB|Product Description: AutoCAD Mechanical|Company: Autodesk, Inc."
 90
    36863
280
     0
281
     0
  0
CLASS
  1
AMDTFCFLIBOBJECT
  2
AmdtFCFLibObject
  3
"AcmSymBB|Product Description: AutoCAD Mechanical|Company: Autodesk, Inc."
 90
    36863
280
     0
281
     0
  0
CLASS
  1
ACMSTANDARDJIS
  2
AcmStandardJIS
  3
"Amdt_StdImp|Product Description: AutoCAD Mechanical|Company: Autodesk, Inc."
 90
     1024
280
     0
281
     0
  0
CLASS
  1
ACMSURFSTANDARDJIS2003
  2
AcmSurfTextStdJIS2003
  3
"Amdt_StdImp|Product Description: AutoCAD Mechanical|Company: Autodesk, Inc."
 90
     1024
280
     0
281
     0
  0
CLASS
  1
ACMFCFSTANDARDJIS98
  2
AcmFCFStdJIS98
  3
"Amdt_StdImp|Product Description: AutoCAD Mechanical|Company: Autodesk, Inc."
 90
     1024
280
     0
281
     0
  0
CLASS
  1
ACMWELDSTANDARDJIS
  2
AcmWeldingStdJIS
  3
"Amdt_StdImp|Product Description: AutoCAD Mechanical|Company: Autodesk, Inc."
 90
     1024
280
     0
281
     0
  0
CLASS
  1
ACMIDSTANDARDJIS
  2
AcmIdStdJIS
  3
"Amdt_StdImp|Product Description: AutoCAD Mechanical|Company: Autodesk, Inc."
 90
     1024
280
     0
281
     0
  0
CLASS
  1
ACMDATUMSTANDARDJIS
  2
AcmDatumStdJIS
  3
"Amdt_StdImp|Product Description: AutoCAD Mechanical|Company: Autodesk, Inc."
 90
     1024
280
     0
281
     0
  0
CLASS
  1
ACMBOMSTANDARDJIS
  2
AcmBOMStdJIS
  3
"Amdt_StdImp|Product Description: AutoCAD Mechanical|Company: Autodesk, Inc."
 90
     1024
280
     0
281
     0
  0
CLASS
  1
ACMDETAILSTANDARDJIS
  2
AmdtDetailSymStdJIS
  3
"Amdt_StdImp|Product Description: AutoCAD Mechanical|Company: Autodesk, Inc."
 90
     1024
280
     0
281
     0
  0
CLASS
  1
ACMSECTIONSTANDARDJIS
  2
AmdtSectionSymStdJIS
  3
"Amdt_StdImp|Product Description: AutoCAD Mechanical|Company: Autodesk, Inc."
 90
     1024
280
     0
281
     0
  0
CLASS
  1
ACMCENTERLINESTANDARDJIS
  2
AmdtCenterLineStdJIS
  3
"Amdt_StdImp|Product Description: AutoCAD Mechanical|Company: Autodesk, Inc."
 90
     1024
280
     0
281
     0
  0
CLASS
  1
ACMTHREADLINESTANDARDJIS
  2
AmdtThreadLineStdJIS
  3
"Amdt_StdImp|Product Description: AutoCAD Mechanical|Company: Autodesk, Inc."
 90
     1024
280
     0
281
     0
  0
CLASS
  1
ACAMGLAYSTD
  2
AcAmgLayStd
  3
"AmgLay|Product Description: AutoCAD Mechanical|Company: Autodesk, Inc."
 90
     1024
280
     0
281
     0
  0
CLASS
  1
ACAMGDIMSTD
  2
AcAmgDimStd
  3
"AmgDim|Product Description: AutoCAD Mechanical|Company: Autodesk, Inc."
 90
     1024
280
     0
281
     0
  0
CLASS
  1
ACAMGTITLESTD
  2
AcAmgTitleStd
  3
"AmgTitle|Product Description: AutoCAD Mechanical|Company: Autodesk, Inc."
 90
     4095
280
     0
281
     0
  0
CLASS
  1
ACMNOTESTANDARDJIS
  2
AmdtNoteStdJIS
  3
"Amdt_StdImp|Product Description: AutoCAD Mechanical|Company: Autodesk, Inc."
 90
     1024
280
     0
281
     0
  0
CLASS
  1
AMDTNOTETEMPLATEDB
  2
AmdtNoteTemplateDB
  3
AcmSymBB|Product Description: AutoCAD Mechanical|Company: Autodesk, Inc.
 90
     1024
280
     0
281
     0
  0
CLASS
  1
ACAMGHOLECHARTSTDJIS
  2
AcAmgHoleChartStdJIS
  3
AmgDim|Product Description: AutoCAD Mechanical|Company: Autodesk, Inc.
 90
     1024
280
     0
281
     0
  0
CLASS
  1
ACMTAPERSTANDARDJIS
  2
AcmTaperStdJIS
  3
"Amdt_StdImp|Product Description: AutoCAD Mechanical|Company: Autodesk, Inc."
 90
     1024
280
     0
281
     0
  0
CLASS
  1
ACMANOOTATIONVIEWSTANDARDJIS
  2
AmdtAnViewStdJIS
  3
"Amdt_StdImp|Product Description: AutoCAD Mechanical|Company: Autodesk, Inc."
 90
     1024
280
     0
281
     0
  0
CLASS
  1
AMDTEDGESTANDARDJIS
  2
AmdtEdgeStdJIS
  3
"Amdt_StdImp|Product Description: AutoCAD Mechanical|Company: Autodesk, Inc."
 90
     1024
280
     0
281
     0
  0
CLASS
  1
ACIMSTRSYSVAR
  2
AcImStrSysVar
  3
AcMeServices
 90
     1024
280
     0
281
     0
  0
CLASS
  1
AMDTADMENUSTATE
  2
AmdtAdMenuState
  3
DesignerServices
 90
     1024
280
     0
281
     0
  0
CLASS
  1
ADAPPL
  2
AcAdAppl
  3
DesignerServices
 90
     1024
280
     0
281
     0
  0
CLASS
  1
DEPMGR
  2
AcAdDepMgr
  3
DesignerServices
 90
     1024
280
     0
281
     0
  0
CLASS
  1
PARAMMGR
  2
AcAdParamMgr
  3
DesignerServices
 90
     1024
280
     0
281
     0
  0
CLASS
  1
PARAMSCOPE
  2
AcAdParamScope
  3
DesignerServices
 90
     1024
280
     0
281
     0
  0
CLASS
  1
NAMEDAPPL
  2
AcAdNamedAppl
  3
DesignerServices
 90
     1024
280
     0
281
     0
  0
CLASS
  1
AMDTDMMENUSTATE
  2
AmdtDmMenuState
  3
AcMechDwgViewMgmt
 90
     1024
280
     0
281
     0
  0
CLASS
  1
AMDTAMMENUSTATE
  2
AmdtAmMenuState
  3
DesignerAssemblies
 90
     1024
280
     0
281
     0
  0
CLASS
  1
ACAMPROJECT
  2
AcAmProject
  3
DesignerAssemblies
 90
     1024
280
     0
281
     0
  0
CLASS
  1
ACAMGRCOMPDEF
  2
AcAmGrCompDef
  3
DesignerAssemblies
 90
     1024
280
     0
281
     0
  0
CLASS
  1
ACAMCOMPDEF
  2
AcAmCompDef
  3
DesignerAssemblies
 90
     1024
280
     0
281
     0
  0
CLASS
  1
ACAMCOMPDEFMGR
  2
AcAmCompDefMgr
  3
DesignerAssemblies
 90
     1024
280
     0
281
     0
  0
CLASS
  1
AMCONTEXTMGR
  2
AcAmContextMgr
  3
DesignerAssemblies
 90
     1024
280
     0
281
     0
  0
CLASS
  1
ACAMCONTEXTMODELER
  2
AcAmContextModeler
  3
DesignerAssemblies
 90
     1024
280
     0
281
     0
  0
CLASS
  1
ACMDATADICTIONARY
  2
AcmDataDictionary
  3
"AcmSymBB|Product Description: AutoCAD Mechanical|Company: Autodesk, Inc."
 90
     1024
280
     0
281
     0
  0
CLASS
  1
CATALOGSTATE
  2
AcAmCatalogState
  3
DesignerAssemblies
 90
     1024
280
     0
281
     0
  0
CLASS
  1
ACAMGRCOMPDEFSET
  2
AcAmGrCompDefSet
  3
DesignerAssemblies
 90
     1024
280
     0
281
     0
  0
CLASS
  1
AMDTBROWSERDBTAB
  2
AmdtBrowserDbTab
  3
McadcomServices
 90
     1024
280
     0
281
     0
  0
CLASS
  1
CBROWSERAPPOBJECT
  2
CBrowserAppObject
  3
McadcomServices
 90
     1024
280
     0
281
     0
  0
CLASS
  1
DM_PLACEHOLDER
  2
AcDmSelsetPlaceholder
  3
AcMechDwgViewMgmt
 90
     1024
280
     0
281
     0
  0
CLASS
  1
EXACXREFPANELOBJECT
  2
ExAcXREFPanelObject
  3
EXAC_ESW
 90
    33793
280
     0
281
     0
  0
CLASS
  1
NPOCOLLECTION
  2
AcDbImpNonPersistentObjectsCollection
  3
ObjectDBX Classes
 90
    33921
280
     0
281
     0
  0
CLASS
  1
ACAMGFILTERDAT
  2
AcAmgFilterDat
  3
"AcadM|Product Description: AutoCAD Mechanical|Company: Autodesk, Inc."
 90
    33792
280
     0
281
     0
  0
CLASS
  1
CELLSTYLEMAP
  2
AcDbCellStyleMap
  3
ObjectDBX Classes
 90
     1152
280
     0
281
     0
  0
CLASS
  1
ACDBPLACEHOLDER
  2
AcDbPlaceHolder
  3
ObjectDBX Classes
 90
        0
280
     0
281
     0
  0
CLASS
  1
LAYOUT
  2
AcDbLayout
  3
ObjectDBX Classes
 90
        0
280
     0
281
     0
  0
CLASS
  1
ACMSTANDARDISO
  2
AcmStandardISO
  3
"Amdt_StdImp|Product Description: AutoCAD Mechanical|Company: Autodesk, Inc."
 90
     1024
280
     0
281
     0
  0
CLASS
  1
AMDTEDGESTANDARDISO13715
  2
AmdtEdgeStdISO13715
  3
"Amdt_StdImp|Product Description: AutoCAD Mechanical|Company: Autodesk, Inc."
 90
     1024
280
     0
281
     0
  0
CLASS
  1
ACMSURFSTANDARDISO2002
  2
AcmSurfTextStdISO2002
  3
"Amdt_StdImp|Product Description: AutoCAD Mechanical|Company: Autodesk, Inc."
 90
     1024
280
     0
281
     0
  0
CLASS
  1
ACMFCFSTANDARDISO
  2
AcmFCFStdISO
  3
"Amdt_StdImp|Product Description: AutoCAD Mechanical|Company: Autodesk, Inc."
 90
     1024
280
     0
281
     0
  0
CLASS
  1
ACMWELDSTANDARDISO
  2
AcmWeldingStdISO
  3
"Amdt_StdImp|Product Description: AutoCAD Mechanical|Company: Autodesk, Inc."
 90
     1024
280
     0
281
     0
  0
CLASS
  1
ACMIDSTANDARDISO
  2
AcmIdStdISO
  3
"Amdt_StdImp|Product Description: AutoCAD Mechanical|Company: Autodesk, Inc."
 90
     1024
280
     0
281
     0
  0
CLASS
  1
ACMDATUMSTANDARDISO
  2
AcmDatumStdISO
  3
"Amdt_StdImp|Product Description: AutoCAD Mechanical|Company: Autodesk, Inc."
 90
     1024
280
     0
281
     0
  0
CLASS
  1
ACMBOMSTANDARDISO
  2
AcmBOMStdISO
  3
"Amdt_StdImp|Product Description: AutoCAD Mechanical|Company: Autodesk, Inc."
 90
     1024
280
     0
281
     0
  0
CLASS
  1
ACMDETAILSTANDARDISO
  2
AmdtDetailSymStdISO
  3
"Amdt_StdImp|Product Description: AutoCAD Mechanical|Company: Autodesk, Inc."
 90
     1024
280
     0
281
     0
  0
CLASS
  1
ACMSECTIONSTANDARDISO2001
  2
AmdtSectionSymStdISO2001
  3
"Amdt_StdImp|Product Description: AutoCAD Mechanical|Company: Autodesk, Inc."
 90
     1024
280
     0
281
     0
  0
CLASS
  1
ACMCENTERLINESTANDARDISO
  2
AmdtCenterLineStdISO
  3
"Amdt_StdImp|Product Description: AutoCAD Mechanical|Company: Autodesk, Inc."
 90
     1024
280
     0
281
     0
  0
CLASS
  1
ACMTHREADLINESTANDARDISO
  2
AmdtThreadLineStdISO
  3
"Amdt_StdImp|Product Description: AutoCAD Mechanical|Company: Autodesk, Inc."
 90
     1024
280
     0
281
     0
  0
CLASS
  1
ACMNOTESTANDARDISO
  2
AmdtNoteStdISO
  3
"Amdt_StdImp|Product Description: AutoCAD Mechanical|Company: Autodesk, Inc."
 90
     1024
280
     0
281
     0
  0
CLASS
  1
ACMTAPERSTANDARDISO
  2
AcmTaperStdISO
  3
"Amdt_StdImp|Product Description: AutoCAD Mechanical|Company: Autodesk, Inc."
 90
     1024
280
     0
281
     0
  0
CLASS
  1
ACMANOOTATIONVIEWSTANDARDISO
  2
AmdtAnViewStdISO
  3
"Amdt_StdImp|Product Description: AutoCAD Mechanical|Company: Autodesk, Inc."
 90
     1024
280
     0
281
     0
  0
CLASS
  1
ACAMGHOLECHARTSTDISO
  2
AcAmgHoleChartStdISO
  3
AmgDim|Product Description: AutoCAD Mechanical|Company: Autodesk, Inc.
 90
     1024
280
     0
281
     0
  0
CLASS
  1
CAMSSTRUCTBTNSTATE
  2
StructBtnState
  3
DesignerAssemblies
 90
    33792
280
     0
281
     0
  0
CLASS
  1
AMDTNOTE
  2
AmdtNote
  3
"AcmSymBB|Product Description: AutoCAD Mechanical|Company: Autodesk, Inc."
 90
     4095
280
     0
281
     1
  0
ENDSEC
  0
SECTION
  2
TABLES
  0
TABLE
  2
VPORT
  5
8
330
0
100
AcDbSymbolTable
 70
     1
  0
VPORT
  5
52
330
8
100
AcDbSymbolTableRecord
100
AcDbViewportTableRecord
  2
*Active
 70
     0
 10
0.0
 20
0.0
 11
1.0
 21
1.0
 12
137.4213834633555
 22
50.00216691287852
 13
0.0
 23
0.0
 14
10.0
 24
10.0
 15
10.0
 25
10.0
 16
0.0
 26
0.0
 36
1.0
 17
0.0
 27
0.0
 37
0.0
 40
100.9262887447737
 41
2.745426829268292
 42
50.0
 43
0.0
 44
0.0
 50
0.0
 51
0.0
 71
     0
 72
  1000
 73
     1
 74
     1
 75
     0
 76
     0
 77
     0
 78
     0
281
     0
 65
     0
110
0.0
120
0.0
130
0.0
111
1.0
121
0.0
131
0.0
112
0.0
122
1.0
132
0.0
 79
     0
146
0.0
  0
ENDTAB
  0
TABLE
  2
LTYPE
  5
5
330
0
100
AcDbSymbolTable
 70
    18
  0
LTYPE
  5
56
330
5
100
AcDbSymbolTableRecord
100
AcDbLinetypeTableRecord
  2
ByBlock
 70
     0
  3

 72
    65
 73
     0
 40
0.0
  0
LTYPE
  5
57
330
5
100
AcDbSymbolTableRecord
100
AcDbLinetypeTableRecord
  2
ByLayer
 70
     0
  3

 72
    65
 73
     0
 40
0.0
  0
LTYPE
  5
58
330
5
100
AcDbSymbolTableRecord
100
AcDbLinetypeTableRecord
  2
Continuous
 70
     0
  3
Solid line
 72
    65
 73
     0
 40
0.0
  0
LTYPE
  5
94
330
5
100
AcDbSymbolTableRecord
100
AcDbLinetypeTableRecord
  2
AM_ISO02W050
 70
     0
  3
__ __ __ __ __ __ __ __ __ __ __ __ __ __ __
 72
    65
 73
     2
 40
7.5
 49
6.0
 74
     0
 49
-1.5
 74
     0
  0
LTYPE
  5
95
330
5
100
AcDbSymbolTableRecord
100
AcDbLinetypeTableRecord
  2
AM_ISO08W050
 70
     0
  3
____ . ____ . ____ . ____ . ____ . ____ . ____
 72
    65
 73
     4
 40
18.0
 49
12.0
 74
     0
 49
-1.5
 74
     0
 49
3.0
 74
     0
 49
-1.5
 74
     0
  0
LTYPE
  5
96
330
5
100
AcDbSymbolTableRecord
100
AcDbLinetypeTableRecord
  2
AM_ISO09W050
 70
     0
  3
_____ . . _____ . . _____ . . ____ .. ____
 72
    65
 73
     6
 40
22.5
 49
12.0
 74
     0
 49
-1.5
 74
     0
 49
3.0
 74
     0
 49
-1.5
 74
     0
 49
3.0
 74
     0
 49
-1.5
 74
     0
  0
LTYPE
  5
97
330
5
100
AcDbSymbolTableRecord
100
AcDbLinetypeTableRecord
  2
Amconstr
 70
     0
  3
_______________________
 72
    65
 73
     2
 40
9999.0
 49
9999.0
 74
     0
 49
0.0
 74
     0
  0
LTYPE
  5
98
330
5
100
AcDbSymbolTableRecord
100
AcDbLinetypeTableRecord
  2
AM_ISO08W050x2
 70
     0
  3
__ . __ . __ . __ . __ . __
 72
    65
 73
     4
 40
9.0
 49
6.0
 74
     0
 49
-0.75
 74
     0
 49
1.5
 74
     0
 49
-0.75
 74
     0
  0
LTYPE
  5
99
330
5
100
AcDbSymbolTableRecord
100
AcDbLinetypeTableRecord
  2
AM_ISO02W050x2
 70
     0
  3
 _ _ _ _ _ _ _ _ _ _ _ _
 72
    65
 73
     2
 40
3.75
 49
3.0
 74
     0
 49
-0.75
 74
     0
  0
LTYPE
  5
9A
330
5
100
AcDbSymbolTableRecord
100
AcDbLinetypeTableRecord
  2
Amzigzag
 70
     0
  3
/\/-/\/-/\/-/\/-/\/-/\/
 72
    65
 73
     2
 40
11.0001
 49
0.0001
 74
     4
 75
   136
340
8B
 46
0.04
 50
0.0
 44
0.0
 45
0.0
 49
-11.0
 74
     0
  0
LTYPE
  5
9B
330
5
100
AcDbSymbolTableRecord
100
AcDbLinetypeTableRecord
  2
ACJISTGB
 70
     0
  3
__ . . __ . .
 72
    65
 73
     6
 40
9.0
 49
4.0
 74
     0
 49
-1.0
 74
     0
 49
1.0
 74
     0
 49
-1.0
 74
     0
 49
1.0
 74
     0
 49
-1.0
 74
     0
  0
LTYPE
  5
9C
330
5
100
AcDbSymbolTableRecord
100
AcDbLinetypeTableRecord
  2
ACJISTGL
 70
     0
  3
_ _ _ _ _
 72
    65
 73
     2
 40
3.0
 49
2.0
 74
     0
 49
-1.0
 74
     0
  0
LTYPE
  5
9D
330
5
100
AcDbSymbolTableRecord
100
AcDbLinetypeTableRecord
  2
HIDDEN
 70
     0
  3
Hidden __ __ __ __ __ __ __ __ __ __ __ __ __ _
 72
    65
 73
     2
 40
9.524999999999996
 49
6.349999999999997
 74
     0
 49
-3.174999999999998
 74
     0
  0
LTYPE
  5
9E
330
5
100
AcDbSymbolTableRecord
100
AcDbLinetypeTableRecord
  2
ACJISWELD
 70
     0
  3
_ _ _ _ _
 72
    65
 73
     2
 40
2.0
 49
2.0
 74
     0
 49
-1.0
 74
     0
  0
LTYPE
  5
9F
330
5
100
AcDbSymbolTableRecord
100
AcDbLinetypeTableRecord
  2
DASH_DOT
 70
     0
  3
Dash dot __ . __ . __ . __ . __ . __ . __ . __
 72
    65
 73
     4
 40
0.37
 49
0.24
 74
     0
 49
-0.06
 74
     0
 49
0.01
 74
     0
 49
-0.06
 74
     0
  0
LTYPE
  5
A0
330
5
100
AcDbSymbolTableRecord
100
AcDbLinetypeTableRecord
  2
PHANTOM2
 70
     0
  3
Phantom (.5x) ___ _ _ ___ _ _ ___ _ _ ___ _ _
 72
    65
 73
     6
 40
31.75
 49
15.875
 74
     0
 49
-3.174999999999998
 74
     0
 49
3.174999999999998
 74
     0
 49
-3.174999999999998
 74
     0
 49
3.174999999999998
 74
     0
 49
-3.174999999999998
 74
     0
  0
LTYPE
  5
A1
330
5
100
AcDbSymbolTableRecord
100
AcDbLinetypeTableRecord
  2
CENTER
 70
     0
  3
Center ____ _ ____ _ ____ _ ____ _ ____ _ ____
 72
    65
 73
     4
 40
50.8
 49
31.75
 74
     0
 49
-6.349999999999997
 74
     0
 49
6.349999999999997
 74
     0
 49
-6.349999999999997
 74
     0
  0
LTYPE
  5
6C9
330
5
100
AcDbSymbolTableRecord
100
AcDbLinetypeTableRecord
  2
ACISOWELD
 70
     0
  3
_ _ _ _ _
 72
    65
 73
     2
 40
2.0
 49
2.0
 74
     0
 49
-1.0
 74
     0
  0
LTYPE
  5
6CA
330
5
100
AcDbSymbolTableRecord
100
AcDbLinetypeTableRecord
  2
ACISOTGB
 70
     0
  3
__ . . __ . .
 72
    65
 73
     6
 40
9.0
 49
4.0
 74
     0
 49
-1.0
 74
     0
 49
1.0
 74
     0
 49
-1.0
 74
     0
 49
1.0
 74
     0
 49
-1.0
 74
     0
  0
LTYPE
  5
6CB
330
5
100
AcDbSymbolTableRecord
100
AcDbLinetypeTableRecord
  2
ACISOTGL
 70
     0
  3
_ _ _ _ _
 72
    65
 73
     2
 40
3.0
 49
2.0
 74
     0
 49
-1.0
 74
     0
  0
ENDTAB
  0
TABLE
  2
LAYER
  5
2
102
{ACAD_XDICTIONARY
360
9B2
102
}
330
0
100
AcDbSymbolTable
 70
    11
  0
LAYER
  5
4F
102
{ACAD_XDICTIONARY
360
5F7
102
}
330
2
100
AcDbSymbolTableRecord
100
AcDbLayerTableRecord
  2
0
 70
     0
 62
     7
  6
Continuous
370
    -3
390
F
1001
AcAecLayerStandard
1000

1000

  0
LAYER
  5
70
330
2
100
AcDbSymbolTableRecord
100
AcDbLayerTableRecord
  2
Defpoints
 70
     0
 62
     7
  6
Continuous
290
     0
370
    -3
390
F
1001
AcAecLayerStandard
1000

1000

  0
LAYER
  5
C9
102
{ACAD_XDICTIONARY
360
CA
102
}
330
2
100
AcDbSymbolTableRecord
100
AcDbLayerTableRecord
  2
AM_VIEWS
 70
     0
 62
     1
  6
Continuous
290
     0
370
    25
390
F
1001
AcAecLayerStandard
1000

1000

  0
LAYER
  5
D2
102
{ACAD_XDICTIONARY
360
D3
102
}
330
2
100
AcDbSymbolTableRecord
100
AcDbLayerTableRecord
  2
AM_5
 70
     0
 62
    92
  6
Continuous
370
    13
390
F
1001
AcAecLayerStandard
1000

1000

  0
LAYER
  5
F1
102
{ACAD_XDICTIONARY
360
F2
102
}
330
2
100
AcDbSymbolTableRecord
100
AcDbLayerTableRecord
  2
AM_0
 70
     0
 62
     7
  6
Continuous
370
    35
390
F
  0
LAYER
  5
14F
102
{ACAD_XDICTIONARY
360
150
102
}
330
2
100
AcDbSymbolTableRecord
100
AcDbLayerTableRecord
  2
AM_7
 70
     0
 62
   142
  6
AM_ISO08W050x2
370
    13
390
F
1001
AcAecLayerStandard
1000

1000

  0
LAYER
  5
230
102
{ACAD_XDICTIONARY
360
5F9
102
}
330
2
100
AcDbSymbolTableRecord
100
AcDbLayerTableRecord
  2
Viewport2ForCustomObjects_0
 70
     0
 62
     7
  6
Continuous
370
    -3
390
F
  0
LAYER
  5
6D4
330
2
100
AcDbSymbolTableRecord
100
AcDbLayerTableRecord
  2
Visible (ISO)
 70
     0
 62
     7
  6
Continuous
370
    50
390
F
  0
LAYER
  5
6D5
330
2
100
AcDbSymbolTableRecord
100
AcDbLayerTableRecord
  2
Visible Narrow (ISO)
 70
     0
 62
     7
  6
Continuous
370
    35
390
F
  0
LAYER
  5
9B0
102
{ACAD_XDICTIONARY
360
9B1
102
}
330
2
100
AcDbSymbolTableRecord
100
AcDbLayerTableRecord
  2
AM_1
 70
     0
 62
    14
  6
Continuous
370
    50
390
F
1001
AcAecLayerStandard
1000

1000

  0
LAYER
  5
FB8
330
2
100
AcDbSymbolTableRecord
100
AcDbLayerTableRecord
  2
AM_6KM
 70
     0
 62
   140
  6
Continuous
370
    13
390
F
1001
AcAecLayerStandard
1000

1000

  0
ENDTAB
  0
TABLE
  2
STYLE
  5
3
330
0
100
AcDbSymbolTable
 70
    14
  0
STYLE
  5
50
330
3
100
AcDbSymbolTableRecord
100
AcDbTextStyleTableRecord
  2
STANDARD
 70
     0
 40
0.0
 41
1.0
 50
0.0
 71
     0
 42
2.5
  3
TAHOMA.TTF
  4

1001
ACAD
1000
Tahoma
1071
       34
  0
STYLE
  5
55
330
3
100
AcDbSymbolTableRecord
100
AcDbTextStyleTableRecord
  2
Annotative
 70
     0
 40
0.0
 41
1.0
 50
0.0
 71
     0
 42
0.2
  3
txt
  4

1001
AcadAnnotative
1000
AnnotativeData
1002
{
1070
     1
1070
     1
1002
}
  0
STYLE
  5
8A
330
3
100
AcDbSymbolTableRecord
100
AcDbTextStyleTableRecord
  2
ACJISGDT
 70
     0
 40
0.0
 41
1.0
 50
0.0
 71
     0
 42
2.5
  3
amgdt.shx
  4
extfont2.shx
  0
STYLE
  5
8B
330
3
100
AcDbSymbolTableRecord
100
AcDbTextStyleTableRecord
  2

 70
     1
 40
0.0
 41
1.0
 50
0.0
 71
     0
 42
2.5
  3
genltshp.shx
  4

  0
STYLE
  5
8C
330
3
100
AcDbSymbolTableRecord
100
AcDbTextStyleTableRecord
  2
Note Text (JIS)
 70
     0
 40
0.0
 41
1.0
 50
0.0
 71
     0
 42
0.2
  3
TAHOMA.TTF
  4

1001
ACAD
1000
Tahoma
1071
      256
  0
STYLE
  5
8D
330
3
100
AcDbSymbolTableRecord
100
AcDbTextStyleTableRecord
  2
CustomTextStyle0
 70
     0
 40
3.5
 41
1.0
 50
0.0
 71
     0
 42
2.5
  3
TAHOMA.TTF
  4

1001
ACAD
1000
Tahoma
1071
      290
  0
STYLE
  5
8E
330
3
100
AcDbSymbolTableRecord
100
AcDbTextStyleTableRecord
  2
CustomTextStyle1
 70
     0
 40
3.5
 41
1.0
 50
0.0
 71
     0
 42
2.5
  3
MS PGothic.ttf
  4

1001
ACAD
1000
MS PGothic
1071
      306
  0
STYLE
  5
8F
330
3
100
AcDbSymbolTableRecord
100
AcDbTextStyleTableRecord
  2
CustomTextStyle2
 70
     0
 40
3.5
 41
1.0
 50
0.0
 71
     0
 42
2.5
  3
TAHOMA.TTF
  4

1001
ACAD
1000
Tahoma
1071
      290
  0
STYLE
  5
90
330
3
100
AcDbSymbolTableRecord
100
AcDbTextStyleTableRecord
  2
CustomTextStyle3
 70
     0
 40
3.5
 41
1.0
 50
0.0
 71
     0
 42
2.5
  3
MS PGothic.ttf
  4

1001
ACAD
1000
MS PGothic
1071
      306
  0
STYLE
  5
91
330
3
100
AcDbSymbolTableRecord
100
AcDbTextStyleTableRecord
  2
CustomTextStyle4
 70
     0
 40
3.5
 41
1.0
 50
0.0
 71
     0
 42
2.5
  3
TAHOMA.TTF
  4

1001
ACAD
1000
Tahoma
1071
      290
  0
STYLE
  5
92
330
3
100
AcDbSymbolTableRecord
100
AcDbTextStyleTableRecord
  2
CustomTextStyle5
 70
     0
 40
3.5
 41
1.0
 50
0.0
 71
     0
 42
2.5
  3
MS PGothic.ttf
  4

1001
ACAD
1000
MS PGothic
1071
      306
  0
STYLE
  5
93
330
3
100
AcDbSymbolTableRecord
100
AcDbTextStyleTableRecord
  2
CustomTextStyle6
 70
     0
 40
3.5
 41
1.0
 50
0.0
 71
     0
 42
2.5
  3
MS PGothic.ttf
  4

1001
ACAD
1000
MS PGothic
1071
      306
  0
STYLE
  5
6C7
330
3
100
AcDbSymbolTableRecord
100
AcDbTextStyleTableRecord
  2
ACISOTS
 70
     0
 40
1.0
 41
1.0
 50
0.0
 71
     0
 42
2.5
  3
isocp.shx
  4
extfont.shx
  0
STYLE
  5
6C8
330
3
100
AcDbSymbolTableRecord
100
AcDbTextStyleTableRecord
  2
ACISOGDT
 70
     0
 40
0.0
 41
1.0
 50
0.0
 71
     0
 42
2.5
  3
amgdt.shx
  4

  0
ENDTAB
  0
TABLE
  2
VIEW
  5
6
330
0
100
AcDbSymbolTable
 70
     0
  0
ENDTAB
  0
TABLE
  2
UCS
  5
7
330
0
100
AcDbSymbolTable
 70
     0
  0
ENDTAB
  0
TABLE
  2
APPID
  5
9
330
0
100
AcDbSymbolTable
 70
    45
  0
APPID
  5
51
330
9
100
AcDbSymbolTableRecord
100
AcDbRegAppTableRecord
  2
ACAD
 70
     0
  0
APPID
  5
59
330
9
100
AcDbSymbolTableRecord
100
AcDbRegAppTableRecord
  2
AcadAnnotative
 70
     0
  0
APPID
  5
6F
330
9
100
AcDbSymbolTableRecord
100
AcDbRegAppTableRecord
  2
ACAD_PSEXT
 70
     0
  0
APPID
  5
71
330
9
100
AcDbSymbolTableRecord
100
AcDbRegAppTableRecord
  2
ACAD_DSTYLE_DIMJOGGED_JOGANGLE_SYMBOL
 70
     0
  0
APPID
  5
72
330
9
100
AcDbSymbolTableRecord
100
AcDbRegAppTableRecord
  2
ACAD_DSTYLE_DIMJAG
 70
     0
  0
APPID
  5
73
330
9
100
AcDbSymbolTableRecord
100
AcDbRegAppTableRecord
  2
ACAD_DSTYLE_DIMBREAK
 70
     0
  0
APPID
  5
74
330
9
100
AcDbSymbolTableRecord
100
AcDbRegAppTableRecord
  2
AcAecLayerStandard
 70
     0
  0
APPID
  5
75
330
9
100
AcDbSymbolTableRecord
100
AcDbRegAppTableRecord
  2
GENIUS_GENREC_14
 70
     0
  0
APPID
  5
76
330
9
100
AcDbSymbolTableRecord
100
AcDbRegAppTableRecord
  2
GENIUS_GENODEF_13
 70
     0
  0
APPID
  5
77
330
9
100
AcDbSymbolTableRecord
100
AcDbRegAppTableRecord
  2
GENIUS_GENOBJ-N-REC_13
 70
     0
  0
APPID
  5
78
330
9
100
AcDbSymbolTableRecord
100
AcDbRegAppTableRecord
  2
ACAD_DSTYLE_DIMTALN
 70
     0
  0
APPID
  5
79
330
9
100
AcDbSymbolTableRecord
100
AcDbRegAppTableRecord
  2
GENIUS_GENOENT_13
 70
     0
  0
APPID
  5
7A
330
9
100
AcDbSymbolTableRecord
100
AcDbRegAppTableRecord
  2
GENIUS_GENOBJ-N-FITL_13
 70
     0
  0
APPID
  5
7B
330
9
100
AcDbSymbolTableRecord
100
AcDbRegAppTableRecord
  2
GENIUS_GENOLIS_13
 70
     0
  0
APPID
  5
7C
330
9
100
AcDbSymbolTableRecord
100
AcDbRegAppTableRecord
  2
GENIUS_GENFITL_13
 70
     0
  0
APPID
  5
7D
330
9
100
AcDbSymbolTableRecord
100
AcDbRegAppTableRecord
  2
GENIUS_GENOREF_13
 70
     0
  0
APPID
  5
7E
330
9
100
AcDbSymbolTableRecord
100
AcDbRegAppTableRecord
  2
GENIUS_GENOBJ-N-RSSYM_13
 70
     0
  0
APPID
  5
7F
330
9
100
AcDbSymbolTableRecord
100
AcDbRegAppTableRecord
  2
GENIUS_GENSYMENT_13
 70
     0
  0
APPID
  5
80
330
9
100
AcDbSymbolTableRecord
100
AcDbRegAppTableRecord
  2
ACAD_DSTYLE_DIMINSPECT
 70
     0
  0
APPID
  5
81
330
9
100
AcDbSymbolTableRecord
100
AcDbRegAppTableRecord
  2
ACAD_DSTYLE_DIMRADIAL_EXTENSION
 70
     0
  0
APPID
  5
82
330
9
100
AcDbSymbolTableRecord
100
AcDbRegAppTableRecord
  2
GENIUS_GENSCREG_15
 70
     0
  0
APPID
  5
83
330
9
100
AcDbSymbolTableRecord
100
AcDbRegAppTableRecord
  2
GENIUS_GENOBJ-N-SDF_13
 70
     0
  0
APPID
  5
84
330
9
100
AcDbSymbolTableRecord
100
AcDbRegAppTableRecord
  2
GENIUS_GENOBJ-N-CRS_13
 70
     0
  0
APPID
  5
85
330
9
100
AcDbSymbolTableRecord
100
AcDbRegAppTableRecord
  2
AcDbDynamicBlockGUID
 70
     0
  0
APPID
  5
86
330
9
100
AcDbSymbolTableRecord
100
AcDbRegAppTableRecord
  2
GENIUS_AMGTXT_16
 70
     0
  0
APPID
  5
87
330
9
100
AcDbSymbolTableRecord
100
AcDbRegAppTableRecord
  2
GENIUS_GENOBJ-N-CEN_13
 70
     0
  0
APPID
  5
88
330
9
100
AcDbSymbolTableRecord
100
AcDbRegAppTableRecord
  2
GENIUS_GENCEN_19
 70
     0
  0
APPID
  5
89
330
9
100
AcDbSymbolTableRecord
100
AcDbRegAppTableRecord
  2
ACATTRIBSERVICES
 70
     0
  0
APPID
  5
530
330
9
100
AcDbSymbolTableRecord
100
AcDbRegAppTableRecord
  2
DCO15
 70
     0
  0
APPID
  5
54B
330
9
100
AcDbSymbolTableRecord
100
AcDbRegAppTableRecord
  2
MCAD_NO_VIS
 70
     0
  0
APPID
  5
54C
330
9
100
AcDbSymbolTableRecord
100
AcDbRegAppTableRecord
  2
ACAD_TEMP_GRAPHIC
 70
     0
  0
APPID
  5
54D
330
9
100
AcDbSymbolTableRecord
100
AcDbRegAppTableRecord
  2
AD_DRAW
 70
     0
  0
APPID
  5
54E
330
9
100
AcDbSymbolTableRecord
100
AcDbRegAppTableRecord
  2
DESIGNERASSEMBLIES
 70
     0
  0
APPID
  5
54F
330
9
100
AcDbSymbolTableRecord
100
AcDbRegAppTableRecord
  2
ACADM_DIM_EDIT
 70
     0
  0
APPID
  5
550
330
9
100
AcDbSymbolTableRecord
100
AcDbRegAppTableRecord
  2
AMDT_DM_ADJ
 70
     0
  0
APPID
  5
551
330
9
100
AcDbSymbolTableRecord
100
AcDbRegAppTableRecord
  2
ACAD_DSTYLE_DIMARC_LENGTH_SYMBOL
 70
     0
  0
APPID
  5
552
330
9
100
AcDbSymbolTableRecord
100
AcDbRegAppTableRecord
  2
ACAD_MLEADERVER
 70
     0
  0
APPID
  5
553
330
9
100
AcDbSymbolTableRecord
100
AcDbRegAppTableRecord
  2
ACAD_EXEMPT_FROM_CAD_STANDARDS
 70
     0
  0
APPID
  5
554
330
9
100
AcDbSymbolTableRecord
100
AcDbRegAppTableRecord
  2
AcadAnnoPO
 70
     0
  0
APPID
  5
555
330
9
100
AcDbSymbolTableRecord
100
AcDbRegAppTableRecord
  2
GENIUS_GENTRA_14
 70
     0
  0
APPID
  5
556
330
9
100
AcDbSymbolTableRecord
100
AcDbRegAppTableRecord
  2
GENIUS_GENSCSYM_13
 70
     0
  0
APPID
  5
640
330
9
100
AcDbSymbolTableRecord
100
AcDbRegAppTableRecord
  2
ACAD_DSTYLE_DIM_LINETYPE
 70
     0
  0
APPID
  5
641
330
9
100
AcDbSymbolTableRecord
100
AcDbRegAppTableRecord
  2
ACAD_DSTYLE_DIM_EXT1_LINETYPE
 70
     0
  0
APPID
  5
642
330
9
100
AcDbSymbolTableRecord
100
AcDbRegAppTableRecord
  2
ACAD_DSTYLE_DIM_EXT2_LINETYPE
 70
     0
  0
APPID
  5
8A7
330
9
100
AcDbSymbolTableRecord
100
AcDbRegAppTableRecord
  2
ACAD_DSTYLE_DIMANGULAR_EXTENSION
 70
     0
  0
ENDTAB
  0
TABLE
  2
DIMSTYLE
  5
A
330
0
100
AcDbSymbolTable
 70
    19
100
AcDbDimStyleTable
 71
     1
340
A3
  0
DIMSTYLE
105
53
330
A
100
AcDbSymbolTableRecord
100
AcDbDimStyleTableRecord
  2
Standard
 70
     0
340
50
  0
DIMSTYLE
105
54
330
A
100
AcDbSymbolTableRecord
100
AcDbDimStyleTableRecord
  2
Annotative
 70
     0
340
50
1001
AcadAnnotative
1000
AnnotativeData
1002
{
1070
     1
1070
     1
1002
}
  0
DIMSTYLE
105
A2
330
A
100
AcDbSymbolTableRecord
100
AcDbDimStyleTableRecord
  2
ISO-25
 70
     0
 41
2.5
 42
0.625
 43
3.75
 44
1.25
 73
     0
 74
     0
 77
     1
 78
     8
140
2.5
141
2.5
143
0.03937007874016
147
0.625
171
     3
172
     1
271
     2
272
     2
274
     3
278
    44
283
     0
284
     8
340
50
  0
DIMSTYLE
105
A3
330
A
100
AcDbSymbolTableRecord
100
AcDbDimStyleTableRecord
  2
AM_JIS
 70
     0
  4
"
 41
2.5
 42
0.5
 43
8.0
 44
1.0
 47
0.1
 48
0.1000000001
 73
     0
 74
     0
 77
     3
 78
     8
 79
     2
140
3.5
141
0.0
143
0.0393701
146
0.55
147
0.8
172
     1
176
   256
177
   256
178
   140
271
     3
272
     3
283
     0
284
     8
340
50
341
A4
342
A4
371
    -1
372
    -1
1001
ACAD_DSTYLE_DIMJOGGED_JOGANGLE_SYMBOL
1070
   384
1040
0.7853981633974483
1001
ACAD_DSTYLE_DIMBREAK
1070
   391
1040
3.75
1001
ACAD_DSTYLE_DIMJAG
1070
   388
1040
1.5
1001
ACAD_DSTYLE_DIMTALN
1070
   392
1070
     0
1001
ACAD_DSTYLE_DIMARC_LENGTH_SYMBOL
1070
   379
1070
     1
1001
ACAD_DSTYLE_DIM_LINETYPE
1070
   380
1005
56
1001
ACAD_DSTYLE_DIM_EXT1_LINETYPE
1070
   381
1005
56
1001
ACAD_DSTYLE_DIM_EXT2_LINETYPE
1070
   382
1005
56
  0
DIMSTYLE
105
AA
102
{ACAD_REACTORS
330
94A
102
}
330
A
100
AcDbSymbolTableRecord
100
AcDbDimStyleTableRecord
  2
AM_JIS$3
 70
     0
  4
"
 41
2.5
 42
0.5
 43
8.0
 44
1.0
 47
0.1
 48
0.1000000001
 73
     0
 77
     3
 78
     8
 79
     2
140
3.5
141
0.0
143
0.0393701
146
0.55
147
0.8
176
   256
177
   256
178
   140
271
     3
272
     3
283
     0
284
     8
288
     1
289
     0
340
50
341
A4
342
A4
371
    -1
372
    -1
1001
ACAD_DSTYLE_DIMJOGGED_JOGANGLE_SYMBOL
1070
   384
1040
0.7853981633974483
1001
ACAD_DSTYLE_DIMBREAK
1070
   391
1040
3.75
1001
ACAD_DSTYLE_DIMJAG
1070
   388
1040
1.5
1001
ACAD_DSTYLE_DIMTALN
1070
   392
1070
     0
1001
ACAD_DSTYLE_DIMARC_LENGTH_SYMBOL
1070
   379
1070
     1
1001
ACAD_DSTYLE_DIM_LINETYPE
1070
   380
1005
56
1001
ACAD_DSTYLE_DIM_EXT1_LINETYPE
1070
   381
1005
56
1001
ACAD_DSTYLE_DIM_EXT2_LINETYPE
1070
   382
1005
56
  0
DIMSTYLE
105
AB
330
A
100
AcDbSymbolTableRecord
100
AcDbDimStyleTableRecord
  2
AM_JIS$4
 70
     0
  4
"
 41
2.5
 42
0.5
 43
8.0
 44
1.0
 47
0.1
 48
0.1000000001
 73
     0
 74
     0
 77
     3
 78
     8
 79
     2
140
3.5
141
0.0
143
0.0393701
146
0.55
147
0.8
172
     1
176
   256
177
   256
178
   140
271
     3
272
     3
283
     0
284
     8
340
50
341
A4
342
A4
371
    -1
372
    -1
1001
ACAD_DSTYLE_DIMJOGGED_JOGANGLE_SYMBOL
1070
   384
1040
0.7853981633974483
1001
ACAD_DSTYLE_DIMBREAK
1070
   391
1040
3.75
1001
ACAD_DSTYLE_DIMJAG
1070
   388
1040
1.5
1001
ACAD_DSTYLE_DIMTALN
1070
   392
1070
     0
1001
ACAD_DSTYLE_DIMARC_LENGTH_SYMBOL
1070
   379
1070
     1
1001
ACAD_DSTYLE_DIM_LINETYPE
1070
   380
1005
56
1001
ACAD_DSTYLE_DIM_EXT1_LINETYPE
1070
   381
1005
56
1001
ACAD_DSTYLE_DIM_EXT2_LINETYPE
1070
   382
1005
56
  0
DIMSTYLE
105
AC
330
A
100
AcDbSymbolTableRecord
100
AcDbDimStyleTableRecord
  2
AM_JIS$6
 70
     0
  4
"
 41
2.5
 42
0.5
 43
8.0
 44
1.0
 47
0.1
 48
0.1000000001
 73
     0
 74
     0
 78
     8
 79
     2
140
3.5
141
0.0
143
0.0393701
146
0.55
147
0.8
172
     1
176
   256
177
   256
178
   140
271
     3
272
     3
283
     0
284
     8
340
50
341
A4
342
A4
371
    -1
372
    -1
1001
ACAD_DSTYLE_DIMJOGGED_JOGANGLE_SYMBOL
1070
   384
1040
0.7853981633974483
1001
ACAD_DSTYLE_DIMBREAK
1070
   391
1040
3.75
1001
ACAD_DSTYLE_DIMJAG
1070
   388
1040
1.5
1001
ACAD_DSTYLE_DIMTALN
1070
   392
1070
     0
1001
ACAD_DSTYLE_DIMARC_LENGTH_SYMBOL
1070
   379
1070
     1
1001
ACAD_DSTYLE_DIM_LINETYPE
1070
   380
1005
56
1001
ACAD_DSTYLE_DIM_EXT1_LINETYPE
1070
   381
1005
56
1001
ACAD_DSTYLE_DIM_EXT2_LINETYPE
1070
   382
1005
56
  0
DIMSTYLE
105
AD
330
A
100
AcDbSymbolTableRecord
100
AcDbDimStyleTableRecord
  2
AM_JIS$7
 70
     0
  4
"
 41
2.5
 42
0.5
 43
8.0
 44
1.0
 47
0.1
 48
0.1000000001
 73
     0
 74
     0
 77
     3
 78
     8
 79
     2
140
3.5
141
0.0
143
0.0393701
146
0.55
147
0.8
172
     1
176
   256
177
   256
178
   140
271
     3
272
     3
283
     0
284
     8
340
50
341
A4
342
A4
371
    -1
372
    -1
1001
ACAD_DSTYLE_DIMJOGGED_JOGANGLE_SYMBOL
1070
   384
1040
0.7853981633974483
1001
ACAD_DSTYLE_DIMBREAK
1070
   391
1040
3.75
1001
ACAD_DSTYLE_DIMJAG
1070
   388
1040
1.5
1001
ACAD_DSTYLE_DIMTALN
1070
   392
1070
     0
1001
ACAD_DSTYLE_DIMARC_LENGTH_SYMBOL
1070
   379
1070
     1
1001
ACAD_DSTYLE_DIM_LINETYPE
1070
   380
1005
56
1001
ACAD_DSTYLE_DIM_EXT1_LINETYPE
1070
   381
1005
56
1001
ACAD_DSTYLE_DIM_EXT2_LINETYPE
1070
   382
1005
56
  0
DIMSTYLE
105
AE
330
A
100
AcDbSymbolTableRecord
100
AcDbDimStyleTableRecord
  2
AM_JIS$SF
 70
     0
  4
"
 41
2.5
 42
0.5
 43
8.0
 44
1.0
 47
0.1
 48
0.1000000001
 73
     0
 74
     0
 75
     1
 76
     1
 77
     3
 78
     8
 79
     2
140
3.5
141
0.0
143
0.0393701
146
0.55
147
0.8
172
     1
176
   256
177
   256
178
   140
271
     3
272
     3
283
     0
284
     8
340
50
341
A4
342
A4
371
    -1
372
    -1
1001
ACAD_DSTYLE_DIMJOGGED_JOGANGLE_SYMBOL
1070
   384
1040
0.7853981633974483
1001
ACAD_DSTYLE_DIMBREAK
1070
   391
1040
3.75
1001
ACAD_DSTYLE_DIMJAG
1070
   388
1040
1.5
1001
ACAD_DSTYLE_DIMTALN
1070
   392
1070
     0
1001
ACAD_DSTYLE_DIMARC_LENGTH_SYMBOL
1070
   379
1070
     1
1001
ACAD_DSTYLE_DIM_LINETYPE
1070
   380
1005
56
1001
ACAD_DSTYLE_DIM_EXT1_LINETYPE
1070
   381
1005
56
1001
ACAD_DSTYLE_DIM_EXT2_LINETYPE
1070
   382
1005
56
  0
DIMSTYLE
105
AF
330
A
100
AcDbSymbolTableRecord
100
AcDbDimStyleTableRecord
  2
AM_JIS$SH
 70
     0
  4
"
 41
2.5
 42
0.5
 43
8.0
 44
1.0
 47
0.1
 48
0.1000000001
 73
     0
 74
     0
 75
     1
 76
     1
 77
     3
 78
     8
 79
     2
140
3.5
141
0.0
143
0.0393701
144
2.0
146
0.55
147
0.8
172
     1
173
     1
176
   256
177
   256
178
   140
271
     3
272
     3
283
     0
284
     8
340
50
341
A4
342
A4
343
B0
371
    -1
372
    -1
1001
ACAD_DSTYLE_DIMJOGGED_JOGANGLE_SYMBOL
1070
   384
1040
0.7853981633974483
1001
ACAD_DSTYLE_DIMBREAK
1070
   391
1040
3.75
1001
ACAD_DSTYLE_DIMJAG
1070
   388
1040
1.5
1001
ACAD_DSTYLE_DIMTALN
1070
   392
1070
     0
1001
ACAD_DSTYLE_DIMARC_LENGTH_SYMBOL
1070
   379
1070
     1
1001
ACAD_DSTYLE_DIM_LINETYPE
1070
   380
1005
56
1001
ACAD_DSTYLE_DIM_EXT1_LINETYPE
1070
   381
1005
56
1001
ACAD_DSTYLE_DIM_EXT2_LINETYPE
1070
   382
1005
56
  0
DIMSTYLE
105
B4
102
{ACAD_REACTORS
330
184
330
195
330
1A4
330
1B5
330
1C6
330
1D5
330
1E4
330
B60
330
B63
102
}
330
A
100
AcDbSymbolTableRecord
100
AcDbDimStyleTableRecord
  2
AM_JIS$0
 70
     0
  4
"
 41
2.5
 42
0.5
 43
8.0
 44
1.0
 47
0.1
 48
0.1000000001
 73
     0
 74
     0
 77
     3
 78
     8
 79
     2
140
3.5
141
0.0
143
0.0393701
146
0.55
147
0.8
172
     1
176
   256
177
   256
178
   140
271
     3
272
     3
283
     0
284
     8
340
50
341
A4
342
A4
371
    -1
372
    -1
1001
ACAD_DSTYLE_DIMBREAK
1070
   391
1040
3.75
1001
ACAD_DSTYLE_DIMJAG
1070
   388
1040
1.5
1001
ACAD_DSTYLE_DIMTALN
1070
   392
1070
     0
1001
ACAD_DSTYLE_DIMARC_LENGTH_SYMBOL
1070
   379
1070
     1
1001
ACAD_DSTYLE_DIM_LINETYPE
1070
   380
1005
56
1001
ACAD_DSTYLE_DIM_EXT1_LINETYPE
1070
   381
1005
56
1001
ACAD_DSTYLE_DIM_EXT2_LINETYPE
1070
   382
1005
56
  0
DIMSTYLE
105
B5
102
{ACAD_REACTORS
330
8E2
102
}
330
A
100
AcDbSymbolTableRecord
100
AcDbDimStyleTableRecord
  2
AM_JIS$2
 70
     0
  4
"
 41
2.5
 42
0.5
 43
8.0
 44
1.0
 47
0.1
 48
0.1000000001
 73
     0
 74
     0
 77
     3
 78
     8
 79
     2
140
3.5
141
0.0
143
0.0393701
146
0.55
147
0.8
172
     1
176
   256
177
   256
178
   140
271
     3
272
     3
283
     0
284
     8
340
50
341
A4
342
A4
371
    -1
372
    -1
1001
ACAD_DSTYLE_DIMJOGGED_JOGANGLE_SYMBOL
1070
   384
1040
0.7853981633974483
1001
ACAD_DSTYLE_DIMBREAK
1070
   391
1040
3.75
1001
ACAD_DSTYLE_DIMJAG
1070
   388
1040
1.5
1001
ACAD_DSTYLE_DIMTALN
1070
   392
1070
     0
1001
ACAD_DSTYLE_DIMARC_LENGTH_SYMBOL
1070
   379
1070
     1
1001
ACAD_DSTYLE_DIM_LINETYPE
1070
   380
1005
56
1001
ACAD_DSTYLE_DIM_EXT1_LINETYPE
1070
   381
1005
56
1001
ACAD_DSTYLE_DIM_EXT2_LINETYPE
1070
   382
1005
56
  0
DIMSTYLE
105
6BD
102
{ACAD_REACTORS
330
F9D
102
}
330
A
100
AcDbSymbolTableRecord
100
AcDbDimStyleTableRecord
  2
AM_ISO
 70
     0
  4
"
 41
3.5
 42
1.0
 43
10.0
 44
1.0
 47
0.1
 48
0.1
 73
     0
 74
     0
 77
     1
 78
     8
 79
     2
140
3.5
141
0.0
143
0.0393701
146
0.71
147
1.5
172
     1
176
   256
177
   256
178
     2
271
     2
272
     3
274
     4
283
     0
284
     8
340
50
371
    -1
372
    -1
1001
ACAD_DSTYLE_DIMJAG
1070
   388
1040
1.5
1001
ACAD_DSTYLE_DIMBREAK
1070
   391
1040
3.75
1001
ACAD_DSTYLE_DIMARC_LENGTH_SYMBOL
1070
   379
1070
     1
1001
ACAD_DSTYLE_DIM_LINETYPE
1070
   380
1005
56
1001
ACAD_DSTYLE_DIM_EXT1_LINETYPE
1070
   381
1005
56
1001
ACAD_DSTYLE_DIM_EXT2_LINETYPE
1070
   382
1005
56
  0
DIMSTYLE
105
6BF
330
A
100
AcDbSymbolTableRecord
100
AcDbDimStyleTableRecord
  2
AM_ISO$3
 70
     0
  4
"
 41
3.5
 42
1.0
 43
10.0
 44
1.0
 47
0.1
 48
0.1
 73
     0
 77
     1
 78
     8
 79
     2
140
3.5
141
0.0
143
0.0393701
146
0.71
147
1.5
176
   256
177
   256
178
     2
271
     2
272
     3
274
     4
283
     0
284
     8
288
     1
289
     0
340
50
371
    -1
372
    -1
1001
ACAD_DSTYLE_DIMBREAK
1070
   391
1040
3.75
1001
ACAD_DSTYLE_DIMJAG
1070
   388
1040
1.5
1001
ACAD_DSTYLE_DIMARC_LENGTH_SYMBOL
1070
   379
1070
     1
1001
ACAD_DSTYLE_DIM_LINETYPE
1070
   380
1005
56
1001
ACAD_DSTYLE_DIM_EXT1_LINETYPE
1070
   381
1005
56
1001
ACAD_DSTYLE_DIM_EXT2_LINETYPE
1070
   382
1005
56
  0
DIMSTYLE
105
6C0
330
A
100
AcDbSymbolTableRecord
100
AcDbDimStyleTableRecord
  2
AM_ISO$4
 70
     0
  4
"
 41
3.5
 42
1.0
 43
10.0
 44
1.0
 47
0.1
 48
0.1
 73
     0
 77
     1
 78
     8
 79
     2
140
3.5
141
0.0
143
0.0393701
146
0.71
147
1.5
176
   256
177
   256
178
     2
271
     2
272
     3
274
     4
283
     0
284
     8
288
     1
289
     0
340
50
371
    -1
372
    -1
1001
ACAD_DSTYLE_DIMBREAK
1070
   391
1040
3.75
1001
ACAD_DSTYLE_DIMJAG
1070
   388
1040
1.5
1001
ACAD_DSTYLE_DIMARC_LENGTH_SYMBOL
1070
   379
1070
     1
1001
ACAD_DSTYLE_DIM_LINETYPE
1070
   380
1005
56
1001
ACAD_DSTYLE_DIM_EXT1_LINETYPE
1070
   381
1005
56
1001
ACAD_DSTYLE_DIM_EXT2_LINETYPE
1070
   382
1005
56
  0
DIMSTYLE
105
6C1
330
A
100
AcDbSymbolTableRecord
100
AcDbDimStyleTableRecord
  2
AM_ISO$6
 70
     0
  4
"
 41
3.5
 42
1.0
 43
10.0
 44
1.0
 47
0.1
 48
0.1
 73
     0
 74
     0
 78
     8
 79
     2
140
3.5
141
0.0
143
0.0393701
146
0.71
147
1.5
172
     1
176
   256
177
   256
178
     2
271
     2
272
     3
274
     4
283
     0
284
     8
340
50
371
    -1
372
    -1
1001
ACAD_DSTYLE_DIMBREAK
1070
   391
1040
3.75
1001
ACAD_DSTYLE_DIMJAG
1070
   388
1040
1.5
1001
ACAD_DSTYLE_DIMARC_LENGTH_SYMBOL
1070
   379
1070
     1
1001
ACAD_DSTYLE_DIM_LINETYPE
1070
   380
1005
56
1001
ACAD_DSTYLE_DIM_EXT1_LINETYPE
1070
   381
1005
56
1001
ACAD_DSTYLE_DIM_EXT2_LINETYPE
1070
   382
1005
56
  0
DIMSTYLE
105
6C2
330
A
100
AcDbSymbolTableRecord
100
AcDbDimStyleTableRecord
  2
AM_ISO$7
 70
     0
  4
"
 41
3.5
 42
1.0
 43
10.0
 44
1.0
 47
0.1
 48
0.1
 73
     0
 74
     0
 77
     1
 78
     8
 79
     2
140
3.5
141
0.0
143
0.0393701
146
0.71
147
1.5
172
     1
176
   256
177
   256
178
     2
271
     2
272
     3
274
     4
283
     0
284
     8
340
50
371
    -1
372
    -1
1001
ACAD_DSTYLE_DIMBREAK
1070
   391
1040
3.75
1001
ACAD_DSTYLE_DIMJAG
1070
   388
1040
1.5
1001
ACAD_DSTYLE_DIMARC_LENGTH_SYMBOL
1070
   379
1070
     1
1001
ACAD_DSTYLE_DIM_LINETYPE
1070
   380
1005
56
1001
ACAD_DSTYLE_DIM_EXT1_LINETYPE
1070
   381
1005
56
1001
ACAD_DSTYLE_DIM_EXT2_LINETYPE
1070
   382
1005
56
  0
DIMSTYLE
105
6C3
330
A
100
AcDbSymbolTableRecord
100
AcDbDimStyleTableRecord
  2
AM_ISO$SF
 70
     0
  4
"
 41
3.5
 42
1.0
 43
10.0
 44
1.0
 47
0.1
 48
0.1
 73
     0
 74
     0
 75
     1
 76
     1
 77
     1
 78
     8
 79
     2
140
3.5
141
0.0
143
0.0393701
146
0.71
147
1.5
172
     1
176
   256
177
   256
178
     2
271
     2
272
     3
274
     4
283
     0
284
     8
340
50
371
    -1
372
    -1
1001
ACAD_DSTYLE_DIMBREAK
1070
   391
1040
3.75
1001
ACAD_DSTYLE_DIMJAG
1070
   388
1040
1.5
1001
ACAD_DSTYLE_DIMARC_LENGTH_SYMBOL
1070
   379
1070
     1
1001
ACAD_DSTYLE_DIM_LINETYPE
1070
   380
1005
56
1001
ACAD_DSTYLE_DIM_EXT1_LINETYPE
1070
   381
1005
56
1001
ACAD_DSTYLE_DIM_EXT2_LINETYPE
1070
   382
1005
56
  0
DIMSTYLE
105
6C4
330
A
100
AcDbSymbolTableRecord
100
AcDbDimStyleTableRecord
  2
AM_ISO$SH
 70
     0
  4
"
 41
3.5
 42
1.0
 43
10.0
 44
1.0
 47
0.1
 48
0.1
 73
     0
 74
     0
 75
     1
 76
     1
 77
     1
 78
     8
 79
     2
140
3.5
141
0.0
143
0.0393701
144
2.0
146
0.71
147
1.5
172
     1
173
     1
176
   256
177
   256
178
     2
271
     2
272
     3
274
     4
283
     0
284
     8
340
50
343
B0
371
    -1
372
    -1
1001
ACAD_DSTYLE_DIMBREAK
1070
   391
1040
3.75
1001
ACAD_DSTYLE_DIMJAG
1070
   388
1040
1.5
1001
ACAD_DSTYLE_DIMARC_LENGTH_SYMBOL
1070
   379
1070
     1
1001
ACAD_DSTYLE_DIM_LINETYPE
1070
   380
1005
56
1001
ACAD_DSTYLE_DIM_EXT1_LINETYPE
1070
   381
1005
56
1001
ACAD_DSTYLE_DIM_EXT2_LINETYPE
1070
   382
1005
56
  0
ENDTAB
  0
TABLE
  2
BLOCK_RECORD
  5
1
330
0
100
AcDbSymbolTable
 70
    32
  0
BLOCK_RECORD
  5
67
102
{ACAD_XDICTIONARY
360
4AF
102
}
330
1
100
AcDbSymbolTableRecord
100
AcDbBlockTableRecord
  2
*Model_Space
340
6A
  0
BLOCK_RECORD
  5
63
330
1
100
AcDbSymbolTableRecord
100
AcDbBlockTableRecord
  2
*Paper_Space
340
66
  0
BLOCK_RECORD
  5
6B
330
1
100
AcDbSymbolTableRecord
100
AcDbBlockTableRecord
  2
*Paper_Space0
340
6E
  0
BLOCK_RECORD
  5
A4
330
1
100
AcDbSymbolTableRecord
100
AcDbBlockTableRecord
  2
_Open
340
0
102
{BLKREFS
331
529
331
528
331
520
331
51F
331
517
331
516
331
50E
331
50D
331
855
331
856
331
861
331
862
331
945
331
946
331
C89
331
C8A
331
CB0
331
CB1
331
CBA
331
CBB
331
CC3
331
CC4
331
CCE
331
CCF
331
CD9
331
CDA
331
CE2
331
CE3
331
E25
331
E26
331
E53
331
E54
331
E65
331
E66
331
EBD
331
EBE
331
ED8
331
ED9
331
EE1
331
EE2
102
}
  0
BLOCK_RECORD
  5
B0
330
1
100
AcDbSymbolTableRecord
100
AcDbBlockTableRecord
  2
GENAXEH
340
0
  0
BLOCK_RECORD
  5
231
330
1
100
AcDbSymbolTableRecord
100
AcDbBlockTableRecord
  2
CustomObjectsInViewport2_0
340
0
  0
BLOCK_RECORD
  5
269
330
1
100
AcDbSymbolTableRecord
100
AcDbBlockTableRecord
  2
*D4
340
0
  0
BLOCK_RECORD
  5
275
330
1
100
AcDbSymbolTableRecord
100
AcDbBlockTableRecord
  2
*D5
340
0
  0
BLOCK_RECORD
  5
283
330
1
100
AcDbSymbolTableRecord
100
AcDbBlockTableRecord
  2
*D6
340
0
  0
BLOCK_RECORD
  5
291
330
1
100
AcDbSymbolTableRecord
100
AcDbBlockTableRecord
  2
*D7
340
0
  0
BLOCK_RECORD
  5
29D
330
1
100
AcDbSymbolTableRecord
100
AcDbBlockTableRecord
  2
*D8
340
0
  0
BLOCK_RECORD
  5
2AB
330
1
100
AcDbSymbolTableRecord
100
AcDbBlockTableRecord
  2
*D9
340
0
  0
BLOCK_RECORD
  5
2B9
330
1
100
AcDbSymbolTableRecord
100
AcDbBlockTableRecord
  2
*D10
340
0
  0
BLOCK_RECORD
  5
2C5
330
1
100
AcDbSymbolTableRecord
100
AcDbBlockTableRecord
  2
*D11
340
0
  0
BLOCK_RECORD
  5
2D1
330
1
100
AcDbSymbolTableRecord
100
AcDbBlockTableRecord
  2
*D12
340
0
  0
BLOCK_RECORD
  5
2DD
330
1
100
AcDbSymbolTableRecord
100
AcDbBlockTableRecord
  2
*D13
340
0
  0
BLOCK_RECORD
  5
2E9
330
1
100
AcDbSymbolTableRecord
100
AcDbBlockTableRecord
  2
*D14
340
0
  0
BLOCK_RECORD
  5
2F5
330
1
100
AcDbSymbolTableRecord
100
AcDbBlockTableRecord
  2
*D15
340
0
  0
BLOCK_RECORD
  5
301
330
1
100
AcDbSymbolTableRecord
100
AcDbBlockTableRecord
  2
*D16
340
0
  0
BLOCK_RECORD
  5
8E3
330
1
100
AcDbSymbolTableRecord
100
AcDbBlockTableRecord
  2
*D17
340
0
  0
BLOCK_RECORD
  5
934
330
1
100
AcDbSymbolTableRecord
100
AcDbBlockTableRecord
  2
*D18
340
0
  0
BLOCK_RECORD
  5
94B
330
1
100
AcDbSymbolTableRecord
100
AcDbBlockTableRecord
  2
*D19
340
0
  0
BLOCK_RECORD
  5
B66
330
1
100
AcDbSymbolTableRecord
100
AcDbBlockTableRecord
  2
*D20
340
0
  0
BLOCK_RECORD
  5
B72
330
1
100
AcDbSymbolTableRecord
100
AcDbBlockTableRecord
  2
*D21
340
0
  0
BLOCK_RECORD
  5
D1E
330
1
100
AcDbSymbolTableRecord
100
AcDbBlockTableRecord
  2
*S262222
340
0
  0
BLOCK_RECORD
  5
D29
330
1
100
AcDbSymbolTableRecord
100
AcDbBlockTableRecord
  2
*S272323
340
0
  0
BLOCK_RECORD
  5
D33
330
1
100
AcDbSymbolTableRecord
100
AcDbBlockTableRecord
  2
*S282424
340
0
  0
BLOCK_RECORD
  5
E02
330
1
100
AcDbSymbolTableRecord
100
AcDbBlockTableRecord
  2
*D25
340
0
  0
BLOCK_RECORD
  5
E2C
330
1
100
AcDbSymbolTableRecord
100
AcDbBlockTableRecord
  2
*D26
340
0
  0
BLOCK_RECORD
  5
10DC
330
1
100
AcDbSymbolTableRecord
100
AcDbBlockTableRecord
  2
*S29
340
0
  0
BLOCK_RECORD
  5
10E7
330
1
100
AcDbSymbolTableRecord
100
AcDbBlockTableRecord
  2
*S30
340
0
  0
BLOCK_RECORD
  5
10F1
330
1
100
AcDbSymbolTableRecord
100
AcDbBlockTableRecord
  2
*S31
340
0
  0
ENDTAB
  0
ENDSEC
  0
SECTION
  2
BLOCKS
  0
BLOCK
  5
68
330
67
100
AcDbEntity
  8
0
100
AcDbBlockBegin
  2
*Model_Space
 70
     0
 10
0.0
 20
0.0
 30
0.0
  3
*Model_Space
  1

  0
ENDBLK
  5
69
330
67
100
AcDbEntity
  8
0
100
AcDbBlockEnd
  0
BLOCK
  5
64
330
63
100
AcDbEntity
 67
     1
  8
0
100
AcDbBlockBegin
  2
*Paper_Space
 70
     0
 10
0.0
 20
0.0
 30
0.0
  3
*Paper_Space
  1

  0
ENDBLK
  5
65
330
63
100
AcDbEntity
 67
     1
  8
0
100
AcDbBlockEnd
  0
BLOCK
  5
6C
330
6B
100
AcDbEntity
 67
     1
  8
0
100
AcDbBlockBegin
  2
*Paper_Space0
 70
     0
 10
0.0
 20
0.0
 30
0.0
  3
*Paper_Space0
  1

  0
ENDBLK
  5
6D
330
6B
100
AcDbEntity
 67
     1
  8
0
100
AcDbBlockEnd
  0
BLOCK
  5
5B9
330
A4
100
AcDbEntity
  8
0
100
AcDbBlockBegin
  2
_Open
 70
     0
 10
0.0
 20
0.0
 30
0.0
  3
_Open
  1

  0
LINE
  5
5BA
330
A4
100
AcDbEntity
  8
0
  6
ByBlock
 62
     0
370
    -2
100
AcDbLine
 10
-1.0
 20
0.1666666666666666
 30
0.0
 11
0.0
 21
0.0
 31
0.0
  0
LINE
  5
5BB
330
A4
100
AcDbEntity
  8
0
  6
ByBlock
 62
     0
370
    -2
100
AcDbLine
 10
-1.0
 20
-0.1666666666666666
 30
0.0
 11
0.0
 21
0.0
 31
0.0
  0
LINE
  5
5BC
330
A4
100
AcDbEntity
  8
0
  6
ByBlock
 62
     0
370
    -2
100
AcDbLine
 10
0.0
 20
0.0
 30
0.0
 11
-1.0
 21
0.0
 31
0.0
  0
ENDBLK
  5
5BD
330
A4
100
AcDbEntity
  8
0
100
AcDbBlockEnd
  0
BLOCK
  5
5C6
330
B0
100
AcDbEntity
  8
0
100
AcDbBlockBegin
  2
GENAXEH
 70
     0
 10
0.0
 20
0.0
 30
0.0
  3
GENAXEH
  1

  0
LINE
  5
5C7
330
B0
100
AcDbEntity
  8
0
100
AcDbLine
 10
-1.0
 20
0.0
 30
0.0
 11
1.0
 21
0.0
 31
0.0
  0
ENDBLK
  5
5C8
330
B0
100
AcDbEntity
  8
0
100
AcDbBlockEnd
  0
BLOCK
  5
232
330
231
100
AcDbEntity
  8
0
100
AcDbBlockBegin
  2
CustomObjectsInViewport2_0
 70
     0
 10
0.0
 20
0.0
 30
0.0
  3
CustomObjectsInViewport2_0
  1

  0
LINE
  5
233
330
231
100
AcDbEntity
  8
AM_5
100
AcDbLine
 10
244.3673791585295
 20
71.00814064429565
 30
0.0
 11
227.8505454843125
 21
71.00814064429565
 31
0.0
  0
LINE
  5
234
330
231
100
AcDbEntity
  8
AM_5
100
AcDbLine
 10
227.8505454843125
 20
71.00814064429565
 30
0.0
 11
234.565822353947
 21
53.11380380692995
 31
0.0
  0
LINE
  5
235
330
231
100
AcDbEntity
  8
AM_5
  6
Continuous
100
AcDbLine
 10
234.565822353947
 20
53.11380380692995
 30
0.0
 11
235.4441929066962
 21
50.77319167074356
 31
0.0
  0
LINE
  5
236
330
231
100
AcDbEntity
  8
AM_5
  6
Continuous
100
AcDbLine
 10
234.1757203468533
 20
52.96740872066087
 30
0.0
 11
235.4441929066962
 21
50.77319167074356
 31
0.0
  0
LINE
  5
237
330
231
100
AcDbEntity
  8
AM_5
  6
Continuous
100
AcDbLine
 10
235.4441929066962
 20
50.77319167074356
 30
0.0
 11
234.9559243610407
 21
53.260198893199
 31
0.0
  0
TEXT
  5
238
330
231
100
AcDbEntity
  8
AM_5
 62
   140
100
AcDbText
 10
230.9815058604039
 20
73.19564064429565
 30
0.0
 40
3.5
  1
+
  7
CustomTextStyle0
100
AcDbText
  0
TEXT
  5
239
330
231
100
AcDbEntity
  8
AM_5
 62
   140
100
AcDbText
 10
234.4838564312568
 20
73.19564064429565
 30
0.0
 40
3.5
  1
端子
  7
CustomTextStyle1
100
AcDbText
  0
LINE
  5
23A
330
231
100
AcDbEntity
  8
AM_5
100
AcDbLine
 10
78.95180009111328
 20
12.72535391249755
 30
0.0
 11
54.50309266993844
 21
12.72535391249755
 31
0.0
  0
LINE
  5
23B
330
231
100
AcDbEntity
  8
AM_5
100
AcDbLine
 10
54.50309266993844
 20
12.72535391249755
 30
0.0
 11
48.85415390552218
 21
28.06704033973146
 31
0.0
  0
LINE
  5
23C
330
231
100
AcDbEntity
  8
AM_5
  6
Continuous
100
AcDbLine
 10
48.85415390552218
 20
28.06704033973146
 30
0.0
 11
47.99032965957249
 21
30.41305987761034
 31
0.0
  0
LINE
  5
23D
330
231
100
AcDbEntity
  8
AM_5
  6
Continuous
100
AcDbLine
 10
49.2451571461952
 20
28.21101104163091
 30
0.0
 11
47.99032965957249
 21
30.41305987761034
 31
0.0
  0
LINE
  5
23E
330
231
100
AcDbEntity
  8
AM_5
  6
Continuous
100
AcDbLine
 10
47.99032965957249
 20
30.41305987761034
 30
0.0
 11
48.46315066484917
 21
27.923069637832
 31
0.0
  0
TEXT
  5
23F
330
231
100
AcDbEntity
  8
AM_5
 62
   140
100
AcDbText
 10
57.41536242703123
 20
13.43992745178566
 30
0.0
 40
3.5
  1
3-M3
  7
CustomTextStyle2
100
AcDbText
  0
TEXT
  5
240
330
231
100
AcDbEntity
  8
AM_5
 62
   140
100
AcDbText
 10
57.3649587088555
 20
6.970230482088687
 30
0.0
 40
3.5
  1
有効深さ
  7
CustomTextStyle3
100
AcDbText
  0
TEXT
  5
241
330
231
100
AcDbEntity
  8
AM_5
 62
   140
100
AcDbText
 10
76.53541325431006
 20
6.970230482088687
 30
0.0
 40
3.5
  1
2
  7
CustomTextStyle4
100
AcDbText
  0
LINE
  5
242
330
231
100
AcDbEntity
  8
AM_5
100
AcDbLine
 10
57.6433677997646
 20
12.72535391249755
 30
0.0
 11
78.95180009111328
 21
12.72535391249755
 31
0.0
  0
LINE
  5
243
330
231
100
AcDbEntity
  8
AM_5
100
AcDbLine
 10
164.7695690259036
 20
69.34094924682941
 30
0.0
 11
141.5224099349946
 21
69.34094924682941
 31
0.0
  0
LINE
  5
244
330
231
100
AcDbEntity
  8
AM_5
100
AcDbLine
 10
141.5224099349946
 20
69.34094924682941
 30
0.0
 11
138.7295178940166
 21
63.22476574309096
 31
0.0
  0
LWPOLYLINE
  5
245
330
231
100
AcDbEntity
  8
AM_5
  6
Continuous
100
AcDbPolyline
 90
        2
 70
   129
 43
0.4464285714285642
 10
137.4678507969556
 20
60.95064706575547
 42
1.0
 10
137.9142793683841
 20
60.95064706575547
 42
1.0
  0
LINE
  5
246
330
231
100
AcDbEntity
  8
AM_5
  6
Continuous
100
AcDbLine
 10
137.876503084696
 20
61.35673968670824
 30
0.0
 11
138.7295178940166
 21
63.22476574309096
 31
0.0
  0
TEXT
  5
247
330
231
100
AcDbEntity
  8
AM_5
 62
   140
100
AcDbText
 10
144.6843417531764
 20
71.60799470137487
 30
0.0
 40
3.5
  1
定格銘板
  7
CustomTextStyle5
100
AcDbText
  0
LINE
  5
248
330
231
100
AcDbEntity
  8
AM_5
100
AcDbLine
 10
218.4364248823051
 20
74.02706132388924
 30
0.0
 11
195.189265791396
 21
74.02706132388924
 31
0.0
  0
LINE
  5
249
330
231
100
AcDbEntity
  8
AM_5
100
AcDbLine
 10
195.189265791396
 20
74.02706132388924
 30
0.0
 11
187.2866077046903
 21
54.52215626057874
 31
0.0
  0
LINE
  5
24A
330
231
100
AcDbEntity
  8
AM_5
  6
Continuous
100
AcDbLine
 10
187.2866077046903
 20
54.52215626057874
 30
0.0
 11
186.3478281280199
 21
52.20511225874656
 31
0.0
  0
LINE
  5
24B
330
231
100
AcDbEntity
  8
AM_5
  6
Continuous
100
AcDbLine
 10
186.9004337198319
 20
54.67861951709862
 30
0.0
 11
186.3478281280199
 21
52.20511225874656
 31
0.0
  0
LINE
  5
24C
330
231
100
AcDbEntity
  8
AM_5
  6
Continuous
100
AcDbLine
 10
186.3478281280199
 20
52.20511225874656
 30
0.0
 11
187.6727816895487
 21
54.36569300405885
 31
0.0
  0
TEXT
  5
24D
330
231
100
AcDbEntity
  8
AM_5
 62
   140
100
AcDbText
 10
198.3710839732142
 20
76.21456132388924
 30
0.0
 40
3.5
  1
入力端子
  7
CustomTextStyle6
100
AcDbText
  0
ENDBLK
  5
24E
330
231
100
AcDbEntity
  8
0
100
AcDbBlockEnd
  0
BLOCK
  5
26A
330
269
100
AcDbEntity
  8
0
100
AcDbBlockBegin
  2
*D4
 70
     1
 10
0.0
 20
0.0
 30
0.0
  3
*D4
  1

  0
LINE
  5
85D
330
269
100
AcDbEntity
  8
AM_5
  6
ByBlock
100
AcDbLine
 10
26.24812143317294
 20
23.82350761029412
 30
0.0
 11
25.08041921121354
 21
21.61297113223477
 31
0.0
  0
LINE
  5
85E
330
269
100
AcDbEntity
  8
AM_5
  6
ByBlock
100
AcDbLine
 10
42.59595254060458
 20
54.77101830312509
 30
0.0
 11
47.19684769712496
 21
63.48081296134618
 31
0.0
  0
LINE
  5
85F
330
269
100
AcDbEntity
  8
AM_5
  6
ByBlock
100
AcDbLine
 10
47.19684769712496
 20
63.48081296134618
 30
0.0
 11
69.68789789058551
 21
63.48081296134618
 31
0.0
  0
LINE
  5
860
330
269
100
AcDbEntity
  8
AM_5
  6
ByBlock
100
AcDbLine
 10
27.41582365513235
 20
26.03404408835348
 30
0.0
 11
41.42825031864518
 21
52.56048182506573
 31
0.0
  0
INSERT
  5
861
330
269
100
AcDbEntity
  8
AM_5
100
AcDbBlockReference
  2
_Open
 10
27.41582365513235
 20
26.03404408835348
 30
0.0
 41
2.5
 42
2.5
 43
2.5
 50
62.15502306260885
  0
INSERT
  5
862
330
269
100
AcDbEntity
  8
AM_5
100
AcDbBlockReference
  2
_Open
 10
41.42825031864518
 20
52.56048182506573
 30
0.0
 41
2.5
 42
2.5
 43
2.5
 50
242.1550230626089
  0
MTEXT
  5
863
102
{ACAD_XDICTIONARY
360
1134
102
}
330
269
100
AcDbEntity
  8
AM_5
 62
   140
100
AcDbMText
 10
58.84237279385525
 20
66.16570382082776
 30
0.0
 40
3.5
 41
0.0
 71
     5
 72
     1
  1
P.C.D.\U+220530
 73
     1
 44
1.0
1001
ACAD
1000
MTEXTBEGIN
1070
    73
1070
     1
1070
    44
1040
1.0
1070
    74
1070
     0
1000
MTEXTEND
  0
POINT
  5
864
330
269
100
AcDbEntity
  8
Defpoints
 62
     0
100
AcDbPoint
 10
41.42825031864518
 20
52.56048182506573
 30
0.0
  0
POINT
  5
865
330
269
100
AcDbEntity
  8
Defpoints
 62
     0
100
AcDbPoint
 10
27.41582365513235
 20
26.03404408835348
 30
0.0
  0
ENDBLK
  5
26B
330
269
100
AcDbEntity
  8
0
100
AcDbBlockEnd
  0
BLOCK
  5
276
330
275
100
AcDbEntity
  8
0
100
AcDbBlockBegin
  2
*D5
 70
     1
 10
0.0
 20
0.0
 30
0.0
  3
*D5
  1

  0
LINE
  5
852
330
275
100
AcDbEntity
  8
AM_5
  6
ByBlock
100
AcDbLine
 10
34.42203698688877
 20
67.4972629567096
 30
0.0
 11
34.42203698688877
 21
70.03090862460381
 31
0.0
  0
LINE
  5
853
330
275
100
AcDbEntity
  8
AM_5
  6
ByBlock
100
AcDbLine
 10
18.40056701687657
 20
30.04726295670959
 30
0.0
 11
7.805919087582745
 21
23.9304401227625
 31
0.0
  0
ARC
  5
854
330
275
100
AcDbEntity
  8
AM_5
  6
ByBlock
100
AcDbCircle
 10
34.42203698688875
 20
39.29726295670958
 30
0.0
 40
29.73364566789424
100
AcDbArc
 50
94.81883979039769
 51
205.1811602096022
  0
INSERT
  5
855
330
275
100
AcDbEntity
  8
AM_5
100
AcDbBlockReference
  2
_Open
 10
34.42203698688877
 20
69.03090862460381
 30
0.0
 41
2.5
 42
2.5
 43
2.5
 50
2.409419895198852
  0
INSERT
  5
856
330
275
100
AcDbEntity
  8
AM_5
100
AcDbBlockReference
  2
_Open
 10
8.671944491367185
 20
24.4304401227625
 30
0.0
 41
2.5
 42
2.5
 43
2.5
 50
297.5905801048011
  0
MTEXT
  5
857
102
{ACAD_XDICTIONARY
360
1132
102
}
330
275
100
AcDbEntity
  8
AM_5
 62
   140
100
AcDbMText
 10
6.40047443548413
 20
55.47551963887698
 30
0.0
 40
3.5
 41
0.0
 71
     5
 72
     1
  1
3-120\U+00B0
 11
0.5000000000000009
 21
0.8660254037844381
 31
0.0
 73
     1
 44
1.0
1001
ACAD
1000
MTEXTBEGIN
1070
    73
1070
     1
1070
    44
1040
1.0
1070
    74
1070
     0
1000
MTEXTEND
  0
POINT
  5
858
330
275
100
AcDbEntity
  8
Defpoints
 62
     0
100
AcDbPoint
 10
15.3096179607565
 20
62.07455699426865
 30
0.0
  0
POINT
  5
859
330
275
100
AcDbEntity
  8
Defpoints
 62
     0
100
AcDbPoint
 10
18.83357971876879
 20
30.29726295670958
 30
0.0
  0
POINT
  5
85A
330
275
100
AcDbEntity
  8
Defpoints
 62
     0
100
AcDbPoint
 10
34.42203698688875
 20
39.2972629567096
 30
0.0
  0
POINT
  5
85B
330
275
100
AcDbEntity
  8
Defpoints
 62
     0
100
AcDbPoint
 10
34.42203698688877
 20
66.9972629567096
 30
0.0
  0
POINT
  5
85C
330
275
100
AcDbEntity
  8
Defpoints
 62
     0
100
AcDbPoint
 10
34.42203698688877
 20
39.2972629567096
 30
0.0
  0
ENDBLK
  5
277
330
275
100
AcDbEntity
  8
0
100
AcDbBlockEnd
  0
BLOCK
  5
284
330
283
100
AcDbEntity
  8
0
100
AcDbBlockBegin
  2
*D6
 70
     1
 10
0.0
 20
0.0
 30
0.0
  3
*D6
  1

  0
LINE
  5
CB5
330
283
100
AcDbEntity
  8
AM_5
  6
ByBlock
100
AcDbLine
 10
86.96331246907787
 20
38.69175247583435
 30
0.0
 11
77.96331145907787
 21
38.69175247583435
 31
0.0
  0
LINE
  5
CB6
330
283
100
AcDbEntity
  8
AM_5
  6
ByBlock
100
AcDbLine
 10
86.96331246907787
 20
42.69175247583432
 30
0.0
 11
77.96331145907787
 21
42.69175247583435
 31
0.0
  0
LINE
  5
CB7
330
283
100
AcDbEntity
  8
AM_5
  6
ByBlock
100
AcDbLine
 10
78.96331145907787
 20
36.19175247583435
 30
0.0
 11
78.96331145907787
 21
33.69175247583434
 31
0.0
  0
LINE
  5
CB8
330
283
100
AcDbEntity
  8
AM_5
  6
ByBlock
100
AcDbLine
 10
78.96331145907787
 20
45.19175247583434
 30
0.0
 11
78.96331145907787
 21
47.69175247583434
 31
0.0
  0
LINE
  5
CB9
330
283
100
AcDbEntity
  8
AM_5
  6
ByBlock
100
AcDbLine
 10
78.96331145907787
 20
38.69175247583435
 30
0.0
 11
78.96331145907787
 21
42.69175247583435
 31
0.0
  0
INSERT
  5
CBA
330
283
100
AcDbEntity
  8
AM_5
100
AcDbBlockReference
  2
_Open
 10
78.96331145907787
 20
38.69175247583435
 30
0.0
 41
2.5
 42
2.5
 43
2.5
 50
90.0
  0
INSERT
  5
CBB
330
283
100
AcDbEntity
  8
AM_5
100
AcDbBlockReference
  2
_Open
 10
78.96331145907787
 20
42.69175247583435
 30
0.0
 41
2.5
 42
2.5
 43
2.5
 50
270.0
  0
MTEXT
  5
CBC
330
283
100
AcDbEntity
  8
AM_5
 62
   140
100
AcDbMText
 10
76.41331145907786
 20
40.69175247583435
 30
0.0
 40
3.5
 41
0.0
 71
     5
 72
     1
  1
%%c4
 11
0.0000000000000001
 21
1.0
 31
0.0
 73
     1
 44
1.0
1001
ACAD
1000
MTEXTBEGIN
1070
    73
1070
     1
1070
    44
1040
1.0
1070
    74
1070
     0
1000
MTEXTEND
  0
POINT
  5
CBD
330
283
100
AcDbEntity
  8
Defpoints
 62
     0
100
AcDbPoint
 10
87.46331246907784
 20
38.69175247583435
 30
0.0
  0
POINT
  5
CBE
330
283
100
AcDbEntity
  8
Defpoints
 62
     0
100
AcDbPoint
 10
87.46331246907784
 20
42.69175247583432
 30
0.0
  0
POINT
  5
CBF
330
283
100
AcDbEntity
  8
Defpoints
 62
     0
100
AcDbPoint
 10
78.96331145907787
 20
42.69175247583435
 30
0.0
  0
ENDBLK
  5
285
330
283
100
AcDbEntity
  8
0
100
AcDbBlockEnd
  0
BLOCK
  5
292
330
291
100
AcDbEntity
  8
0
100
AcDbBlockBegin
  2
*D7
 70
     1
 10
0.0
 20
0.0
 30
0.0
  3
*D7
  1

  0
LINE
  5
CC0
330
291
100
AcDbEntity
  8
AM_5
  6
ByBlock
100
AcDbLine
 10
95.96331246907784
 20
33.19175247583434
 30
0.0
 11
69.96331145907785
 21
33.19175247583434
 31
0.0
  0
LINE
  5
CC1
330
291
100
AcDbEntity
  8
AM_5
  6
ByBlock
100
AcDbLine
 10
95.96331246907784
 20
48.19175247583434
 30
0.0
 11
69.96331145907785
 21
48.19175247583434
 31
0.0
  0
LINE
  5
CC2
330
291
100
AcDbEntity
  8
AM_5
  6
ByBlock
100
AcDbLine
 10
70.96331145907784
 20
35.69175247583435
 30
0.0
 11
70.96331145907784
 21
45.69175247583434
 31
0.0
  0
INSERT
  5
CC3
330
291
100
AcDbEntity
  8
AM_5
100
AcDbBlockReference
  2
_Open
 10
70.96331145907784
 20
33.19175247583434
 30
0.0
 41
2.5
 42
2.5
 43
2.5
 50
270.0
  0
INSERT
  5
CC4
330
291
100
AcDbEntity
  8
AM_5
100
AcDbBlockReference
  2
_Open
 10
70.96331145907784
 20
48.19175247583434
 30
0.0
 41
2.5
 42
2.5
 43
2.5
 50
90.0
  0
MTEXT
  5
CC5
330
291
100
AcDbEntity
  8
AM_5
 62
   140
100
AcDbMText
 10
68.37100118372524
 20
40.69175247583435
 30
0.0
 40
3.5
 41
0.0
 71
     5
 72
     1
  1
%%c15
 11
0.0000000000000001
 21
1.0
 31
0.0
 73
     1
 44
1.0
1001
ACAD
1000
MTEXTBEGIN
1070
    73
1070
     1
1070
    44
1040
1.0
1070
    74
1070
     0
1000
MTEXTEND
  0
POINT
  5
CC6
330
291
100
AcDbEntity
  8
Defpoints
 62
     0
100
AcDbPoint
 10
96.46331246907784
 20
33.19175247583434
 30
0.0
  0
POINT
  5
CC7
330
291
100
AcDbEntity
  8
Defpoints
 62
     0
100
AcDbPoint
 10
96.46331246907784
 20
48.19175247583434
 30
0.0
  0
POINT
  5
CC8
330
291
100
AcDbEntity
  8
Defpoints
 62
     0
100
AcDbPoint
 10
70.96331145907784
 20
48.19175247583434
 30
0.0
  0
ENDBLK
  5
293
330
291
100
AcDbEntity
  8
0
100
AcDbBlockEnd
  0
BLOCK
  5
29E
330
29D
100
AcDbEntity
  8
0
100
AcDbBlockBegin
  2
*D8
 70
     1
 10
0.0
 20
0.0
 30
0.0
  3
*D8
  1

  0
LINE
  5
CC9
330
29D
100
AcDbEntity
  8
AM_5
  6
ByBlock
100
AcDbLine
 10
101.9633124690778
 20
60.69175247583434
 30
0.0
 11
101.9633124690778
 21
74.39175347583506
 31
0.0
  0
LINE
  5
CCA
330
29D
100
AcDbEntity
  8
AM_5
  6
ByBlock
100
AcDbLine
 10
95.96331246907784
 20
48.19175247583434
 30
0.0
 11
95.96331246907784
 21
74.39175347583506
 31
0.0
  0
LINE
  5
CCB
330
29D
100
AcDbEntity
  8
AM_5
  6
ByBlock
100
AcDbLine
 10
104.4633124690778
 20
73.39175347583505
 30
0.0
 11
106.9633124690778
 21
73.39175347583505
 31
0.0
  0
LINE
  5
CCC
330
29D
100
AcDbEntity
  8
AM_5
  6
ByBlock
100
AcDbLine
 10
93.46331246907784
 20
73.39175347583505
 30
0.0
 11
90.96331246907784
 21
73.39175347583505
 31
0.0
  0
LINE
  5
CCD
330
29D
100
AcDbEntity
  8
AM_5
  6
ByBlock
100
AcDbLine
 10
101.9633124690778
 20
73.39175347583505
 30
0.0
 11
95.96331246907784
 21
73.39175347583505
 31
0.0
  0
INSERT
  5
CCE
330
29D
100
AcDbEntity
  8
AM_5
100
AcDbBlockReference
  2
_Open
 10
101.9633124690778
 20
73.39175347583505
 30
0.0
 41
2.5
 42
2.5
 43
2.5
 50
180.0
  0
INSERT
  5
CCF
330
29D
100
AcDbEntity
  8
AM_5
100
AcDbBlockReference
  2
_Open
 10
95.96331246907784
 20
73.39175347583505
 30
0.0
 41
2.5
 42
2.5
 43
2.5
  0
MTEXT
  5
CD0
330
29D
100
AcDbEntity
  8
AM_5
 62
   140
100
AcDbMText
 10
98.96331246907784
 20
76.01109531599624
 30
0.0
 40
3.5
 41
0.0
 71
     5
 72
     1
  1
6
 73
     1
 44
1.0
1001
ACAD
1000
MTEXTBEGIN
1070
    73
1070
     1
1070
    44
1040
1.0
1070
    74
1070
     0
1000
MTEXTEND
  0
POINT
  5
CD1
330
29D
100
AcDbEntity
  8
Defpoints
 62
     0
100
AcDbPoint
 10
101.9633124690778
 20
60.19175247583433
 30
0.0
  0
POINT
  5
CD2
330
29D
100
AcDbEntity
  8
Defpoints
 62
     0
100
AcDbPoint
 10
95.96331246907784
 20
47.69175247583433
 30
0.0
  0
POINT
  5
CD3
330
29D
100
AcDbEntity
  8
Defpoints
 62
     0
100
AcDbPoint
 10
95.96331246907784
 20
73.39175347583505
 30
0.0
  0
ENDBLK
  5
29F
330
29D
100
AcDbEntity
  8
0
100
AcDbBlockEnd
  0
BLOCK
  5
2AC
330
2AB
100
AcDbEntity
  8
0
100
AcDbBlockBegin
  2
*D9
 70
     1
 10
0.0
 20
0.0
 30
0.0
  3
*D9
  1

  0
LINE
  5
CD4
330
2AB
100
AcDbEntity
  8
AM_5
  6
ByBlock
100
AcDbLine
 10
101.9633124690778
 20
60.69175247583434
 30
0.0
 11
101.9633124690778
 21
82.39175347583497
 31
0.0
  0
LINE
  5
CD5
330
2AB
100
AcDbEntity
  8
AM_5
  6
ByBlock
100
AcDbLine
 10
106.9633124690778
 20
65.6917524758351
 30
0.0
 11
106.9633124690778
 21
82.39175347583497
 31
0.0
  0
LINE
  5
CD6
330
2AB
100
AcDbEntity
  8
AM_5
  6
ByBlock
100
AcDbLine
 10
109.4633124690778
 20
81.39175347583497
 30
0.0
 11
111.9633124690778
 21
81.39175347583497
 31
0.0
  0
LINE
  5
CD7
330
2AB
100
AcDbEntity
  8
AM_5
  6
ByBlock
100
AcDbLine
 10
99.46331246907783
 20
81.39175347583497
 30
0.0
 11
93.27835612253656
 21
81.39175347583497
 31
0.0
  0
LINE
  5
CD8
330
2AB
100
AcDbEntity
  8
AM_5
  6
ByBlock
100
AcDbLine
 10
106.9633124690778
 20
81.39175347583497
 30
0.0
 11
101.9633124690778
 21
81.39175347583497
 31
0.0
  0
INSERT
  5
CD9
330
2AB
100
AcDbEntity
  8
AM_5
100
AcDbBlockReference
  2
_Open
 10
106.9633124690778
 20
81.39175347583497
 30
0.0
 41
2.5
 42
2.5
 43
2.5
 50
180.0
  0
INSERT
  5
CDA
330
2AB
100
AcDbEntity
  8
AM_5
100
AcDbBlockReference
  2
_Open
 10
101.9633124690778
 20
81.39175347583497
 30
0.0
 41
2.5
 42
2.5
 43
2.5
  0
MTEXT
  5
CDB
330
2AB
100
AcDbEntity
  8
AM_5
 62
   140
100
AcDbMText
 10
95.12083429580721
 20
83.97818732405525
 30
0.0
 40
3.5
 41
0.0
 71
     5
 72
     1
  1
5
 73
     1
 44
1.0
1001
ACAD
1000
MTEXTBEGIN
1070
    73
1070
     1
1070
    44
1040
1.0
1070
    74
1070
     0
1000
MTEXTEND
  0
POINT
  5
CDC
330
2AB
100
AcDbEntity
  8
Defpoints
 62
     0
100
AcDbPoint
 10
101.9633124690778
 20
60.19175247583433
 30
0.0
  0
POINT
  5
CDD
330
2AB
100
AcDbEntity
  8
Defpoints
 62
     0
100
AcDbPoint
 10
106.9633124690778
 20
65.1917524758351
 30
0.0
  0
POINT
  5
CDE
330
2AB
100
AcDbEntity
  8
Defpoints
 62
     0
100
AcDbPoint
 10
106.9633124690778
 20
81.39175347583497
 30
0.0
  0
ENDBLK
  5
2AD
330
2AB
100
AcDbEntity
  8
0
100
AcDbBlockEnd
  0
BLOCK
  5
2BA
330
2B9
100
AcDbEntity
  8
0
100
AcDbBlockBegin
  2
*D10
 70
     1
 10
0.0
 20
0.0
 30
0.0
  3
*D10
  1

  0
LINE
  5
CDF
330
2B9
100
AcDbEntity
  8
AM_5
  6
ByBlock
100
AcDbLine
 10
101.9633124690778
 20
60.69175247583434
 30
0.0
 11
101.9633124690778
 21
90.39175347583494
 31
0.0
  0
LINE
  5
CE0
330
2B9
100
AcDbEntity
  8
AM_5
  6
ByBlock
100
AcDbLine
 10
86.96331246907787
 20
42.69175247583432
 30
0.0
 11
86.96331246907787
 21
90.39175347583494
 31
0.0
  0
LINE
  5
CE1
330
2B9
100
AcDbEntity
  8
AM_5
  6
ByBlock
100
AcDbLine
 10
99.46331246907783
 20
89.39175347583494
 30
0.0
 11
89.46331246907787
 21
89.39175347583494
 31
0.0
  0
INSERT
  5
CE2
330
2B9
100
AcDbEntity
  8
AM_5
100
AcDbBlockReference
  2
_Open
 10
101.9633124690778
 20
89.39175347583494
 30
0.0
 41
2.5
 42
2.5
 43
2.5
  0
INSERT
  5
CE3
330
2B9
100
AcDbEntity
  8
AM_5
100
AcDbBlockReference
  2
_Open
 10
86.96331246907787
 20
89.39175347583494
 30
0.0
 41
2.5
 42
2.5
 43
2.5
 50
180.0
  0
MTEXT
  5
CE4
330
2B9
100
AcDbEntity
  8
AM_5
 62
   140
100
AcDbMText
 10
94.46331246907787
 20
91.98406375118755
 30
0.0
 40
3.5
 41
0.0
 71
     5
 72
     1
  1
15
 73
     1
 44
1.0
1001
ACAD
1000
MTEXTBEGIN
1070
    73
1070
     1
1070
    44
1040
1.0
1070
    74
1070
     0
1000
MTEXTEND
  0
POINT
  5
CE5
330
2B9
100
AcDbEntity
  8
Defpoints
 62
     0
100
AcDbPoint
 10
101.9633124690778
 20
60.19175247583433
 30
0.0
  0
POINT
  5
CE6
330
2B9
100
AcDbEntity
  8
Defpoints
 62
     0
100
AcDbPoint
 10
86.96331246907787
 20
42.19175247583431
 30
0.0
  0
POINT
  5
CE7
330
2B9
100
AcDbEntity
  8
Defpoints
 62
     0
100
AcDbPoint
 10
86.96331246907787
 20
89.39175347583494
 30
0.0
  0
ENDBLK
  5
2BB
330
2B9
100
AcDbEntity
  8
0
100
AcDbBlockEnd
  0
BLOCK
  5
2C6
330
2C5
100
AcDbEntity
  8
0
100
AcDbBlockBegin
  2
*D11
 70
     1
 10
0.0
 20
0.0
 30
0.0
  3
*D11
  1

  0
LINE
  5
EDE
330
2C5
100
AcDbEntity
  8
AM_5
  6
ByBlock
100
AcDbLine
 10
106.9633124690778
 20
65.89175247583511
 30
0.0
 11
106.9633124690778
 21
82.39175347583502
 31
0.0
  0
LINE
  5
EDF
330
2C5
100
AcDbEntity
  8
AM_5
  6
ByBlock
100
AcDbLine
 10
176.9633124690777
 20
65.89175247583511
 30
0.0
 11
176.9633124690777
 21
82.39175347583502
 31
0.0
  0
LINE
  5
EE0
330
2C5
100
AcDbEntity
  8
AM_5
  6
ByBlock
100
AcDbLine
 10
109.4633124690778
 20
81.39175347583501
 30
0.0
 11
174.4633124690777
 21
81.39175347583501
 31
0.0
  0
INSERT
  5
EE1
330
2C5
100
AcDbEntity
  8
AM_5
100
AcDbBlockReference
  2
_Open
 10
106.9633124690778
 20
81.39175347583501
 30
0.0
 41
2.5
 42
2.5
 43
2.5
 50
180.0
  0
INSERT
  5
EE2
330
2C5
100
AcDbEntity
  8
AM_5
100
AcDbBlockReference
  2
_Open
 10
176.9633124690777
 20
81.39175347583501
 30
0.0
 41
2.5
 42
2.5
 43
2.5
  0
MTEXT
  5
EE3
330
2C5
100
AcDbEntity
  8
AM_5
 62
   140
100
AcDbMText
 10
141.9633124690778
 20
84.01344588684912
 30
0.0
 40
3.5
 41
0.0
 71
     5
 72
     1
  1
70
 73
     1
 44
1.0
1001
ACAD
1000
MTEXTBEGIN
1070
    73
1070
     1
1070
    44
1040
1.0
1070
    74
1070
     0
1000
MTEXTEND
  0
POINT
  5
EE4
330
2C5
100
AcDbEntity
  8
Defpoints
 62
     0
100
AcDbPoint
 10
106.9633124690778
 20
65.39175247583512
 30
0.0
  0
POINT
  5
EE5
330
2C5
100
AcDbEntity
  8
Defpoints
 62
     0
100
AcDbPoint
 10
176.9633124690777
 20
65.39175247583512
 30
0.0
  0
POINT
  5
EE6
330
2C5
100
AcDbEntity
  8
Defpoints
 62
     0
100
AcDbPoint
 10
176.9633124690777
 20
81.39175347583501
 30
0.0
  0
ENDBLK
  5
2C7
330
2C5
100
AcDbEntity
  8
0
100
AcDbBlockEnd
  0
BLOCK
  5
2D2
330
2D1
100
AcDbEntity
  8
0
100
AcDbBlockBegin
  2
*D12
 70
     1
 10
0.0
 20
0.0
 30
0.0
  3
*D12
  1

  0
LINE
  5
E62
330
2D1
100
AcDbEntity
  8
AM_5
  6
ByBlock
100
AcDbLine
 10
101.9633124690778
 20
60.69175247583434
 30
0.0
 11
101.9633124690778
 21
90.39175347583485
 31
0.0
  0
LINE
  5
E63
330
2D1
100
AcDbEntity
  8
AM_5
  6
ByBlock
100
AcDbLine
 10
193.4633124690785
 20
63.5738882094955
 30
0.0
 11
193.4633124690785
 21
90.39175347583485
 31
0.0
  0
LINE
  5
E64
330
2D1
100
AcDbEntity
  8
AM_5
  6
ByBlock
100
AcDbLine
 10
104.4633124690778
 20
89.39175347583489
 30
0.0
 11
190.9633124690785
 21
89.39175347583489
 31
0.0
  0
INSERT
  5
E65
330
2D1
100
AcDbEntity
  8
AM_5
100
AcDbBlockReference
  2
_Open
 10
101.9633124690778
 20
89.39175347583489
 30
0.0
 41
2.5
 42
2.5
 43
2.5
 50
180.0
  0
INSERT
  5
E66
330
2D1
100
AcDbEntity
  8
AM_5
100
AcDbBlockReference
  2
_Open
 10
193.4633124690785
 20
89.39175347583489
 30
0.0
 41
2.5
 42
2.5
 43
2.5
  0
MTEXT
  5
E67
330
2D1
100
AcDbEntity
  8
AM_5
 62
   140
100
AcDbMText
 10
147.7133124690781
 20
92.013445886849
 30
0.0
 40
3.5
 41
0.0
 71
     5
 72
     1
  1
91.5
 73
     1
 44
1.0
1001
ACAD
1000
MTEXTBEGIN
1070
    73
1070
     1
1070
    44
1040
1.0
1070
    74
1070
     0
1000
MTEXTEND
  0
POINT
  5
E68
330
2D1
100
AcDbEntity
  8
Defpoints
 62
     0
100
AcDbPoint
 10
101.9633124690778
 20
60.19175247583433
 30
0.0
  0
POINT
  5
E69
330
2D1
100
AcDbEntity
  8
Defpoints
 62
     0
100
AcDbPoint
 10
193.4633124690785
 20
63.0738882094955
 30
0.0
  0
POINT
  5
E6A
330
2D1
100
AcDbEntity
  8
Defpoints
 62
     0
100
AcDbPoint
 10
193.4633124690785
 20
89.39175347583489
 30
0.0
  0
ENDBLK
  5
2D3
330
2D1
100
AcDbEntity
  8
0
100
AcDbBlockEnd
  0
BLOCK
  5
2DE
330
2DD
100
AcDbEntity
  8
0
100
AcDbBlockBegin
  2
*D13
 70
     1
 10
0.0
 20
0.0
 30
0.0
  3
*D13
  1

  0
LINE
  5
50A
330
2DD
100
AcDbEntity
  8
AM_5
  6
ByBlock
100
AcDbLine
 10
175.0978281280183
 20
64.4972629567103
 30
0.0
 11
175.0978281280183
 21
80.99726395671025
 31
0.0
  0
LINE
  5
50B
330
2DD
100
AcDbEntity
  8
AM_5
  6
ByBlock
100
AcDbLine
 10
183.5978281280183
 20
62.29726295670957
 30
0.0
 11
183.5978281280183
 21
80.99726395671025
 31
0.0
  0
LINE
  5
50C
330
2DD
100
AcDbEntity
  8
AM_5
  6
ByBlock
100
AcDbLine
 10
177.5978281280183
 20
79.99726395671022
 30
0.0
 11
181.0978281280183
 21
79.99726395671022
 31
0.0
  0
INSERT
  5
50D
330
2DD
100
AcDbEntity
  8
AM_5
100
AcDbBlockReference
  2
_Open
 10
175.0978281280183
 20
79.99726395671022
 30
0.0
 41
2.5
 42
2.5
 43
2.5
 50
180.0
  0
INSERT
  5
50E
330
2DD
100
AcDbEntity
  8
AM_5
100
AcDbBlockReference
  2
_Open
 10
183.5978281280183
 20
79.99726395671022
 30
0.0
 41
2.5
 42
2.5
 43
2.5
  0
MTEXT
  5
50F
330
2DD
100
AcDbEntity
  8
AM_5
 62
   140
100
AcDbMText
 10
179.3478281280183
 20
82.62718336570953
 30
0.0
 40
3.5
 41
0.0
 71
     5
 72
     1
  1
8.5
 73
     1
 44
1.0
1001
ACAD
1000
MTEXTBEGIN
1070
    73
1070
     1
1070
    44
1040
1.0
1070
    74
1070
     0
1000
MTEXTEND
  0
POINT
  5
510
330
2DD
100
AcDbEntity
  8
Defpoints
 62
     0
100
AcDbPoint
 10
175.0978281280183
 20
63.99726295671031
 30
0.0
  0
POINT
  5
511
330
2DD
100
AcDbEntity
  8
Defpoints
 62
     0
100
AcDbPoint
 10
183.5978281280183
 20
61.79726295670956
 30
0.0
  0
POINT
  5
512
330
2DD
100
AcDbEntity
  8
Defpoints
 62
     0
100
AcDbPoint
 10
183.5978281280183
 20
79.99726395671022
 30
0.0
  0
ENDBLK
  5
2DF
330
2DD
100
AcDbEntity
  8
0
100
AcDbBlockEnd
  0
BLOCK
  5
2EA
330
2E9
100
AcDbEntity
  8
0
100
AcDbBlockBegin
  2
*D14
 70
     1
 10
0.0
 20
0.0
 30
0.0
  3
*D14
  1

  0
LINE
  5
513
330
2E9
100
AcDbEntity
  8
AM_5
  6
ByBlock
100
AcDbLine
 10
189.0978281280183
 20
22.29726295670958
 30
0.0
 11
197.5978281280183
 21
22.29726295670958
 31
0.0
  0
LINE
  5
514
330
2E9
100
AcDbEntity
  8
AM_5
  6
ByBlock
100
AcDbLine
 10
189.0978281280183
 20
56.29726295670956
 30
0.0
 11
197.5978281280183
 21
56.29726295670956
 31
0.0
  0
LINE
  5
515
330
2E9
100
AcDbEntity
  8
AM_5
  6
ByBlock
100
AcDbLine
 10
196.5978281280183
 20
24.79726295670958
 30
0.0
 11
196.5978281280183
 21
53.79726295670956
 31
0.0
  0
INSERT
  5
516
330
2E9
100
AcDbEntity
  8
AM_5
100
AcDbBlockReference
  2
_Open
 10
196.5978281280183
 20
22.29726295670958
 30
0.0
 41
2.5
 42
2.5
 43
2.5
 50
270.0
  0
INSERT
  5
517
330
2E9
100
AcDbEntity
  8
AM_5
100
AcDbBlockReference
  2
_Open
 10
196.5978281280183
 20
56.29726295670956
 30
0.0
 41
2.5
 42
2.5
 43
2.5
 50
90.0
  0
MTEXT
  5
518
330
2E9
100
AcDbEntity
  8
AM_5
 62
   140
100
AcDbMText
 10
193.9749604315776
 20
39.29726295670961
 30
0.0
 40
3.5
 41
0.0
 71
     5
 72
     1
  1
%%c34
 11
0.0000000000000001
 21
1.0
 31
0.0
 73
     1
 44
1.0
1001
ACAD
1000
MTEXTBEGIN
1070
    73
1070
     1
1070
    44
1040
1.0
1070
    74
1070
     0
1000
MTEXTEND
  0
POINT
  5
519
330
2E9
100
AcDbEntity
  8
Defpoints
 62
     0
100
AcDbPoint
 10
188.5978281280183
 20
22.29726295670958
 30
0.0
  0
POINT
  5
51A
330
2E9
100
AcDbEntity
  8
Defpoints
 62
     0
100
AcDbPoint
 10
188.5978281280183
 20
56.29726295670956
 30
0.0
  0
POINT
  5
51B
330
2E9
100
AcDbEntity
  8
Defpoints
 62
     0
100
AcDbPoint
 10
196.5978281280183
 20
56.29726295670956
 30
0.0
  0
ENDBLK
  5
2EB
330
2E9
100
AcDbEntity
  8
0
100
AcDbBlockEnd
  0
BLOCK
  5
2F6
330
2F5
100
AcDbEntity
  8
0
100
AcDbBlockBegin
  2
*D15
 70
     1
 10
0.0
 20
0.0
 30
0.0
  3
*D15
  1

  0
LINE
  5
51C
330
2F5
100
AcDbEntity
  8
AM_5
  6
ByBlock
100
AcDbLine
 10
184.0978281280183
 20
16.79726295670957
 30
0.0
 11
205.5978281280184
 21
16.79726295670957
 31
0.0
  0
LINE
  5
51D
330
2F5
100
AcDbEntity
  8
AM_5
  6
ByBlock
100
AcDbLine
 10
184.0978281280183
 20
61.79726295670956
 30
0.0
 11
205.5978281280184
 21
61.79726295670956
 31
0.0
  0
LINE
  5
51E
330
2F5
100
AcDbEntity
  8
AM_5
  6
ByBlock
100
AcDbLine
 10
204.5978281280184
 20
19.29726295670957
 30
0.0
 11
204.5978281280184
 21
59.29726295670956
 31
0.0
  0
INSERT
  5
51F
330
2F5
100
AcDbEntity
  8
AM_5
100
AcDbBlockReference
  2
_Open
 10
204.5978281280184
 20
16.79726295670957
 30
0.0
 41
2.5
 42
2.5
 43
2.5
 50
270.0
  0
INSERT
  5
520
330
2F5
100
AcDbEntity
  8
AM_5
100
AcDbBlockReference
  2
_Open
 10
204.5978281280184
 20
61.79726295670956
 30
0.0
 41
2.5
 42
2.5
 43
2.5
 50
90.0
  0
MTEXT
  5
521
330
2F5
100
AcDbEntity
  8
AM_5
 62
   140
100
AcDbMText
 10
202.0113942797981
 20
39.2972629567096
 30
0.0
 40
3.5
 41
0.0
 71
     5
 72
     1
  1
%%c45
 11
0.0000000000000001
 21
1.0
 31
0.0
 73
     1
 44
1.0
1001
ACAD
1000
MTEXTBEGIN
1070
    73
1070
     1
1070
    44
1040
1.0
1070
    74
1070
     0
1000
MTEXTEND
  0
POINT
  5
522
330
2F5
100
AcDbEntity
  8
Defpoints
 62
     0
100
AcDbPoint
 10
183.5978281280183
 20
16.79726295670958
 30
0.0
  0
POINT
  5
523
330
2F5
100
AcDbEntity
  8
Defpoints
 62
     0
100
AcDbPoint
 10
183.5978281280183
 20
61.79726295670956
 30
0.0
  0
POINT
  5
524
330
2F5
100
AcDbEntity
  8
Defpoints
 62
     0
100
AcDbPoint
 10
204.5978281280184
 20
61.79726295670956
 30
0.0
  0
ENDBLK
  5
2F7
330
2F5
100
AcDbEntity
  8
0
100
AcDbBlockEnd
  0
BLOCK
  5
302
330
301
100
AcDbEntity
  8
0
100
AcDbBlockBegin
  2
*D16
 70
     1
 10
0.0
 20
0.0
 30
0.0
  3
*D16
  1

  0
LINE
  5
525
330
301
100
AcDbEntity
  8
AM_5
  6
ByBlock
100
AcDbLine
 10
175.5978281280183
 20
14.59726295671067
 30
0.0
 11
213.5978281280184
 21
14.59726295671066
 31
0.0
  0
LINE
  5
526
330
301
100
AcDbEntity
  8
AM_5
  6
ByBlock
100
AcDbLine
 10
175.5978281280183
 20
63.99726295671031
 30
0.0
 11
213.5978281280184
 21
63.9972629567103
 31
0.0
  0
LINE
  5
527
330
301
100
AcDbEntity
  8
AM_5
  6
ByBlock
100
AcDbLine
 10
212.5978281280184
 20
17.09726295671066
 30
0.0
 11
212.5978281280184
 21
61.4972629567103
 31
0.0
  0
INSERT
  5
528
330
301
100
AcDbEntity
  8
AM_5
100
AcDbBlockReference
  2
_Open
 10
212.5978281280184
 20
14.59726295671066
 30
0.0
 41
2.5
 42
2.5
 43
2.5
 50
270.0
  0
INSERT
  5
529
330
301
100
AcDbEntity
  8
AM_5
100
AcDbBlockReference
  2
_Open
 10
212.5978281280184
 20
63.9972629567103
 30
0.0
 41
2.5
 42
2.5
 43
2.5
 50
90.0
  0
MTEXT
  5
52A
330
301
100
AcDbEntity
  8
AM_5
 62
   140
100
AcDbMText
 10
209.9761357170043
 20
39.29726295671051
 30
0.0
 40
3.5
 41
0.0
 71
     5
 72
     1
  1
%%c49.4max
 11
0.0000000000000001
 21
1.0
 31
0.0
 73
     1
 44
1.0
1001
ACAD
1000
MTEXTBEGIN
1070
    73
1070
     1
1070
    44
1040
1.0
1070
    74
1070
     0
1000
MTEXTEND
  0
POINT
  5
52B
330
301
100
AcDbEntity
  8
Defpoints
 62
     0
100
AcDbPoint
 10
175.0978281280183
 20
14.59726295671067
 30
0.0
  0
POINT
  5
52C
330
301
100
AcDbEntity
  8
Defpoints
 62
     0
100
AcDbPoint
 10
175.0978281280183
 20
63.99726295671031
 30
0.0
  0
POINT
  5
52D
330
301
100
AcDbEntity
  8
Defpoints
 62
     0
100
AcDbPoint
 10
212.5978281280184
 20
63.9972629567103
 30
0.0
  0
ENDBLK
  5
303
330
301
100
AcDbEntity
  8
0
100
AcDbBlockEnd
  0
BLOCK
  5
8E4
330
8E3
100
AcDbEntity
  8
0
100
AcDbBlockBegin
  2
*D17
 70
     1
 10
0.0
 20
0.0
 30
0.0
  3
*D17
  1

  0
LINE
  5
C86
330
8E3
100
AcDbEntity
  8
AM_5
  6
ByBlock
100
AcDbLine
 10
34.42203698688879
 20
68.89175247583428
 30
0.0
 11
34.42203698688878
 21
71.73432487645467
 31
0.0
  0
LINE
  5
C87
330
8E3
100
AcDbEntity
  8
AM_5
  6
ByBlock
100
AcDbLine
 10
18.4005670168766
 20
31.44175247583425
 30
0.0
 11
7.538380689133767
 21
25.17046627552407
 31
0.0
  0
ARC
  5
C88
330
8E3
100
AcDbEntity
  8
AM_5
  6
ByBlock
100
AcDbCircle
 10
34.42203698688878
 20
40.69175247583424
 30
0.0
 40
30.04257240062044
100
AcDbArc
 50
94.76925904745668
 51
205.2307409525432
  0
INSERT
  5
C89
330
8E3
100
AcDbEntity
  8
AM_5
100
AcDbBlockReference
  2
_Open
 10
34.42203698688879
 20
70.73432487645469
 30
0.0
 41
2.5
 42
2.5
 43
2.5
 50
2.384629523728326
  0
INSERT
  5
C8A
330
8E3
100
AcDbEntity
  8
AM_5
100
AcDbBlockReference
  2
_Open
 10
8.404406092918204
 20
25.67046627552406
 30
0.0
 41
2.5
 42
2.5
 43
2.5
 50
297.6153704762716
  0
MTEXT
  5
C8B
102
{ACAD_XDICTIONARY
360
1138
102
}
330
8E3
100
AcDbEntity
  8
AM_5
 62
   140
100
AcDbMText
 10
6.132936037035147
 20
57.02447252436478
 30
0.0
 40
3.5
 41
0.0
 71
     5
 72
     1
  1
3-120\U+00B0
 11
0.5000000000000009
 21
0.8660254037844381
 31
0.0
 73
     1
 44
1.0
1001
ACAD
1000
MTEXTBEGIN
1070
    73
1070
     1
1070
    44
1040
1.0
1070
    74
1070
     0
1000
MTEXTEND
  0
POINT
  5
C8C
330
8E3
100
AcDbEntity
  8
Defpoints
 62
     0
100
AcDbPoint
 10
15.11104368465919
 20
63.70569812032911
 30
0.0
  0
POINT
  5
C8D
330
8E3
100
AcDbEntity
  8
Defpoints
 62
     0
100
AcDbPoint
 10
18.83357971876882
 20
31.69175247583425
 30
0.0
  0
POINT
  5
C8E
330
8E3
100
AcDbEntity
  8
Defpoints
 62
     0
100
AcDbPoint
 10
34.42203698688878
 20
40.69175247583425
 30
0.0
  0
POINT
  5
C8F
330
8E3
100
AcDbEntity
  8
Defpoints
 62
     0
100
AcDbPoint
 10
34.42203698688879
 20
68.39175247583428
 30
0.0
  0
POINT
  5
C90
330
8E3
100
AcDbEntity
  8
Defpoints
 62
     0
100
AcDbPoint
 10
34.4220369868888
 20
40.69175247583424
 30
0.0
  0
ENDBLK
  5
8E5
330
8E3
100
AcDbEntity
  8
0
100
AcDbBlockEnd
  0
BLOCK
  5
935
330
934
100
AcDbEntity
  8
0
100
AcDbBlockBegin
  2
*D18
 70
     1
 10
0.0
 20
0.0
 30
0.0
  3
*D18
  1

  0
LINE
  5
944
330
934
100
AcDbEntity
  8
AM_5
  6
ByBlock
100
AcDbLine
 10
37.02306635130508
 20
180.4484466817163
 30
0.0
 11
55.27614832769923
 21
197.5313328068134
 31
0.0
  0
INSERT
  5
945
330
934
100
AcDbEntity
  8
AM_5
100
AcDbBlockReference
  2
_Open
 10
35.19775815366566
 20
178.7401580692066
 30
0.0
 41
2.5
 42
2.5
 43
2.5
 50
223.103270032946
  0
INSERT
  5
946
330
934
100
AcDbEntity
  8
AM_5
100
AcDbBlockReference
  2
_Open
 10
57.10145652533864
 20
199.2396214193231
 30
0.0
 41
2.5
 42
2.5
 43
2.5
 50
43.10327003294603
  0
MTEXT
  5
947
102
{ACAD_XDICTIONARY
360
1136
102
}
330
934
100
AcDbEntity
  8
AM_5
 62
   140
100
AcDbMText
 10
47.8685531766187
 20
194.2759465100479
 30
0.0
 40
3.5
 41
0.0
 71
     5
 72
     1
  1
\U+220530
 11
0.730123279055766
 21
0.683315445003884
 31
0.0
 73
     1
 44
1.0
1001
ACAD
1000
MTEXTBEGIN
1070
    73
1070
     1
1070
    44
1040
1.0
1070
    74
1070
     0
1000
MTEXTEND
  0
POINT
  5
948
330
934
100
AcDbEntity
  8
Defpoints
 62
     0
100
AcDbPoint
 10
57.10145652533864
 20
199.2396214193231
 30
0.0
  0
POINT
  5
949
330
934
100
AcDbEntity
  8
Defpoints
 62
     0
100
AcDbPoint
 10
35.19775815366566
 20
178.7401580692066
 30
0.0
  0
ENDBLK
  5
936
330
934
100
AcDbEntity
  8
0
100
AcDbBlockEnd
  0
BLOCK
  5
94C
330
94B
100
AcDbEntity
  8
0
100
AcDbBlockBegin
  2
*D19
 70
     1
 10
0.0
 20
0.0
 30
0.0
  3
*D19
  1

  0
LINE
  5
CAC
330
94B
100
AcDbEntity
  8
AM_5
  6
ByBlock
100
AcDbLine
 10
26.70861759339732
 20
24.98337377973355
 30
0.0
 11
25.60670053718425
 21
22.73931968029059
 31
0.0
  0
LINE
  5
CAD
330
94B
100
AcDbEntity
  8
AM_5
  6
ByBlock
100
AcDbLine
 10
42.13545638038023
 20
56.40013117193493
 30
0.0
 11
46.57652184925509
 21
65.44436105759721
 31
0.0
  0
LINE
  5
CAE
330
94B
100
AcDbEntity
  8
AM_5
  6
ByBlock
100
AcDbLine
 10
46.57652184925509
 20
65.44436105759721
 30
0.0
 11
69.06757204271563
 21
65.44436105759721
 31
0.0
  0
LINE
  5
CAF
330
94B
100
AcDbEntity
  8
AM_5
  6
ByBlock
100
AcDbLine
 10
27.81053464961039
 20
27.2274278791765
 30
0.0
 11
41.03353932416714
 21
54.15607707249199
 31
0.0
  0
INSERT
  5
CB0
330
94B
100
AcDbEntity
  8
AM_5
100
AcDbBlockReference
  2
_Open
 10
27.81053464961039
 20
27.2274278791765
 30
0.0
 41
2.5
 42
2.5
 43
2.5
 50
63.84718233517554
  0
INSERT
  5
CB1
330
94B
100
AcDbEntity
  8
AM_5
100
AcDbBlockReference
  2
_Open
 10
41.03353932416714
 20
54.15607707249199
 30
0.0
 41
2.5
 42
2.5
 43
2.5
 50
243.8471823351756
  0
MTEXT
  5
CB2
102
{ACAD_XDICTIONARY
360
113A
102
}
330
94B
100
AcDbEntity
  8
AM_5
 62
   140
100
AcDbMText
 10
58.22204694598536
 20
68.1292519170788
 30
0.0
 40
3.5
 41
0.0
 71
     5
 72
     1
  1
P.C.D.\U+220530
 73
     1
 44
1.0
1001
ACAD
1000
MTEXTBEGIN
1070
    73
1070
     1
1070
    44
1040
1.0
1070
    74
1070
     0
1000
MTEXTEND
  0
POINT
  5
CB3
330
94B
100
AcDbEntity
  8
Defpoints
 62
     0
100
AcDbPoint
 10
41.03353932416714
 20
54.15607707249199
 30
0.0
  0
POINT
  5
CB4
330
94B
100
AcDbEntity
  8
Defpoints
 62
     0
100
AcDbPoint
 10
27.81053464961039
 20
27.2274278791765
 30
0.0
  0
ENDBLK
  5
94D
330
94B
100
AcDbEntity
  8
0
100
AcDbBlockEnd
  0
BLOCK
  5
B67
330
B66
100
AcDbEntity
  8
0
100
AcDbBlockBegin
  2
*D20
 70
     1
 10
0.0
 20
0.0
 30
0.0
  3
*D20
  1

  0
LINE
  5
EBA
330
B66
100
AcDbEntity
  8
AM_5
  6
ByBlock
100
AcDbLine
 10
184.4633124690778
 20
18.1917524758351
 30
0.0
 11
205.4159050364223
 21
18.19175247583508
 31
0.0
  0
LINE
  5
EBB
330
B66
100
AcDbEntity
  8
AM_5
  6
ByBlock
100
AcDbLine
 10
184.4633124690778
 20
63.1917524758351
 30
0.0
 11
205.4159050364223
 21
63.1917524758351
 31
0.0
  0
LINE
  5
EBC
330
B66
100
AcDbEntity
  8
AM_5
  6
ByBlock
100
AcDbLine
 10
204.4159050364223
 20
20.6917524758351
 30
0.0
 11
204.4159050364223
 21
60.6917524758351
 31
0.0
  0
INSERT
  5
EBD
330
B66
100
AcDbEntity
  8
AM_5
100
AcDbBlockReference
  2
_Open
 10
204.4159050364223
 20
18.19175247583508
 30
0.0
 41
2.5
 42
2.5
 43
2.5
 50
270.0
  0
INSERT
  5
EBE
330
B66
100
AcDbEntity
  8
AM_5
100
AcDbBlockReference
  2
_Open
 10
204.4159050364223
 20
63.1917524758351
 30
0.0
 41
2.5
 42
2.5
 43
2.5
 50
90.0
  0
MTEXT
  5
EBF
330
B66
100
AcDbEntity
  8
AM_5
 62
   140
100
AcDbMText
 10
201.829471188202
 20
40.63282034266535
 30
0.0
 40
3.5
 41
0.0
 71
     5
 72
     1
  1
%%c45
 11
0.0000000000000001
 21
1.0
 31
0.0
 73
     1
 44
1.0
1001
ACAD
1000
MTEXTBEGIN
1070
    73
1070
     1
1070
    44
1040
1.0
1070
    74
1070
     0
1000
MTEXTEND
  0
POINT
  5
EC0
330
B66
100
AcDbEntity
  8
Defpoints
 62
     0
100
AcDbPoint
 10
183.9633124690778
 20
18.1917524758351
 30
0.0
  0
POINT
  5
EC1
330
B66
100
AcDbEntity
  8
Defpoints
 62
     0
100
AcDbPoint
 10
183.9633124690778
 20
63.1917524758351
 30
0.0
  0
POINT
  5
EC2
330
B66
100
AcDbEntity
  8
Defpoints
 62
     0
100
AcDbPoint
 10
204.4159050364223
 20
63.1917524758351
 30
0.0
  0
ENDBLK
  5
B68
330
B66
100
AcDbEntity
  8
0
100
AcDbBlockEnd
  0
BLOCK
  5
B73
330
B72
100
AcDbEntity
  8
0
100
AcDbBlockBegin
  2
*D21
 70
     1
 10
0.0
 20
0.0
 30
0.0
  3
*D21
  1

  0
LINE
  5
ED5
330
B72
100
AcDbEntity
  8
AM_5
  6
ByBlock
100
AcDbLine
 10
177.4633124690777
 20
15.99175247583499
 30
0.0
 11
214.1671127804529
 21
15.99175247583497
 31
0.0
  0
LINE
  5
ED6
330
B72
100
AcDbEntity
  8
AM_5
  6
ByBlock
100
AcDbLine
 10
177.4633124690777
 20
65.39175247583512
 30
0.0
 11
214.167112780453
 21
65.39175247583512
 31
0.0
  0
LINE
  5
ED7
330
B72
100
AcDbEntity
  8
AM_5
  6
ByBlock
100
AcDbLine
 10
213.1671127804529
 20
18.49175247583498
 30
0.0
 11
213.1671127804529
 21
62.89175247583511
 31
0.0
  0
INSERT
  5
ED8
330
B72
100
AcDbEntity
  8
AM_5
100
AcDbBlockReference
  2
_Open
 10
213.1671127804529
 20
15.99175247583497
 30
0.0
 41
2.5
 42
2.5
 43
2.5
 50
270.0
  0
INSERT
  5
ED9
330
B72
100
AcDbEntity
  8
AM_5
100
AcDbBlockReference
  2
_Open
 10
213.1671127804529
 20
65.39175247583512
 30
0.0
 41
2.5
 42
2.5
 43
2.5
 50
90.0
  0
MTEXT
  5
EDA
330
B72
100
AcDbEntity
  8
AM_5
 62
   140
100
AcDbMText
 10
210.5454203694388
 20
40.69175247583507
 30
0.0
 40
3.5
 41
0.0
 71
     5
 72
     1
  1
%%c49.4max
 11
0.0000000000000001
 21
1.0
 31
0.0
 73
     1
 44
1.0
1001
ACAD
1000
MTEXTBEGIN
1070
    73
1070
     1
1070
    44
1040
1.0
1070
    74
1070
     0
1000
MTEXTEND
  0
POINT
  5
EDB
330
B72
100
AcDbEntity
  8
Defpoints
 62
     0
100
AcDbPoint
 10
176.9633124690777
 20
15.99175247583499
 30
0.0
  0
POINT
  5
EDC
330
B72
100
AcDbEntity
  8
Defpoints
 62
     0
100
AcDbPoint
 10
176.9633124690777
 20
65.39175247583512
 30
0.0
  0
POINT
  5
EDD
330
B72
100
AcDbEntity
  8
Defpoints
 62
     0
100
AcDbPoint
 10
213.1671127804529
 20
65.39175247583512
 30
0.0
  0
ENDBLK
  5
B74
330
B72
100
AcDbEntity
  8
0
100
AcDbBlockEnd
  0
BLOCK
  5
D26
330
D1E
100
AcDbEntity
  8
0
100
AcDbBlockBegin
  2
*S262222
 70
     1
 10
0.0
 20
0.0
 30
0.0
  3
*S262222
  1

  0
LINE
  5
D1F
330
D1E
100
AcDbEntity
  8
AM_5
  6
Continuous
 62
    92
100
AcDbLine
 10
75.27021806367976
 20
14.52961879924387
 30
0.0
 11
52.65844753974946
 21
14.52961879924387
 31
0.0
  0
LINE
  5
D20
330
D1E
100
AcDbEntity
  8
AM_5
  6
Continuous
 62
    92
100
AcDbLine
 10
52.65844753974946
 20
14.52961879924387
 30
0.0
 11
48.49488490285935
 21
29.34100378256352
 31
0.0
  0
LINE
  5
D21
330
D1E
100
AcDbEntity
  8
AM_5
  6
Continuous
 62
    92
100
AcDbLine
 10
48.49488490285935
 20
29.34100378256352
 30
0.0
 11
47.81834311585686
 21
31.74772171585764
 31
0.0
  0
LINE
  5
D22
330
D1E
100
AcDbEntity
  8
AM_5
  6
Continuous
 62
    92
100
AcDbLine
 10
48.89600454236357
 20
29.45376074255366
 30
0.0
 11
47.81834311585686
 21
31.74772171585764
 31
0.0
  0
LINE
  5
D23
330
D1E
100
AcDbEntity
  8
AM_5
  6
Continuous
 62
    92
100
AcDbLine
 10
47.81834311585686
 20
31.74772171585764
 30
0.0
 11
48.0937652633551
 21
29.22824682257339
 31
0.0
  0
MTEXT
  5
D24
102
{ACAD_XDICTIONARY
360
113C
102
}
330
D1E
100
AcDbEntity
  8
AM_5
 62
   140
100
AcDbMText
 10
53.96178577233108
 20
18.81706003497255
 30
0.0
 40
3.5
 41
0.0
 71
     1
 72
     5
  1
3-M3\P\U+6709\U+52B9\U+6DF1\U+30552
 73
     1
 44
1.0
1001
ACAD
1000
MTEXTBEGIN
1070
    73
1070
     1
1070
    44
1040
1.0
1070
    74
1070
     0
1000
MTEXTEND
  0
LINE
  5
D25
330
D1E
100
AcDbEntity
  8
AM_5
  6
Continuous
 62
    92
100
AcDbLine
 10
53.96178577233108
 20
14.52961879924388
 30
0.0
 11
75.27021806367976
 21
14.52961879924388
 31
0.0
  0
ENDBLK
  5
D27
330
D1E
100
AcDbEntity
  8
0
100
AcDbBlockEnd
  0
BLOCK
  5
D30
330
D29
100
AcDbEntity
  8
0
100
AcDbBlockBegin
  2
*S272323
 70
     1
 10
0.0
 20
0.0
 30
0.0
  3
*S272323
  1

  0
LINE
  5
D2A
330
D29
100
AcDbEntity
  8
AM_5
  6
Continuous
 62
    92
100
AcDbLine
 10
151.6175335869014
 20
70.31583133415472
 30
0.0
 11
130.5670362634107
 21
70.31583133415472
 31
0.0
  0
LINE
  5
D2B
330
D29
100
AcDbEntity
  8
AM_5
  6
Continuous
 62
    92
100
AcDbLine
 10
130.5670362634107
 20
70.31583133415472
 30
0.0
 11
139.6831909492069
 21
66.21695775021762
 31
0.0
  0
LINE
  5
D2C
330
D29
100
AcDbEntity
  8
AM_5
  6
Continuous
 62
    92
100
AcDbLine
 10
139.6831909492069
 20
66.21695775021762
 30
0.0
 11
141.9633124690778
 21
65.1917524758351
 31
0.0
  0
LINE
  5
D2D
330
D29
100
AcDbEntity
  8
AM_5
  6
Continuous
 62
    92
100
AcDbLine
 10
139.5123234103112
 20
65.83693751210661
 30
0.0
 11
141.9633124690778
 21
65.1917524758351
 31
0.0
  0
LINE
  5
D2E
330
D29
100
AcDbEntity
  8
AM_5
  6
Continuous
 62
    92
100
AcDbLine
 10
141.9633124690778
 20
65.1917524758351
 30
0.0
 11
139.8540584881027
 21
66.59697798832863
 31
0.0
  0
MTEXT
  5
D2F
102
{ACAD_XDICTIONARY
360
113E
102
}
330
D29
100
AcDbEntity
  8
AM_5
 62
   140
100
AcDbMText
 10
131.8703744959923
 20
71.61842862738433
 30
0.0
 40
3.5
 41
0.0
 71
     7
 72
     5
  1
\U+5B9A\U+683C\U+9298\U+677F
 73
     1
 44
1.0
1001
ACAD
1000
MTEXTBEGIN
1070
    73
1070
     1
1070
    44
1040
1.0
1070
    74
1070
     0
1000
MTEXTEND
  0
ENDBLK
  5
D31
330
D29
100
AcDbEntity
  8
0
100
AcDbBlockEnd
  0
BLOCK
  5
D3A
330
D33
100
AcDbEntity
  8
0
100
AcDbBlockBegin
  2
*S282424
 70
     1
 10
0.0
 20
0.0
 30
0.0
  3
*S282424
  1

  0
LINE
  5
D34
330
D33
100
AcDbEntity
  8
AM_5
  6
Continuous
 62
    92
100
AcDbLine
 10
255.2176290975007
 20
70.53772652938143
 30
0.0
 11
239.6557681376464
 21
70.53772652938143
 31
0.0
  0
LINE
  5
D35
330
D33
100
AcDbEntity
  8
AM_5
  6
Continuous
 62
    92
100
AcDbLine
 10
239.6557681376464
 20
70.53772652938143
 30
0.0
 11
237.5005418735395
 21
56.58584127551375
 31
0.0
  0
LINE
  5
D36
330
D33
100
AcDbEntity
  8
AM_5
  6
Continuous
 62
    92
100
AcDbLine
 10
237.5005418735395
 20
56.58584127551375
 30
0.0
 11
237.1188797005704
 21
54.11514623449301
 31
0.0
  0
LINE
  5
D37
330
D33
100
AcDbEntity
  8
AM_5
  6
Continuous
 62
    92
100
AcDbLine
 10
237.0887593831739
 20
56.64945163513086
 30
0.0
 11
237.1188797005704
 21
54.11514623449301
 31
0.0
  0
LINE
  5
D38
330
D33
100
AcDbEntity
  8
AM_5
  6
Continuous
 62
    92
100
AcDbLine
 10
237.1188797005704
 20
54.11514623449301
 30
0.0
 11
237.9123243639049
 21
56.52223091589664
 31
0.0
  0
MTEXT
  5
D39
102
{ACAD_XDICTIONARY
360
1140
102
}
330
D33
100
AcDbEntity
  8
AM_5
 62
   140
100
AcDbMText
 10
240.959106370228
 20
71.84032382261104
 30
0.0
 40
3.5
 41
0.0
 71
     7
 72
     5
  1
\U+FF0B\U+7AEF\U+5B50
 73
     1
 44
1.0
1001
ACAD
1000
MTEXTBEGIN
1070
    73
1070
     1
1070
    44
1040
1.0
1070
    74
1070
     0
1000
MTEXTEND
  0
ENDBLK
  5
D3B
330
D33
100
AcDbEntity
  8
0
100
AcDbBlockEnd
  0
BLOCK
  5
E03
330
E02
100
AcDbEntity
  8
0
100
AcDbBlockBegin
  2
*D25
 70
     1
 10
0.0
 20
0.0
 30
0.0
  3
*D25
  1

  0
LINE
  5
E22
330
E02
100
AcDbEntity
  8
AM_5
  6
ByBlock
100
AcDbLine
 10
193.5633124690785
 20
63.5738882094955
 30
0.0
 11
193.5633124690785
 21
69.92722103980191
 31
0.0
  0
LINE
  5
E23
330
E02
100
AcDbEntity
  8
AM_5
  6
ByBlock
100
AcDbLine
 10
184.0633124690778
 20
63.6917524758351
 30
0.0
 11
184.0633124690778
 21
69.92722103980191
 31
0.0
  0
LINE
  5
E24
330
E02
100
AcDbEntity
  8
AM_5
  6
ByBlock
100
AcDbLine
 10
191.0633124690784
 20
68.9272210398019
 30
0.0
 11
186.5633124690778
 21
68.9272210398019
 31
0.0
  0
INSERT
  5
E25
330
E02
100
AcDbEntity
  8
AM_5
100
AcDbBlockReference
  2
_Open
 10
193.5633124690785
 20
68.9272210398019
 30
0.0
 41
2.5
 42
2.5
 43
2.5
  0
INSERT
  5
E26
330
E02
100
AcDbEntity
  8
AM_5
100
AcDbBlockReference
  2
_Open
 10
184.0633124690778
 20
68.9272210398019
 30
0.0
 41
2.5
 42
2.5
 43
2.5
 50
180.0
  0
MTEXT
  5
E27
330
E02
100
AcDbEntity
  8
AM_5
 62
   140
100
AcDbMText
 10
188.8133124690781
 20
71.54891345081601
 30
0.0
 40
3.5
 41
0.0
 71
     5
 72
     1
  1
9.5
 73
     1
 44
1.0
1001
ACAD
1000
MTEXTBEGIN
1070
    73
1070
     1
1070
    44
1040
1.0
1070
    74
1070
     0
1000
MTEXTEND
  0
POINT
  5
E28
330
E02
100
AcDbEntity
  8
Defpoints
 62
     0
100
AcDbPoint
 10
193.5633124690785
 20
63.0738882094955
 30
0.0
  0
POINT
  5
E29
330
E02
100
AcDbEntity
  8
Defpoints
 62
     0
100
AcDbPoint
 10
184.0633124690778
 20
63.1917524758351
 30
0.0
  0
POINT
  5
E2A
330
E02
100
AcDbEntity
  8
Defpoints
 62
     0
100
AcDbPoint
 10
184.0633124690778
 20
68.9272210398019
 30
0.0
  0
ENDBLK
  5
E04
330
E02
100
AcDbEntity
  8
0
100
AcDbBlockEnd
  0
BLOCK
  5
E2D
330
E2C
100
AcDbEntity
  8
0
100
AcDbBlockBegin
  2
*D26
 70
     1
 10
0.0
 20
0.0
 30
0.0
  3
*D26
  1

  0
LINE
  5
E4F
330
E2C
100
AcDbEntity
  8
AM_5
  6
ByBlock
100
AcDbLine
 10
184.0633124690778
 20
63.6917524758351
 30
0.0
 11
184.0633124690778
 21
78.19175347583509
 31
0.0
  0
LINE
  5
E50
330
E2C
100
AcDbEntity
  8
AM_5
  6
ByBlock
100
AcDbLine
 10
176.9633124690778
 20
65.6917524758351
 30
0.0
 11
176.9633124690778
 21
78.19175347583509
 31
0.0
  0
LINE
  5
E51
330
E2C
100
AcDbEntity
  8
AM_5
  6
ByBlock
100
AcDbLine
 10
181.5633124690778
 20
77.1917534758351
 30
0.0
 11
179.4633124690778
 21
77.1917534758351
 31
0.0
  0
LINE
  5
E52
330
E2C
100
AcDbEntity
  8
AM_5
  6
ByBlock
100
AcDbLine
 10
176.9633124690778
 20
77.1917534758351
 30
0.0
 11
166.7729833891584
 21
77.1917534758351
 31
0.0
  0
INSERT
  5
E53
330
E2C
100
AcDbEntity
  8
AM_5
100
AcDbBlockReference
  2
_Open
 10
184.0633124690778
 20
77.1917534758351
 30
0.0
 41
2.5
 42
2.5
 43
2.5
  0
INSERT
  5
E54
330
E2C
100
AcDbEntity
  8
AM_5
100
AcDbBlockReference
  2
_Open
 10
176.9633124690778
 20
77.1917534758351
 30
0.0
 41
2.5
 42
2.5
 43
2.5
 50
180.0
  0
MTEXT
  5
E55
330
E2C
100
AcDbEntity
  8
AM_5
 62
   140
100
AcDbMText
 10
170.6181479291181
 20
79.7476299029674
 30
0.0
 40
3.5
 41
0.0
 71
     5
 72
     1
  1
7.1
 73
     1
 44
1.0
1001
ACAD
1000
MTEXTBEGIN
1070
    73
1070
     1
1070
    44
1040
1.0
1070
    74
1070
     0
1000
MTEXTEND
  0
POINT
  5
E56
330
E2C
100
AcDbEntity
  8
Defpoints
 62
     0
100
AcDbPoint
 10
184.0633124690778
 20
63.1917524758351
 30
0.0
  0
POINT
  5
E57
330
E2C
100
AcDbEntity
  8
Defpoints
 62
     0
100
AcDbPoint
 10
176.9633124690778
 20
65.1917524758351
 30
0.0
  0
POINT
  5
E58
330
E2C
100
AcDbEntity
  8
Defpoints
 62
     0
100
AcDbPoint
 10
176.9633124690778
 20
77.1917534758351
 30
0.0
  0
ENDBLK
  5
E2E
330
E2C
100
AcDbEntity
  8
0
100
AcDbBlockEnd
  0
BLOCK
  5
10E4
330
10DC
100
AcDbEntity
  8
0
100
AcDbBlockBegin
  2
*S29
 70
     1
 10
0.0
 20
0.0
 30
0.0
  3
*S29
  1

  0
LINE
  5
10DD
330
10DC
100
AcDbEntity
  8
AM_5
  6
Continuous
 62
    92
100
AcDbLine
 10
113.1203485534058
 20
8.975023193893928
 30
0.0
 11
57.34365278443341
 21
8.975023193893928
 31
0.0
  0
LINE
  5
10DE
330
10DC
100
AcDbEntity
  8
AM_5
  6
Continuous
 62
    92
100
AcDbLine
 10
57.34365278443341
 20
8.975023193893928
 30
0.0
 11
48.78304646448738
 21
29.44135065960042
 31
0.0
  0
LINE
  5
10DF
330
10DC
100
AcDbEntity
  8
AM_5
  6
Continuous
 62
    92
100
AcDbLine
 10
48.78304646448738
 20
29.44135065960042
 30
0.0
 11
47.81834311585684
 21
31.74772171585764
 31
0.0
  0
LINE
  5
10E0
330
10DC
100
AcDbEntity
  8
AM_5
  6
Continuous
 62
    92
100
AcDbLine
 10
49.40103672085093
 20
29.69984214045626
 30
0.0
 11
47.81834311585684
 21
31.74772171585764
 31
0.0
  0
LINE
  5
10E1
330
10DC
100
AcDbEntity
  8
AM_5
  6
Continuous
 62
    92
100
AcDbLine
 10
47.81834311585684
 20
31.74772171585764
 30
0.0
 11
48.16505620812381
 21
29.18285917874458
 31
0.0
  0
MTEXT
  5
10E2
102
{ACAD_XDICTIONARY
360
1142
102
}
330
10DC
100
AcDbEntity
  8
AM_5
 62
   140
100
AcDbMText
 10
60.84365278443341
 20
13.2624644296226
 30
0.0
 40
3.5
 41
0.0
 71
     1
 72
     5
  1
3-M3\U+00D70.5 TAPPED HOLE\P(2mmMAX)
 73
     1
 44
1.0
1001
ACAD
1000
MTEXTBEGIN
1070
    73
1070
     1
1070
    44
1040
1.0
1070
    74
1070
     0
1000
MTEXTEND
  0
LINE
  5
10E3
330
10DC
100
AcDbEntity
  8
AM_5
  6
Continuous
 62
    92
100
AcDbLine
 10
60.84365278443341
 20
8.975023193893928
 30
0.0
 11
113.1203485534058
 21
8.975023193893928
 31
0.0
  0
ENDBLK
  5
10E5
330
10DC
100
AcDbEntity
  8
0
100
AcDbBlockEnd
  0
BLOCK
  5
10EE
330
10E7
100
AcDbEntity
  8
0
100
AcDbBlockBegin
  2
*S30
 70
     1
 10
0.0
 20
0.0
 30
0.0
  3
*S30
  1

  0
LINE
  5
10E8
330
10E7
100
AcDbEntity
  8
AM_5
  6
Continuous
 62
    92
100
AcDbLine
 10
149.640138820088
 20
70.73543876595417
 30
0.0
 11
133.2919185380195
 21
70.73543876595417
 31
0.0
  0
LINE
  5
10E9
330
10E7
100
AcDbEntity
  8
AM_5
  6
Continuous
 62
    92
100
AcDbLine
 10
133.2919185380195
 20
70.73543876595417
 30
0.0
 11
139.3585200893699
 21
64.1799925409855
 31
0.0
  0
HATCH
  5
10EA
330
10E7
100
AcDbEntity
  8
AM_5
 62
    92
100
AcDbHatch
 10
0.0
 20
0.0
 30
0.0
210
0.0
220
0.0
230
1.0
  2
SOLID
 70
     1
 71
     0
 91
        1
 92
        0
 93
        1
 72
     2
 10
141.0565494237293
 20
62.34513658488024
 40
0.4464285714285782
 50
0.0
 51
360.0
 73
     1
 97
        0
 75
     0
 76
     1
 98
        1
 10
141.0565494237293
 20
62.34513658488024
  0
LINE
  5
10EB
330
10E7
100
AcDbEntity
  8
AM_5
  6
Continuous
 62
    92
100
AcDbLine
 10
140.7533298997365
 20
62.67278943418475
 30
0.0
 11
139.3585200893699
 21
64.1799925409855
 31
0.0
  0
MTEXT
  5
10EC
330
10E7
100
AcDbEntity
  8
AM_5
 62
   140
100
AcDbMText
 10
136.7919185380195
 20
74.93543876595417
 30
0.0
 40
3.5
 41
0.0
 71
     1
 72
     5
  1
LABEL
 73
     1
 44
1.0
1001
ACAD
1000
MTEXTBEGIN
1070
    73
1070
     1
1070
    44
1040
1.0
1070
    74
1070
     0
1000
MTEXTEND
  0
LINE
  5
10ED
330
10E7
100
AcDbEntity
  8
AM_5
  6
Continuous
 62
    92
100
AcDbLine
 10
136.7919185380195
 20
70.73543876595417
 30
0.0
 11
149.640138820088
 21
70.73543876595417
 31
0.0
  0
ENDBLK
  5
10EF
330
10E7
100
AcDbEntity
  8
0
100
AcDbBlockEnd
  0
BLOCK
  5
10F9
330
10F1
100
AcDbEntity
  8
0
100
AcDbBlockBegin
  2
*S31
 70
     1
 10
0.0
 20
0.0
 30
0.0
  3
*S31
  1

  0
LINE
  5
10F2
330
10F1
100
AcDbEntity
  8
AM_5
  6
Continuous
 62
    92
100
AcDbLine
 10
256.4661592271404
 20
76.04754514742772
 30
0.0
 11
227.9828438661412
 21
76.04754514742772
 31
0.0
  0
LINE
  5
10F3
330
10F1
100
AcDbEntity
  8
AM_5
  6
Continuous
 62
    92
100
AcDbLine
 10
227.9828438661412
 20
76.04754514742772
 30
0.0
 11
236.06655030815
 21
56.42665412509845
 31
0.0
  0
LINE
  5
10F4
330
10F1
100
AcDbEntity
  8
AM_5
  6
Continuous
 62
    92
100
AcDbLine
 10
236.06655030815
 20
56.42665412509844
 30
0.0
 11
237.0188797005704
 21
54.11514623449281
 31
0.0
  0
LINE
  5
10F5
330
10F1
100
AcDbEntity
  8
AM_5
  6
Continuous
 62
    92
100
AcDbLine
 10
235.4471836411835
 20
56.17147823578619
 30
0.0
 11
237.0188797005704
 21
54.11514623449281
 31
0.0
  0
LINE
  5
10F6
330
10F1
100
AcDbEntity
  8
AM_5
  6
Continuous
 62
    92
100
AcDbLine
 10
237.0188797005704
 20
54.11514623449281
 30
0.0
 11
236.6859169751163
 21
56.6818300144107
 31
0.0
  0
MTEXT
  5
10F7
102
{ACAD_XDICTIONARY
360
1144
102
}
330
10F1
100
AcDbEntity
  8
AM_5
 62
   140
100
AcDbMText
 10
229.603247877241
 20
80.43845423833682
 30
0.0
 40
3.5
 41
0.0
 71
     1
 72
     5
  1
\U+FF0BTERMINAL
 73
     1
 44
1.0
1001
ACAD
1000
MTEXTBEGIN
1070
    73
1070
     1
1070
    44
1040
1.0
1070
    74
1070
     0
1000
MTEXTEND
  0
LINE
  5
10F8
330
10F1
100
AcDbEntity
  8
AM_5
  6
Continuous
 62
    92
100
AcDbLine
 10
229.603247877241
 20
76.04754514742772
 30
0.0
 11
256.4661592271403
 21
76.04754514742772
 31
0.0
  0
ENDBLK
  5
10FA
330
10F1
100
AcDbEntity
  8
0
100
AcDbBlockEnd
  0
ENDSEC
  0
SECTION
  2
ENTITIES
  0
LWPOLYLINE
  5
C8
330
67
100
AcDbEntity
  8
AM_VIEWS
  6
Continuous
100
AcDbPolyline
 90
        4
 70
     1
 43
0.0
 10
0.0
 20
0.0
 10
275.0
 20
0.0
 10
275.0
 20
100.0
 10
0.0
 20
100.0
  0
DIMENSION
  5
184
330
67
100
AcDbEntity
  8
AM_5
100
AcDbDimension
  2
*D6
 10
78.96331145907787
 20
42.69175247583435
 30
0.0
 11
78.96331145907786
 21
40.69175247583435
 31
0.0
 70
   160
  1
%%c<>
 71
     5
 42
4.0
  3
AM_JIS$0
100
AcDbAlignedDimension
 13
87.46331246907784
 23
38.69175247583435
 33
0.0
 14
87.46331246907784
 24
42.69175247583432
 34
0.0
 50
90.0
100
AcDbRotatedDimension
1001
ACAD_DSTYLE_DIMINSPECT
1070
   396
1000
100%
1070
   395
1000

1070
   394
1070
    33
1070
   393
1070
     0
1001
ACAD
1000
DSTYLE
1002
{
1070
   144
1040
1.0
1070
    40
1040
1.0
1002
}
  0
DIMENSION
  5
195
330
67
100
AcDbEntity
  8
AM_5
100
AcDbDimension
  2
*D7
 10
70.96331145907784
 20
48.19175247583434
 30
0.0
 11
68.37100118372524
 21
40.69175247583435
 31
0.0
 70
    32
  1
%%c<>
 71
     5
 42
15.0
  3
AM_JIS$0
100
AcDbAlignedDimension
 13
96.46331246907784
 23
33.19175247583434
 33
0.0
 14
96.46331246907784
 24
48.19175247583434
 34
0.0
 50
90.0
100
AcDbRotatedDimension
1001
ACAD_DSTYLE_DIMINSPECT
1070
   396
1000
100%
1070
   395
1000

1070
   394
1070
    33
1070
   393
1070
     0
1001
ACAD
1000
DSTYLE
1002
{
1070
   144
1040
1.0
1070
    40
1040
1.0
1002
}
  0
DIMENSION
  5
1A4
330
67
100
AcDbEntity
  8
AM_5
100
AcDbDimension
  2
*D8
 10
95.96331246907784
 20
73.39175347583505
 30
0.0
 11
98.96331246907784
 21
76.01109531599624
 31
0.0
 70
    32
 71
     5
 42
5.999999999999985
  3
AM_JIS$0
100
AcDbAlignedDimension
 13
101.9633124690778
 23
60.19175247583433
 33
0.0
 14
95.96331246907784
 24
47.69175247583433
 34
0.0
100
AcDbRotatedDimension
1001
ACAD_DSTYLE_DIMINSPECT
1070
   396
1000
100%
1070
   395
1000

1070
   394
1070
    33
1070
   393
1070
     0
1001
ACAD
1000
DSTYLE
1002
{
1070
   144
1040
1.0
1070
    40
1040
1.0
1002
}
  0
DIMENSION
  5
1B5
330
67
100
AcDbEntity
  8
AM_5
100
AcDbDimension
  2
*D9
 10
106.9633124690778
 20
81.39175347583497
 30
0.0
 11
95.12083429580721
 21
81.39175347583497
 31
0.0
 70
   160
 71
     5
 42
5.0
  3
AM_JIS$0
100
AcDbAlignedDimension
 13
101.9633124690778
 23
60.19175247583433
 33
0.0
 14
106.9633124690778
 24
65.1917524758351
 34
0.0
100
AcDbRotatedDimension
1001
ACAD_DSTYLE_DIMINSPECT
1070
   396
1000
100%
1070
   395
1000

1070
   394
1070
    33
1070
   393
1070
     0
1001
ACAD
1000
DSTYLE
1002
{
1070
   144
1040
1.0
1070
    40
1040
1.0
1002
}
  0
DIMENSION
  5
1C6
330
67
100
AcDbEntity
  8
AM_5
100
AcDbDimension
  2
*D10
 10
86.96331246907787
 20
89.39175347583494
 30
0.0
 11
94.46331246907787
 21
91.98406375118755
 31
0.0
 70
    32
 71
     5
 42
14.99999999999998
  3
AM_JIS$0
100
AcDbAlignedDimension
 13
101.9633124690778
 23
60.19175247583433
 33
0.0
 14
86.96331246907787
 24
42.19175247583431
 34
0.0
100
AcDbRotatedDimension
1001
ACAD_DSTYLE_DIMINSPECT
1070
   396
1000
100%
1070
   395
1000

1070
   394
1070
    33
1070
   393
1070
     0
1001
ACAD
1000
DSTYLE
1002
{
1070
   144
1040
1.0
1070
    40
1040
1.0
1002
}
  0
DIMENSION
  5
1D5
330
67
100
AcDbEntity
  8
AM_5
100
AcDbDimension
  2
*D11
 10
176.9633124690777
 20
81.39175347583501
 30
0.0
 11
141.9633124690778
 21
84.01344588684912
 31
0.0
 70
    32
 71
     5
 42
69.99999999999996
  3
AM_JIS$0
100
AcDbAlignedDimension
 13
106.9633124690778
 23
65.39175247583512
 33
0.0
 14
176.9633124690777
 24
65.39175247583512
 34
0.0
100
AcDbRotatedDimension
1001
ACAD_DSTYLE_DIMINSPECT
1070
   396
1000
100%
1070
   395
1000

1070
   394
1070
    33
1070
   393
1070
     0
1001
ACAD
1000
DSTYLE
1002
{
1070
   144
1040
1.0
1070
    40
1040
1.0
1002
}
  0
DIMENSION
  5
1E4
330
67
100
AcDbEntity
  8
AM_5
100
AcDbDimension
  2
*D12
 10
193.4633124690785
 20
89.39175347583489
 30
0.0
 11
147.7133124690781
 21
92.013445886849
 31
0.0
 70
    32
 71
     5
 42
91.50000000000067
  3
AM_JIS$0
100
AcDbAlignedDimension
 13
101.9633124690778
 23
60.19175247583433
 33
0.0
 14
193.4633124690785
 24
63.0738882094955
 34
0.0
100
AcDbRotatedDimension
1001
ACAD_DSTYLE_DIMINSPECT
1070
   396
1000
100%
1070
   395
1000

1070
   394
1070
    33
1070
   393
1070
     0
1001
ACAD
1000
DSTYLE
1002
{
1070
   144
1040
1.0
1070
    40
1040
1.0
1002
}
  0
LWPOLYLINE
  5
30D
330
67
100
AcDbEntity
  8
AM_VIEWS
100
AcDbPolyline
 90
        2
 70
     0
 43
0.0
 10
275.0
 20
-0.0000000000000009
 10
275.0
 20
100.0
1001
GENIUS_GENSCREG_15
1040
1.0
1040
1.0
1011
0.0
1021
0.0
1031
0.0
1011
275.0
1021
100.0
1031
0.0
1070
     2
1001
GENIUS_GENODEF_13
1002
{
1000
HIER
1070
     0
1002
}
1002
{
1000
MANEDIT
1070
     0
1002
}
1002
{
1000
NOSEL
1070
     0
1002
}
1002
{
1000
BEHIND
1070
     0
1002
}
1002
{
1000
OTHER
1070
     0
1002
}
1002
{
1000
REACTOR
1002
}
1001
GENIUS_GENOBJ-N-SDF_13
1002
{
1000
OWNER
1000
GEN
1002
}
  0
LWPOLYLINE
  5
30E
330
67
100
AcDbEntity
  8
AM_VIEWS
100
AcDbPolyline
 90
        2
 70
     0
 43
0.0
 10
275.0
 20
100.0
 10
-0.0000000000000044
 20
100.0
1001
GENIUS_GENSCREG_15
1040
1.0
1040
1.0
1011
0.0
1021
0.0
1031
0.0
1011
275.0
1021
100.0
1031
0.0
1070
     2
1001
GENIUS_GENODEF_13
1002
{
1000
HIER
1070
     0
1002
}
1002
{
1000
MANEDIT
1070
     0
1002
}
1002
{
1000
NOSEL
1070
     0
1002
}
1002
{
1000
BEHIND
1070
     0
1002
}
1002
{
1000
OTHER
1070
     0
1002
}
1002
{
1000
REACTOR
1002
}
1001
GENIUS_GENOBJ-N-SDF_13
1002
{
1000
OWNER
1000
GEN
1002
}
  0
LWPOLYLINE
  5
30F
330
67
100
AcDbEntity
  8
AM_VIEWS
100
AcDbPolyline
 90
        3
 70
     0
 43
0.0
 10
-0.0000000000000044
 20
100.0
 10
0.0
 20
0.0000000000000071
 10
275.0
 20
-0.0000000000000009
1001
GENIUS_GENSCREG_15
1040
1.0
1040
1.0
1011
0.0
1021
0.0
1031
0.0
1011
275.0
1021
100.0
1031
0.0
1070
     2
1001
GENIUS_GENODEF_13
1002
{
1000
HIER
1070
     0
1002
}
1002
{
1000
MANEDIT
1070
     0
1002
}
1002
{
1000
NOSEL
1070
     0
1002
}
1002
{
1000
BEHIND
1070
     0
1002
}
1002
{
1000
OTHER
1070
     0
1002
}
1002
{
1000
REACTOR
1002
}
1001
GENIUS_GENOBJ-N-SDF_13
1002
{
1000
OWNER
1000
GEN
1002
}
  0
LWPOLYLINE
  5
310
330
67
100
AcDbEntity
  8
AM_VIEWS
100
AcDbPolyline
 90
        2
 70
     0
 43
0.0
 10
0.0
 20
0.0000000000000071
 10
62.5
 20
0.0000000000000071
1001
GENIUS_GENSCREG_15
1040
1.0
1040
1.0
1011
0.0
1021
-45.0
1031
0.0
1011
62.5
1021
0.0
1031
0.0
1070
     2
1001
GENIUS_GENOBJ-N-SDF_13
1002
{
1000
OWNER
1000
GEN
1002
}
1001
GENIUS_GENODEF_13
1002
{
1000
HIER
1070
     0
1002
}
1002
{
1000
MANEDIT
1070
     0
1002
}
1002
{
1000
NOSEL
1070
     0
1002
}
1002
{
1000
BEHIND
1070
     0
1002
}
1002
{
1000
OTHER
1070
     0
1002
}
1002
{
1000
REACTOR
1002
}
  0
LWPOLYLINE
  5
311
330
67
100
AcDbEntity
  8
AM_VIEWS
100
AcDbPolyline
 90
        2
 70
     0
 43
0.0
 10
71.94896701329764
 20
0.0000000000000002
 10
159.9837596968501
 20
0.0000000000000002
1001
GENIUS_GENSCREG_15
1040
1.0
1040
1.0
1011
71.94896701329764
1021
-48.8577448430018
1031
0.0
1011
159.9837596968501
1021
-0.0000000000000069
1031
0.0
1070
     2
1001
GENIUS_GENODEF_13
1002
{
1000
HIER
1070
     0
1002
}
1002
{
1000
MANEDIT
1070
     0
1002
}
1002
{
1000
NOSEL
1070
     0
1002
}
1002
{
1000
BEHIND
1070
     0
1002
}
1002
{
1000
OTHER
1070
     0
1002
}
1002
{
1000
REACTOR
1002
}
1001
GENIUS_GENOBJ-N-SDF_13
1002
{
1000
OWNER
1000
GEN
1002
}
  0
CIRCLE
  5
793
330
67
100
AcDbEntity
  8
AM_0
100
AcDbCircle
 10
34.42203698688878
 20
40.69175247583421
 30
0.0
 40
4.5
  0
LINE
  5
794
330
67
100
AcDbEntity
  8
AM_0
100
AcDbLine
 10
56.66784268769517
 20
37.31919725434861
 30
0.0
 11
58.84298813399714
 21
36.98943629935886
 31
0.0
  0
LINE
  5
796
330
67
100
AcDbEntity
  8
AM_0
100
AcDbLine
 10
57.422359153101
 20
31.68757676394971
 30
0.0
 11
55.37374746218258
 21
32.48956812290331
 31
0.0
  0
CIRCLE
  5
797
330
67
100
AcDbEntity
  8
AM_0
100
AcDbCircle
 10
34.42203698688878
 20
55.6917524758342
 30
0.0
 40
1.2295
  0
CIRCLE
  5
798
330
67
100
AcDbEntity
  8
AM_0
100
AcDbCircle
 10
47.41241804365535
 20
33.19175247583411
 30
0.0
 40
1.2295
  0
CIRCLE
  5
799
330
67
100
AcDbEntity
  8
AM_0
100
AcDbCircle
 10
21.43165593012218
 20
33.19175247583411
 30
0.0
 40
1.2295
  0
CIRCLE
  5
79A
330
67
100
AcDbEntity
  8
AM_5
100
AcDbCircle
 10
34.42203698688878
 20
55.6917524758342
 30
0.0
 40
1.5
  0
CIRCLE
  5
79B
330
67
100
AcDbEntity
  8
AM_5
100
AcDbCircle
 10
47.41241804365535
 20
33.19175247583411
 30
0.0
 40
1.5
  0
CIRCLE
  5
79C
330
67
100
AcDbEntity
  8
AM_5
100
AcDbCircle
 10
21.43165593012218
 20
33.19175247583411
 30
0.0
 40
1.5
  0
CIRCLE
  5
79D
330
67
100
AcDbEntity
  8
AM_0
100
AcDbCircle
 10
34.42203698688878
 20
40.69175247583421
 30
0.0
 40
2.0
  0
CIRCLE
  5
79E
330
67
100
AcDbEntity
  8
AM_0
100
AcDbCircle
 10
34.42203698688878
 20
40.69175247583421
 30
0.0
 40
7.0
  0
CIRCLE
  5
79F
330
67
100
AcDbEntity
  8
AM_0
100
AcDbCircle
 10
34.42203698688878
 20
40.69175247583421
 30
0.0
 40
7.5
  0
CIRCLE
  5
7A0
330
67
100
AcDbEntity
  8
AM_0
100
AcDbCircle
 10
34.42203698688878
 20
40.69175247583421
 30
0.0
 40
22.5
  0
ELLIPSE
  5
7A1
330
67
100
AcDbEntity
  8
AM_0
100
AcDbEllipse
 10
191.9633124690756
 20
27.70137141906847
 30
0.0
 11
0.7500000000000119
 21
-0.0000000000001673
 31
0.0
210
0.0
220
0.0
230
1.0
 40
0.4999999999999995
 41
0.7658233696415789
 42
2.375769283949602
  0
LINE
  5
7A2
330
67
100
AcDbEntity
  8
AM_0
100
AcDbLine
 10
190.9633124690752
 20
28.45137141906846
 30
0.0
 11
193.1633124690751
 21
28.45137141906846
 31
0.0
  0
LINE
  5
7A3
330
67
100
AcDbEntity
  8
AM_0
100
AcDbLine
 10
193.1633124690751
 20
28.45137141906846
 30
0.0
 11
193.1633124690754
 21
27.96129544209871
 31
0.0
  0
LINE
  5
7A4
330
67
100
AcDbEntity
  8
AM_0
100
AcDbLine
 10
190.9633124690779
 20
31.49254303770906
 30
0.0
 11
190.9633124690777
 21
29.9564186704209
 31
0.0
  0
LINE
  5
7A5
330
67
100
AcDbEntity
  8
AM_0
100
AcDbLine
 10
184.9633124690825
 20
28.94989404713087
 30
0.0
 11
190.9633124690825
 21
28.94989404713087
 31
0.0
  0
LINE
  5
7A6
330
67
100
AcDbEntity
  8
AM_0
100
AcDbLine
 10
184.9633124690826
 20
31.49254303770906
 30
0.0
 11
184.9633124690823
 21
29.19989404713087
 31
0.0
  0
LINE
  5
7A7
330
67
100
AcDbEntity
  8
AM_0
100
AcDbLine
 10
184.9633124690823
 20
29.19989404713087
 30
0.0
 11
184.9633124690825
 21
28.94989404713087
 31
0.0
  0
LINE
  5
7A8
330
67
100
AcDbEntity
  8
AM_0
100
AcDbLine
 10
190.9633124690829
 20
27.96129544209856
 30
0.0
 11
193.463312469083
 21
27.96129544209856
 31
0.0
  0
LINE
  5
7A9
330
67
100
AcDbEntity
  8
AM_0
100
AcDbLine
 10
193.463312469083
 20
27.96129544209856
 30
0.0
 11
193.4633124690833
 21
27.50882618030059
 31
0.0
  0
LINE
  5
7AA
330
67
100
AcDbEntity
  8
AM_0
100
AcDbLine
 10
193.4633124690833
 20
27.50882618030059
 30
0.0
 11
184.1633124690833
 21
27.50882618030059
 31
0.0
  0
LINE
  5
7AB
330
67
100
AcDbEntity
  8
AM_0
100
AcDbLine
 10
184.1633124690838
 20
31.49254303770906
 30
0.0
 11
193.4633124690839
 21
31.49254303770906
 31
0.0
  0
LINE
  5
7AC
330
67
100
AcDbEntity
  8
AM_0
100
AcDbLine
 10
184.1633124690833
 20
27.50882618030059
 30
0.0
 11
184.1633124690831
 21
27.6093575407215
 31
0.0
  0
LINE
  5
7AD
330
67
100
AcDbEntity
  8
AM_0
100
AcDbLine
 10
183.9633124690838
 20
31.59307439812991
 30
0.0
 11
184.1633124690838
 21
31.59307439812991
 31
0.0
  0
LINE
  5
7AE
330
67
100
AcDbEntity
  8
AM_0
100
AcDbLine
 10
184.1633124690831
 20
27.6093575407215
 30
0.0
 11
183.9633124690831
 21
27.6093575407215
 31
0.0
  0
LINE
  5
7AF
330
67
100
AcDbEntity
  8
AM_0
100
AcDbLine
 10
184.9633124690823
 20
29.19989404713087
 30
0.0
 11
183.9633124690824
 21
29.19989404713087
 31
0.0
  0
LINE
  5
7B0
330
67
100
AcDbEntity
  8
AM_0
100
AcDbLine
 10
190.9633124690825
 20
28.94989404713087
 30
0.0
 11
190.9633124690829
 21
27.96129544209856
 31
0.0
  0
LINE
  5
7B1
330
67
100
AcDbEntity
  8
AM_0
100
AcDbLine
 10
190.9633124690777
 20
28.94989404713087
 30
0.0
 11
190.9633124690777
 21
29.9564186704209
 31
0.0
  0
LINE
  5
7B2
330
67
100
AcDbEntity
  8
AM_0
100
AcDbLine
 10
193.4633124690753
 20
60.5221857323553
 30
0.0
 11
193.4633124690743
 21
58.80666920687218
 31
0.0
  0
LINE
  5
7B3
330
67
100
AcDbEntity
  8
AM_0
100
AcDbLine
 10
190.9633124690805
 20
61.30666920687218
 30
0.0
 11
190.9633124690818
 21
58.80666920687218
 31
0.0
  0
LINE
  5
7B4
330
67
100
AcDbEntity
  8
AM_0
100
AcDbLine
 10
190.9633124690805
 20
61.30666920687218
 30
0.0
 11
193.4633124690805
 21
61.30666920687218
 31
0.0
  0
LINE
  5
7B5
330
67
100
AcDbEntity
  8
AM_0
100
AcDbLine
 10
193.4633124690803
 20
60.5221857323553
 30
0.0
 11
190.9633124690803
 21
60.5221857323553
 31
0.0
  0
LINE
  5
7B6
330
67
100
AcDbEntity
  8
AM_0
100
AcDbLine
 10
193.4633124690805
 20
61.30666920687218
 30
0.0
 11
193.4633124690803
 21
60.5221857323553
 31
0.0
  0
LINE
  5
7B7
330
67
100
AcDbEntity
  8
AM_0
100
AcDbLine
 10
193.4633124690817
 20
58.80666920687218
 30
0.0
 11
190.9633124690818
 21
58.80666920687218
 31
0.0
  0
LINE
  5
7B8
330
67
100
AcDbEntity
  8
AM_0
100
AcDbLine
 10
193.4633124690817
 20
58.80666920687218
 30
0.0
 11
193.4633124690839
 21
31.49254303770906
 31
0.0
  0
LINE
  5
7B9
330
67
100
AcDbEntity
  8
AM_0
100
AcDbLine
 10
193.4633124690785
 20
63.0738882094955
 30
0.0
 11
193.4633124690805
 21
61.30666920687218
 31
0.0
  0
LINE
  5
7BA
330
67
100
AcDbEntity
  8
AM_0
100
AcDbLine
 10
193.4633124690833
 20
27.50882618030059
 30
0.0
 11
193.4633124690778
 21
18.1917524758351
 31
0.0
  0
LINE
  5
7BB
330
67
100
AcDbEntity
  8
AM_0
100
AcDbLine
 10
184.1633124690778
 20
18.1917524758351
 30
0.0
 11
193.4633124690778
 21
18.1917524758351
 31
0.0
  0
LINE
  5
7BC
330
67
100
AcDbEntity
  8
AM_0
100
AcDbLine
 10
104.9633124690778
 20
63.1917524758351
 30
0.0
 11
106.9633124690778
 21
63.1917524758351
 31
0.0
  0
LINE
  5
7BD
330
67
100
AcDbEntity
  8
AM_0
100
AcDbLine
 10
176.9633124690778
 20
63.1917524758351
 30
0.0
 11
183.9633124690778
 21
63.1917524758351
 31
0.0
  0
LINE
  5
7BE
330
67
100
AcDbEntity
  8
AM_0
100
AcDbLine
 10
104.9633124690778
 20
18.1917524758351
 30
0.0
 11
106.9633124690778
 21
18.1917524758351
 31
0.0
  0
LINE
  5
7BF
330
67
100
AcDbEntity
  8
AM_0
100
AcDbLine
 10
176.9633124690778
 20
18.1917524758351
 30
0.0
 11
183.9633124690778
 21
18.1917524758351
 31
0.0
  0
LINE
  5
7C0
330
67
100
AcDbEntity
  8
AM_0
100
AcDbLine
 10
184.1633124690785
 20
62.87282548865388
 30
0.0
 11
183.9633124690785
 21
62.87282548865388
 31
0.0
  0
LINE
  5
7C1
330
67
100
AcDbEntity
  8
AM_0
100
AcDbLine
 10
193.4633124690785
 20
63.0738882094955
 30
0.0
 11
184.1633124690785
 21
63.0738882094955
 31
0.0
  0
LINE
  5
7C2
330
67
100
AcDbEntity
  8
AM_0
100
AcDbLine
 10
184.1633124690778
 20
18.1917524758351
 30
0.0
 11
184.1633124690831
 21
27.5088261803007
 31
0.0
  0
LINE
  5
7C3
330
67
100
AcDbEntity
  8
AM_0
100
AcDbLine
 10
184.1633124690838
 20
31.49254303770906
 30
0.0
 11
184.1633124690785
 21
63.0738882094955
 31
0.0
  0
LINE
  5
7C4
330
67
100
AcDbEntity
  8
AM_0
100
AcDbLine
 10
183.9633124690778
 20
63.1917524758351
 30
0.0
 11
183.9633124690778
 21
18.1917524758351
 31
0.0
  0
LINE
  5
7C5
330
67
100
AcDbEntity
  8
AM_0
100
AcDbLine
 10
184.1633124690778
 20
18.39175247583509
 30
0.0
 11
183.9633124690778
 21
18.39175247583509
 31
0.0
  0
LINE
  5
7C6
330
67
100
AcDbEntity
  8
AM_0
100
AcDbLine
 10
106.963312469085
 20
37.01941456799529
 30
0.0
 11
176.963312469085
 21
37.01941456799529
 31
0.0
  0
LINE
  5
7C7
330
67
100
AcDbEntity
  8
AM_0
100
AcDbLine
 10
176.9633124690777
 20
65.39175247583512
 30
0.0
 11
176.963312469085
 21
37.01941456799529
 31
0.0
  0
LINE
  5
7C8
330
67
100
AcDbEntity
  8
AM_0
100
AcDbLine
 10
176.9633124690846
 20
31.76048506931028
 30
0.0
 11
176.9633124690777
 21
15.99175247583499
 31
0.0
  0
LINE
  5
7C9
330
67
100
AcDbEntity
  8
AM_0
100
AcDbLine
 10
106.9633124690846
 20
31.76048506931028
 30
0.0
 11
176.9633124690846
 21
31.76048506931028
 31
0.0
  0
LINE
  5
7CA
330
67
100
AcDbEntity
  8
AM_0
100
AcDbLine
 10
106.9633124690777
 20
65.39175247583512
 30
0.0
 11
106.963312469085
 21
37.01941456799529
 31
0.0
  0
LINE
  5
7CB
330
67
100
AcDbEntity
  8
AM_0
100
AcDbLine
 10
106.9633124690846
 20
31.76048506931028
 30
0.0
 11
106.9633124690777
 21
15.99175247583499
 31
0.0
  0
LINE
  5
7CC
330
67
100
AcDbEntity
  8
AM_0
100
AcDbLine
 10
176.9633124690846
 20
31.76048506931028
 30
0.0
 11
176.963312469084
 21
32.48956812290419
 31
0.0
  0
LINE
  5
7CD
330
67
100
AcDbEntity
  8
AM_0
100
AcDbLine
 10
106.963312469084
 20
32.48956812290419
 30
0.0
 11
176.963312469084
 21
32.48956812290419
 31
0.0
  0
LINE
  5
7CE
330
67
100
AcDbEntity
  8
AM_0
100
AcDbLine
 10
106.9633124690846
 20
31.76048506931028
 30
0.0
 11
106.963312469084
 21
32.48956812290419
 31
0.0
  0
LINE
  5
7CF
330
67
100
AcDbEntity
  8
AM_0
100
AcDbLine
 10
106.9633124690778
 20
65.39175247583512
 30
0.0
 11
176.9633124690778
 21
65.39175247583512
 31
0.0
  0
LINE
  5
7D0
330
67
100
AcDbEntity
  8
AM_0
100
AcDbLine
 10
106.9633124690778
 20
15.99175247583499
 30
0.0
 11
176.9633124690778
 21
15.99175247583499
 31
0.0
  0
LINE
  5
7D1
330
67
100
AcDbEntity
  8
AM_0
100
AcDbLine
 10
86.96331246907783
 20
39.1917524758351
 30
0.0
 11
86.96331246907783
 21
42.1917524758351
 31
0.0
  0
ARC
  5
7D2
330
67
100
AcDbEntity
  8
AM_0
100
AcDbCircle
 10
87.46331246907784
 20
39.1917524758351
 30
0.0
 40
0.5
100
AcDbArc
 50
180.0
 51
270.0
  0
ARC
  5
7D3
330
67
100
AcDbEntity
  8
AM_0
100
AcDbCircle
 10
87.46331246907784
 20
42.1917524758351
 30
0.0
 40
0.5000000000000002
100
AcDbArc
 50
90.0
 51
180.0
  0
LINE
  5
7D4
330
67
100
AcDbEntity
  8
AM_0
100
AcDbLine
 10
95.96331246907784
 20
33.6917524758351
 30
0.0
 11
95.96331246907784
 21
47.6917524758351
 31
0.0
  0
LINE
  5
7D5
330
67
100
AcDbEntity
  8
AM_0
100
AcDbLine
 10
96.46331246907784
 20
48.1917524758351
 30
0.0
 11
96.46331246907784
 21
33.19175247583499
 31
0.0
  0
LINE
  5
7D6
330
67
100
AcDbEntity
  8
AM_0
100
AcDbLine
 10
95.96331246907784
 20
47.6917524758351
 30
0.0
 11
96.46331246907784
 21
48.1917524758351
 31
0.0
  0
LINE
  5
7D7
330
67
100
AcDbEntity
  8
AM_0
100
AcDbLine
 10
95.96331246907784
 20
33.6917524758351
 30
0.0
 11
96.46331246907784
 21
33.19175247583499
 31
0.0
  0
LINE
  5
7D8
330
67
100
AcDbEntity
  8
AM_0
100
AcDbLine
 10
101.9633124690778
 20
21.1917524758351
 30
0.0
 11
101.9633124690778
 21
60.1917524758351
 31
0.0
  0
ARC
  5
7D9
330
67
100
AcDbEntity
  8
AM_0
100
AcDbCircle
 10
104.9633124690778
 20
60.1917524758351
 30
0.0
 40
3.0
100
AcDbArc
 50
90.0
 51
180.0
  0
ARC
  5
7DA
330
67
100
AcDbEntity
  8
AM_0
100
AcDbCircle
 10
104.9633124690778
 20
21.1917524758351
 30
0.0
 40
3.0
100
AcDbArc
 50
180.0
 51
270.0
  0
LINE
  5
7DB
330
67
100
AcDbEntity
  8
AM_0
100
AcDbLine
 10
95.96331246907984
 20
38.6917524758351
 30
0.0
 11
87.46331246907784
 21
38.6917524758351
 31
0.0
  0
LINE
  5
7DC
330
67
100
AcDbEntity
  8
AM_0
100
AcDbLine
 10
95.96331246907984
 20
42.6917524758351
 30
0.0
 11
87.46331246907784
 21
42.6917524758351
 31
0.0
  0
LINE
  5
7DD
330
67
100
AcDbEntity
  8
AM_0
100
AcDbLine
 10
101.9633124690778
 20
33.19175247583499
 30
0.0
 11
96.46331246907784
 21
33.19175247583499
 31
0.0
  0
LINE
  5
7DE
330
67
100
AcDbEntity
  8
AM_0
100
AcDbLine
 10
101.9633124690778
 20
48.1917524758351
 30
0.0
 11
96.46331246907784
 21
48.1917524758351
 31
0.0
  0
LINE
  5
7DF
330
67
100
AcDbEntity
  8
AM_0
100
AcDbLine
 10
231.4276907411046
 20
55.49936958700349
 30
0.0
 11
232.3498742748636
 21
53.90210085262959
 31
0.0
  0
ARC
  5
7E0
330
67
100
AcDbEntity
  8
AM_0
100
AcDbCircle
 10
232.5547780854313
 20
53.8471970420619
 30
0.0
 40
2.0
100
AcDbArc
 50
124.3012223046692
 51
205.69877769533
  0
LINE
  5
7E1
330
67
100
AcDbEntity
  8
AM_0
100
AcDbLine
 10
232.3498742748636
 20
53.90210085262959
 30
0.0
 11
230.7526055404896
 21
52.9799173188706
 31
0.0
  0
LINE
  5
7E2
330
67
100
AcDbEntity
  8
AM_0
100
AcDbLine
 10
232.4998742748634
 20
53.6422932314942
 30
0.0
 11
233.4220578086225
 21
52.04502449712035
 31
0.0
  0
LINE
  5
7E3
330
67
100
AcDbEntity
  8
AM_0
100
AcDbLine
 10
230.9026055404896
 20
52.72010969773528
 30
0.0
 11
232.4998742748634
 21
53.6422932314942
 31
0.0
  0
ARC
  5
7E4
330
67
100
AcDbEntity
  8
AM_0
100
AcDbCircle
 10
232.5547780854313
 20
53.8471970420619
 30
0.0
 40
2.0
100
AcDbArc
 50
214.301222304671
 51
295.69877769533
  0
LINE
  5
7E5
330
67
100
AcDbEntity
  8
AM_0
100
AcDbLine
 10
233.6818654297578
 20
52.19502449712035
 30
0.0
 11
232.7596818959989
 21
53.79229323149431
 31
0.0
  0
ARC
  5
7E6
330
67
100
AcDbEntity
  8
AM_0
100
AcDbCircle
 10
232.5547780854313
 20
53.8471970420619
 30
0.0
 40
1.999999999999999
100
AcDbArc
 50
304.3012223046691
 51
25.69877769532999
  0
LINE
  5
7E7
330
67
100
AcDbEntity
  8
AM_0
100
AcDbLine
 10
232.7596818959989
 20
53.79229323149431
 30
0.0
 11
234.3569506303728
 21
54.71447676525321
 31
0.0
  0
LINE
  5
7E8
330
67
100
AcDbEntity
  8
AM_0
100
AcDbLine
 10
232.6096818959989
 20
54.05210085262959
 30
0.0
 11
231.6874983622399
 21
55.64936958700349
 31
0.0
  0
LINE
  5
7E9
330
67
100
AcDbEntity
  8
AM_0
100
AcDbLine
 10
234.2069506303728
 20
54.97428438638852
 30
0.0
 11
232.6096818959989
 21
54.05210085262959
 31
0.0
  0
ARC
  5
7EA
330
67
100
AcDbEntity
  8
AM_0
100
AcDbCircle
 10
232.5547780854313
 20
53.8471970420619
 30
0.0
 40
1.999999999999999
100
AcDbArc
 50
34.30122230467095
 51
115.6987776953299
  0
LINE
  5
7EB
330
67
100
AcDbEntity
  8
AM_0
100
AcDbLine
 10
251.2198415948936
 20
26.51835871717543
 30
0.0
 11
253.8179178062469
 21
28.01835871717543
 31
0.0
  0
LINE
  5
7EC
330
67
100
AcDbEntity
  8
AM_0
100
AcDbLine
 10
253.8179178062469
 20
28.01835871717543
 30
0.0
 11
253.5679178062469
 21
28.45137141906759
 31
0.0
  0
LINE
  5
7ED
330
67
100
AcDbEntity
  8
AM_0
100
AcDbLine
 10
253.5679178062469
 20
28.45137141906759
 30
0.0
 11
250.9698415948936
 21
26.95137141906759
 31
0.0
  0
LINE
  5
7EE
330
67
100
AcDbEntity
  8
AM_0
100
AcDbLine
 10
250.9698415948936
 20
26.95137141906759
 30
0.0
 11
251.2198415948936
 21
26.51835871717543
 31
0.0
  0
LINE
  5
7EF
330
67
100
AcDbEntity
  8
AM_0
100
AcDbLine
 10
235.7198415948937
 20
53.36514623449301
 30
0.0
 11
238.317917806247
 21
54.86514623449301
 31
0.0
  0
LINE
  5
7F0
330
67
100
AcDbEntity
  8
AM_0
100
AcDbLine
 10
238.317917806247
 20
54.86514623449301
 30
0.0
 11
238.5679178062469
 21
54.43213353260083
 31
0.0
  0
LINE
  5
7F1
330
67
100
AcDbEntity
  8
AM_0
100
AcDbLine
 10
238.5679178062469
 20
54.43213353260083
 30
0.0
 11
235.9698415948936
 21
52.93213353260083
 31
0.0
  0
LINE
  5
7F2
330
67
100
AcDbEntity
  8
AM_0
100
AcDbLine
 10
235.9698415948936
 20
52.93213353260083
 30
0.0
 11
235.7198415948937
 21
53.36514623449301
 31
0.0
  0
ARC
  5
7F3
330
67
100
AcDbEntity
  8
AM_0
100
AcDbCircle
 10
239.682368542751
 20
47.50184823444093
 30
0.0
 40
1.5
100
AcDbArc
 50
210.0
 51
306.7563270305878
  0
ARC
  5
7F4
330
67
100
AcDbEntity
  8
AM_0
100
AcDbCircle
 10
239.4028542967845
 20
47.98598110989419
 30
0.0
 40
1.5
100
AcDbArc
 50
120.0000000000016
 51
210.0
  0
ARC
  5
7F5
330
67
100
AcDbEntity
  8
AM_0
100
AcDbCircle
 10
254.2666473797384
 20
56.5675960475164
 30
0.0
 40
1.500000000000006
100
AcDbArc
 50
59.10990893987736
 51
120.0000000000016
  0
ARC
  5
7F6
330
67
100
AcDbEntity
  8
AM_0
100
AcDbCircle
 10
255.5683579412468
 20
33.07042768464601
 30
0.0
 40
1.499999999999995
100
AcDbArc
 50
39.59406822686077
 51
120.0000000000016
  0
ARC
  5
7F7
330
67
100
AcDbEntity
  8
AM_0
100
AcDbCircle
 10
248.1233400508182
 20
32.88165671722749
 30
0.0
 40
1.499999999999999
100
AcDbArc
 50
113.2436729694114
 51
209.9999999999981
  0
ARC
  5
7F8
330
67
100
AcDbEntity
  8
AM_0
100
AcDbCircle
 10
248.4028542967845
 20
32.3975238417742
 30
0.0
 40
1.5
100
AcDbArc
 50
210.0
 51
300.0000000000016
  0
ARC
  5
7F9
330
67
100
AcDbEntity
  8
AM_0
100
AcDbCircle
 10
257.8800956327366
 20
34.9824603323132
 30
0.0
 40
1.5
100
AcDbArc
 50
219.5940682268607
 51
299.999999999999
  0
ARC
  5
7FA
330
67
100
AcDbEntity
  8
AM_0
100
AcDbCircle
 10
236.4011017884443
 20
42.18516896608682
 30
0.0
 40
1.500000000000004
100
AcDbArc
 50
349.880833101594
 51
30.0
  0
ARC
  5
7FB
330
67
100
AcDbEntity
  8
AM_0
100
AcDbCircle
 10
241.8783273634959
 20
32.6983359855816
 30
0.0
 40
1.499999999999984
100
AcDbArc
 50
30.00000000000186
 51
70.11916689840892
  0
ARC
  5
7FC
330
67
100
AcDbEntity
  8
AM_0
100
AcDbCircle
 10
224.7080069776865
 20
39.43820327603943
 30
0.0
 40
1.500000000000003
100
AcDbArc
 50
183.5756079211819
 51
210.0
  0
ARC
  5
7FD
330
67
100
AcDbEntity
  8
AM_0
100
AcDbCircle
 10
233.6528378872117
 20
23.94530167562903
 30
0.0
 40
1.50000000000001
100
AcDbArc
 50
209.9999999999981
 51
236.4243920788203
  0
ARC
  5
7FE
330
67
100
AcDbEntity
  8
AM_0
100
AcDbCircle
 10
234.3850423865478
 20
45.67708628124843
 30
0.0
 40
1.5
100
AcDbArc
 50
30.0
 51
96.88450374093051
  0
ARC
  5
7FF
330
67
100
AcDbEntity
  8
AM_0
100
AcDbCircle
 10
225.0424744906575
 20
44.54907505689692
 30
0.0
 40
1.499999999999995
100
AcDbArc
 50
96.88450374093292
 51
168.9359280821366
  0
ARC
  5
800
330
67
100
AcDbEntity
  8
AM_0
100
AcDbCircle
 10
263.2666473797371
 20
40.97913877939659
 30
0.0
 40
1.500000000000011
100
AcDbArc
 50
300.0000000000016
 51
0.8900910601234278
  0
ARC
  5
801
330
67
100
AcDbEntity
  8
AM_0
100
AcDbCircle
 10
238.2462164414049
 20
21.67952314817382
 30
0.0
 40
1.5
100
AcDbArc
 50
251.0640719178644
 51
323.1154962590693
  0
ARC
  5
802
330
67
100
AcDbEntity
  8
AM_0
100
AcDbCircle
 10
243.8943867653925
 20
29.20641867041991
 30
0.0
 40
1.499999999999995
100
AcDbArc
 50
323.1154962590673
 51
30.0
  0
LINE
  5
803
330
67
100
AcDbEntity
  8
AM_0
100
AcDbLine
 10
238.3833304370743
 20
46.75184823444093
 30
0.0
 11
238.1038161911079
 21
47.2359811098942
 31
0.0
  0
LINE
  5
804
330
67
100
AcDbEntity
  8
AM_0
100
AcDbLine
 10
238.6528542967846
 20
49.28501921557079
 30
0.0
 11
253.5166473797384
 21
57.8666341531931
 31
0.0
  0
ARC
  5
805
330
67
100
AcDbEntity
  8
AM_0
100
AcDbCircle
 10
244.7688797005689
 20
40.69175247583411
 30
0.0
 40
20.00000000000015
100
AcDbArc
 50
48.96557498884959
 51
59.10990893987776
  0
LINE
  5
806
330
67
100
AcDbEntity
  8
AM_0
100
AcDbLine
 10
254.8183579412467
 20
34.36946579032269
 30
0.0
 11
249.1528542967846
 21
31.09848573609762
 31
0.0
  0
LINE
  5
807
330
67
100
AcDbEntity
  8
AM_0
100
AcDbLine
 10
247.1038161911079
 20
31.64752384177419
 30
0.0
 11
246.8243019451414
 21
32.13165671722743
 31
0.0
  0
ARC
  5
808
330
67
100
AcDbEntity
  8
AM_0
100
AcDbCircle
 10
244.768879700569
 20
40.69175247583421
 30
0.0
 40
7.0
100
AcDbArc
 50
293.2436729694119
 51
126.7563270305877
  0
ARC
  5
809
330
67
100
AcDbEntity
  8
AM_0
100
AcDbCircle
 10
244.7688797005676
 20
40.69175247583433
 30
0.0
 40
19.99999999999998
100
AcDbArc
 50
32.86598398259884
 51
48.96557498884934
  0
LINE
  5
80A
330
67
100
AcDbEntity
  8
AM_0
100
AcDbLine
 10
264.016647379737
 20
39.68010067371992
 30
0.0
 11
254.8183579412454
 21
34.36946579032269
 31
0.0
  0
ARC
  5
80B
330
67
100
AcDbEntity
  8
AM_0
100
AcDbCircle
 10
244.7688797005676
 20
40.69175247583433
 30
0.0
 40
19.99999999999989
100
AcDbArc
 50
0.8900910601217992
 51
27.1340160174016
  0
ARC
  5
80C
330
67
100
AcDbEntity
  8
AM_0
100
AcDbCircle
 10
244.7688797005675
 20
40.69175247583421
 30
0.0
 40
22.50000000000007
100
AcDbArc
 50
354.7056053233405
 51
14.53399004658009
  0
ARC
  5
80D
330
67
100
AcDbEntity
  8
AM_0
100
AcDbCircle
 10
244.7688797005653
 20
40.69175247583311
 30
0.0
 40
22.50000000000252
100
AcDbArc
 50
22.33774433923393
 51
27.4526818174285
  0
ARC
  5
80E
330
67
100
AcDbEntity
  8
AM_0
100
AcDbCircle
 10
244.7688797005708
 20
40.6917524758366
 30
0.0
 40
22.49999999999594
100
AcDbArc
 50
32.54731818256921
 51
37.66225566076597
  0
LINE
  5
80F
330
67
100
AcDbEntity
  8
AM_0
100
AcDbLine
 10
267.1728886291395
 20
38.61560606274
 30
0.0
 11
266.207755160256
 21
38.05838599467634
 31
0.0
  0
LINE
  5
810
330
67
100
AcDbEntity
  8
AM_0
100
AcDbLine
 10
257.8991269514501
 20
55.778057760122
 30
0.0
 11
259.3579519858644
 21
56.62031078644159
 31
0.0
  0
LINE
  5
811
330
67
100
AcDbEntity
  8
AM_0
100
AcDbLine
 10
266.2077551602547
 20
38.05838599467634
 30
0.0
 11
258.6300956327367
 21
33.68342222663651
 31
0.0
  0
ARC
  5
812
330
67
100
AcDbEntity
  8
AM_0
100
AcDbCircle
 10
244.768879700569
 20
40.69175247583421
 30
0.0
 40
7.0
100
AcDbArc
 50
169.8808331015939
 51
250.119166898405
  0
LINE
  5
813
330
67
100
AcDbEntity
  8
AM_0
100
AcDbLine
 10
243.1773654691727
 20
33.44833598558159
 30
0.0
 11
245.1934248710691
 21
29.95641867042002
 31
0.0
  0
LINE
  5
814
330
67
100
AcDbEntity
  8
AM_0
100
AcDbLine
 10
232.353799781535
 20
23.19530167562902
 30
0.0
 11
229.0313843267724
 21
28.94989404712999
 31
0.0
  0
LINE
  5
815
330
67
100
AcDbEntity
  8
AM_0
100
AcDbLine
 10
224.8626719918232
 20
46.038259753774
 30
0.0
 11
234.2052398877136
 21
47.16627097812549
 31
0.0
  0
LINE
  5
816
330
67
100
AcDbEntity
  8
AM_0
100
AcDbLine
 10
245.0941572943979
 20
28.30611279032701
 30
0.0
 11
239.4459869704103
 21
20.7792172680808
 31
0.0
  0
LINE
  5
817
330
67
100
AcDbEntity
  8
AM_0
100
AcDbLine
 10
235.6840804922244
 20
46.42708628124853
 30
0.0
 11
237.700139894121
 21
42.93516896608681
 31
0.0
  0
LINE
  5
818
330
67
100
AcDbEntity
  8
AM_0
100
AcDbLine
 10
226.7313843267724
 20
32.9336109045384
 30
0.0
 11
223.4089688720098
 21
38.68820327603943
 31
0.0
  0
ARC
  5
819
330
67
100
AcDbEntity
  8
AM_0
100
AcDbCircle
 10
244.7688797005704
 20
40.69175247583421
 30
0.0
 40
21.60000000000001
100
AcDbArc
 50
126.6463516730421
 51
203.8874722377261
  0
ARC
  5
81A
330
67
100
AcDbEntity
  8
AM_0
100
AcDbCircle
 10
244.7688797005704
 20
40.69175247583433
 30
0.0
 40
21.59999999999997
100
AcDbArc
 50
37.9835561455545
 51
83.8874722377252
  0
ARC
  5
81B
330
67
100
AcDbEntity
  8
AM_0
100
AcDbCircle
 10
244.7688797005706
 20
40.69175247583421
 30
0.0
 40
21.59999999999991
100
AcDbArc
 50
336.1125277622739
 51
352.9973577862463
  0
ARC
  5
81C
330
67
100
AcDbEntity
  8
AM_0
100
AcDbCircle
 10
244.7688797005703
 20
40.69175247583411
 30
0.0
 40
21.60000000000029
100
AcDbArc
 50
13.8723797868389
 51
22.01644385444431
  0
ARC
  5
81D
330
67
100
AcDbEntity
  8
AM_0
100
AcDbCircle
 10
244.768879700569
 20
40.69175247583402
 30
0.0
 40
22.50000000000016
100
AcDbArc
 50
113.6206297915575
 51
126.3793702084434
  0
ARC
  5
81E
330
67
100
AcDbEntity
  8
AM_0
100
AcDbCircle
 10
244.7688797005704
 20
40.69175247583433
 30
0.0
 40
21.59999999999997
100
AcDbArc
 50
96.1125277622748
 51
113.3536483269577
  0
ARC
  5
81F
330
67
100
AcDbEntity
  8
AM_0
100
AcDbCircle
 10
244.7688797005704
 20
40.69175247583421
 30
0.0
 40
21.6
100
AcDbArc
 50
216.1125277622749
 51
323.8874722377251
  0
LINE
  5
820
330
67
100
AcDbEntity
  8
AM_0
100
AcDbLine
 10
226.7313843267688
 20
32.9336109045384
 30
0.0
 11
227.1643970286611
 21
33.1836109045384
 31
0.0
  0
LINE
  5
821
330
67
100
AcDbEntity
  8
AM_0
100
AcDbLine
 10
227.1643970286611
 20
33.1836109045384
 30
0.0
 11
229.4643970286609
 21
29.19989404712999
 31
0.0
  0
LINE
  5
822
330
67
100
AcDbEntity
  8
AM_0
100
AcDbLine
 10
229.4643970286609
 20
29.19989404712999
 30
0.0
 11
229.0313843267688
 21
28.94989404712999
 31
0.0
  0
LINE
  5
823
330
67
100
AcDbEntity
  8
AM_0
100
AcDbLine
 10
224.235381564269
 20
31.49254303770817
 30
0.0
 11
225.0190813145664
 21
31.94501229950621
 31
0.0
  0
LINE
  5
824
330
67
100
AcDbEntity
  8
AM_0
100
AcDbLine
 10
227.3190813145664
 20
27.96129544209782
 30
0.0
 11
226.535381564269
 21
27.50882618029982
 31
0.0
  0
LINE
  5
825
330
67
100
AcDbEntity
  8
AM_0
100
AcDbLine
 10
229.0313843267724
 20
28.94989404712999
 30
0.0
 11
227.3190813145649
 21
27.96129544209782
 31
0.0
  0
LINE
  5
826
330
67
100
AcDbEntity
  8
AM_0
100
AcDbLine
 10
225.0190813145647
 20
31.94501229950621
 30
0.0
 11
226.7313843267724
 21
32.9336109045384
 31
0.0
  0
LINE
  5
827
330
67
100
AcDbEntity
  8
AM_0
100
AcDbLine
 10
260.684131887932
 20
48.7257270720498
 30
0.0
 11
264.7351967636398
 21
51.0646104685443
 31
0.0
  0
LINE
  5
828
330
67
100
AcDbEntity
  8
AM_0
100
AcDbLine
 10
263.7351967636397
 20
52.79666127611317
 30
0.0
 11
259.684131887932
 21
50.45777787961871
 31
0.0
  0
LINE
  5
829
330
67
100
AcDbEntity
  8
AM_0
100
AcDbLine
 10
259.684131887932
 20
50.45777787961871
 30
0.0
 11
260.684131887932
 21
48.7257270720498
 31
0.0
  0
ARC
  5
82A
330
67
100
AcDbEntity
  8
AM_0
100
AcDbCircle
 10
244.7688797005669
 20
40.691752475833
 30
0.0
 40
22.50000000000234
100
AcDbArc
 50
27.45268181743032
 51
32.54731818256921
  0
LINE
  5
82B
330
67
100
AcDbEntity
  8
AM_0
100
AcDbLine
 10
265.7388546588168
 20
45.87056993260191
 30
0.0
 11
266.5488557388937
 21
46.3382242742282
 31
0.0
  0
LINE
  5
82C
330
67
100
AcDbEntity
  8
AM_0
100
AcDbLine
 10
261.7937278780861
 20
53.9851547691731
 30
0.0
 11
262.5804694849461
 21
54.43938024767641
 31
0.0
  0
LINE
  5
82D
330
67
100
AcDbEntity
  8
AM_0
100
AcDbLine
 10
265.5804694849459
 20
49.24322782496981
 30
0.0
 11
264.793727878086
 21
48.78900234646642
 31
0.0
  0
ARC
  5
82E
330
67
100
AcDbEntity
  8
AM_0
100
AcDbCircle
 10
244.7688797005699
 20
40.69175247583402
 30
0.0
 40
22.50000000000048
100
AcDbArc
 50
14.53399004658009
 51
22.33774433923393
  0
ARC
  5
82F
330
67
100
AcDbEntity
  8
AM_0
100
AcDbCircle
 10
244.7688797005706
 20
40.69175247583421
 30
0.0
 40
22.49999999999991
100
AcDbArc
 50
335.8671503379607
 51
354.7056053233405
  0
ARC
  5
830
330
67
100
AcDbEntity
  8
AM_0
100
AcDbCircle
 10
244.7688797005704
 20
40.69175247583421
 30
0.0
 40
22.50000000000001
100
AcDbArc
 50
37.66225566076597
 51
84.13284966203837
  0
ARC
  5
831
330
67
100
AcDbEntity
  8
AM_0
100
AcDbCircle
 10
244.7688797005704
 20
40.69175247583433
 30
0.0
 40
22.5
100
AcDbArc
 50
126.3793702084434
 51
204.1328496620393
  0
ARC
  5
832
330
67
100
AcDbEntity
  8
AM_0
100
AcDbCircle
 10
244.7688797005704
 20
40.69175247583421
 30
0.0
 40
22.50000000000004
100
AcDbArc
 50
95.86715033796162
 51
113.6206297915575
  0
ARC
  5
833
330
67
100
AcDbEntity
  8
AM_0
100
AcDbCircle
 10
244.7688797005704
 20
40.69175247583421
 30
0.0
 40
22.5
100
AcDbArc
 50
215.8671503379617
 51
324.1328496620383
  0
LINE
  5
834
330
67
100
AcDbEntity
  8
AM_0
100
AcDbLine
 10
247.0688797005704
 20
63.07388820949461
 30
0.0
 11
247.0688797005704
 21
62.16894968589861
 31
0.0
  0
LINE
  5
835
330
67
100
AcDbEntity
  8
AM_0
100
AcDbLine
 10
264.5186780865746
 20
31.94501229950621
 30
0.0
 11
265.3023778368718
 21
31.49254303770817
 31
0.0
  0
LINE
  5
836
330
67
100
AcDbEntity
  8
AM_0
100
AcDbLine
 10
247.068879700569
 20
62.16894968589861
 30
0.0
 11
247.068879700569
 21
59.69175247583422
 31
0.0
  0
LINE
  5
837
330
67
100
AcDbEntity
  8
AM_0
100
AcDbLine
 10
247.068879700569
 20
59.69175247583422
 30
0.0
 11
242.468879700569
 21
59.69175247583422
 31
0.0
  0
LINE
  5
838
330
67
100
AcDbEntity
  8
AM_0
100
AcDbLine
 10
242.468879700569
 20
59.69175247583422
 30
0.0
 11
242.468879700569
 21
62.16894968589861
 31
0.0
  0
LINE
  5
839
330
67
100
AcDbEntity
  8
AM_0
100
AcDbLine
 10
262.218678086573
 20
27.96129544209768
 30
0.0
 11
260.0733623724733
 21
29.19989404712999
 31
0.0
  0
LINE
  5
83A
330
67
100
AcDbEntity
  8
AM_0
100
AcDbLine
 10
260.0733623724733
 20
29.19989404712999
 30
0.0
 11
262.3733623724732
 21
33.1836109045384
 31
0.0
  0
LINE
  5
83B
330
67
100
AcDbEntity
  8
AM_0
100
AcDbLine
 10
262.3733623724732
 20
33.1836109045384
 30
0.0
 11
264.518678086573
 21
31.94501229950621
 31
0.0
  0
LINE
  5
83C
330
67
100
AcDbEntity
  8
AM_0
100
AcDbLine
 10
242.4688797005705
 20
62.16894968589861
 30
0.0
 11
242.4688797005705
 21
63.07388820949461
 31
0.0
  0
LINE
  5
83D
330
67
100
AcDbEntity
  8
AM_0
100
AcDbLine
 10
263.0023778368718
 20
27.50882618029971
 30
0.0
 11
262.2186780865746
 21
27.96129544209768
 31
0.0
  0
LINE
  5
83E
330
67
100
AcDbEntity
  8
AM_0
100
AcDbLine
 10
235.7536033225326
 20
61.30666920687129
 30
0.0
 11
236.2065250677198
 21
60.52218573235442
 31
0.0
  0
LINE
  5
83F
330
67
100
AcDbEntity
  8
AM_0
100
AcDbLine
 10
231.8763980487976
 20
58.02218573235442
 30
0.0
 11
231.4234763036104
 21
58.80666920687129
 31
0.0
  0
CIRCLE
  5
840
330
67
100
AcDbEntity
  8
AM_0
100
AcDbCircle
 10
244.768879700569
 20
40.69175247583421
 30
0.0
 40
6.0
  0
ARC
  5
841
330
67
100
AcDbEntity
  8
AM_0
100
AcDbCircle
 10
244.7688797005651
 20
40.69175247583411
 30
0.0
 40
22.49999999999972
100
AcDbArc
 50
324.1328496620383
 51
335.8671503379607
  0
ARC
  5
842
330
67
100
AcDbEntity
  8
AM_0
100
AcDbCircle
 10
244.7688797005648
 20
40.69175247583411
 30
0.0
 40
22.49999999999977
100
AcDbArc
 50
204.1328496620375
 51
215.8671503379617
  0
ARC
  5
843
330
67
100
AcDbEntity
  8
AM_0
100
AcDbCircle
 10
244.7688797005648
 20
40.69175247583459
 30
0.0
 40
22.49999999999958
100
AcDbArc
 50
84.13284966203837
 51
95.86715033796162
  0
CIRCLE
  5
844
330
67
100
AcDbEntity
  8
AM_0
100
AcDbCircle
 10
244.7688797005693
 20
40.69175247583421
 30
0.0
 40
2.0
  0
CIRCLE
  5
845
330
67
100
AcDbEntity
  8
AM_0
100
AcDbCircle
 10
244.7688797005704
 20
40.69175247583421
 30
0.0
 40
3.0
  0
CIRCLE
  5
846
330
67
100
AcDbEntity
  8
AM_0
100
AcDbCircle
 10
244.7688797005704
 20
40.69175247583421
 30
0.0
 40
4.2
  0
LINE
  5
847
330
67
100
AcDbEntity
  8
AM_0
100
AcDbLine
 10
222.5230739997542
 20
37.31919725434869
 30
0.0
 11
220.3479215430308
 21
36.98943523655024
 31
0.0
  0
LINE
  5
849
330
67
100
AcDbEntity
  8
AM_0
100
AcDbLine
 10
221.7685509317405
 20
31.68757417915812
 30
0.0
 11
223.8171692252668
 21
32.48956812290331
 31
0.0
  0
CIRCLE
  5
84A
102
{ACAD_REACTORS
330
954
102
}
330
67
100
AcDbEntity
  8
AM_7
100
AcDbCircle
 10
34.42203698688878
 20
40.69175247583425
 30
0.0
 40
15.0
  0
LINE
  5
84B
330
67
100
AcDbEntity
  8
AM_7
100
AcDbLine
 10
34.42203698688878
 20
40.69175247583425
 30
0.0
 11
62.1220369868888
 21
40.69175247583425
 31
0.0
1001
GENIUS_GENOREF_13
1005
851
  0
LINE
  5
84C
102
{ACAD_REACTORS
330
8F5
102
}
330
67
100
AcDbEntity
  8
AM_7
100
AcDbLine
 10
34.42203698688878
 20
40.69175247583425
 30
0.0
 11
34.42203698688878
 21
68.39175247583425
 31
0.0
1001
GENIUS_GENOREF_13
1005
851
  0
LINE
  5
84D
330
67
100
AcDbEntity
  8
AM_7
100
AcDbLine
 10
34.42203698688878
 20
40.69175247583425
 30
0.0
 11
6.722036986888772
 21
40.69175247583425
 31
0.0
1001
GENIUS_GENOREF_13
1005
851
  0
LINE
  5
84E
330
67
100
AcDbEntity
  8
AM_7
100
AcDbLine
 10
34.42203698688878
 20
40.69175247583425
 30
0.0
 11
34.42203698688878
 21
12.99175247583426
 31
0.0
1001
GENIUS_GENOREF_13
1005
851
  0
LINE
  5
84F
102
{ACAD_REACTORS
330
8F5
102
}
330
67
100
AcDbEntity
  8
AM_7
  6
AM_ISO08W050x2
100
AcDbLine
 10
18.83357971876882
 20
31.69175247583425
 30
0.0
 11
34.4220369868888
 21
40.69175247583425
 31
0.0
1001
GENIUS_GENODEF_13
1002
{
1000
HIER
1070
     0
1002
}
1002
{
1000
MANEDIT
1070
     0
1002
}
1002
{
1000
NOSEL
1070
     0
1002
}
1002
{
1000
BEHIND
1070
     0
1002
}
1002
{
1000
OTHER
1070
     0
1002
}
1002
{
1000
REACTOR
1002
}
1001
GENIUS_GENOBJ-N-CEN_13
1002
{
1000
OWNER
1000
GEN
1002
}
1001
GENIUS_GENCEN_19
1002
{
1040
3.0
1002
}
  0
LINE
  5
850
330
67
100
AcDbEntity
  8
AM_7
  6
AM_ISO08W050x2
100
AcDbLine
 10
50.01049425500848
 20
31.69175247583425
 30
0.0
 11
34.42203698688878
 21
40.69175247583425
 31
0.0
1001
GENIUS_GENODEF_13
1002
{
1000
HIER
1070
     0
1002
}
1002
{
1000
MANEDIT
1070
     0
1002
}
1002
{
1000
NOSEL
1070
     0
1002
}
1002
{
1000
BEHIND
1070
     0
1002
}
1002
{
1000
OTHER
1070
     0
1002
}
1002
{
1000
REACTOR
1002
}
1001
GENIUS_GENOBJ-N-CEN_13
1002
{
1000
OWNER
1000
GEN
1002
}
1001
GENIUS_GENCEN_19
1002
{
1040
3.0
1002
}
  0
POINT
  5
851
330
67
100
AcDbEntity
  8
0
 60
     1
100
AcDbPoint
 10
11.72757035261337
 20
149.6926267875553
 30
0.0
1001
GENIUS_GENODEF_13
1002
{
1000
HIER
1070
    10
1002
}
1002
{
1000
MANEDIT
1070
     0
1002
}
1002
{
1000
NOSEL
1070
     0
1002
}
1002
{
1000
BEHIND
1070
     0
1002
}
1002
{
1000
OTHER
1070
     0
1002
}
1002
{
1000
REACTOR
1002
}
1001
GENIUS_GENOBJ-N-CRS_13
1002
{
1000
OWNER
1000
GEN
1002
}
1001
GENIUS_GENOENT_13
1002
{
1000
MYREF
1005
851
1002
}
1002
{
1000
GRP
1005
0
1002
}
1001
GENIUS_GENOLIS_13
1002
{
1000
ENT
1005
84E
1005
84D
1005
84C
1005
84B
1002
}
  0
LINE
  5
866
330
67
100
AcDbEntity
  8
AM_7
100
AcDbLine
 10
85.46331246907788
 20
40.69175247583602
 30
0.0
 11
195.7746941952771
 21
40.69175247583513
 31
0.0
  0
LINE
  5
86D
330
67
100
AcDbEntity
  8
AM_0
100
AcDbLine
 10
134.4633124690778
 20
65.39175247583512
 30
0.0
 11
134.4633124690778
 21
52.89175247583511
 31
0.0
  0
LINE
  5
86E
330
67
100
AcDbEntity
  8
AM_0
100
AcDbLine
 10
149.463312469078
 20
65.39175247583512
 30
0.0
 11
149.463312469078
 21
52.89175247583511
 31
0.0
  0
LINE
  5
86F
330
67
100
AcDbEntity
  8
AM_0
100
AcDbLine
 10
134.4633124690778
 20
52.89175247583511
 30
0.0
 11
149.463312469078
 21
52.89175247583511
 31
0.0
  0
LINE
  5
870
330
67
100
AcDbEntity
  8
AM_7
100
AcDbLine
 10
244.7501641306993
 20
40.72416879374367
 30
0.0
 11
272.4501641306994
 21
40.72416879374367
 31
0.0
1001
GENIUS_GENOREF_13
1005
875
  0
LINE
  5
871
330
67
100
AcDbEntity
  8
AM_7
100
AcDbLine
 10
244.7501641306993
 20
40.72416879374367
 30
0.0
 11
244.7501641306993
 21
68.42416879374368
 31
0.0
1001
GENIUS_GENOREF_13
1005
875
  0
LINE
  5
872
330
67
100
AcDbEntity
  8
AM_7
100
AcDbLine
 10
244.7501641306993
 20
40.72416879374367
 30
0.0
 11
217.0501641306992
 21
40.72416879374367
 31
0.0
1001
GENIUS_GENOREF_13
1005
875
  0
LINE
  5
873
330
67
100
AcDbEntity
  8
AM_7
100
AcDbLine
 10
244.7501641306993
 20
40.72416879374367
 30
0.0
 11
244.7501641306993
 21
13.02416879374365
 31
0.0
1001
GENIUS_GENOREF_13
1005
875
  0
LINE
  5
874
330
67
100
AcDbEntity
  8
AM_7
100
AcDbLine
 10
236.625164130699
 20
54.79708160524101
 30
0.0
 11
252.8751641306995
 21
26.65125598224657
 31
0.0
1001
GENIUS_GENOBJ-N-CEN_13
1002
{
1000
OWNER
1000
GEN
1002
}
1001
GENIUS_GENODEF_13
1002
{
1000
HIER
1070
     0
1002
}
1002
{
1000
MANEDIT
1070
     0
1002
}
1002
{
1000
NOSEL
1070
     0
1002
}
1002
{
1000
BEHIND
1070
     0
1002
}
1002
{
1000
OTHER
1070
     0
1002
}
1002
{
1000
REACTOR
1002
}
1001
GENIUS_GENCEN_19
1002
{
1040
3.0
1002
}
  0
POINT
  5
875
330
67
100
AcDbEntity
  8
0
 60
     1
100
AcDbPoint
 10
5.411212090570558
 20
149.7250431054647
 30
0.0
1001
GENIUS_GENODEF_13
1002
{
1000
HIER
1070
    10
1002
}
1002
{
1000
MANEDIT
1070
     0
1002
}
1002
{
1000
NOSEL
1070
     0
1002
}
1002
{
1000
BEHIND
1070
     0
1002
}
1002
{
1000
OTHER
1070
     0
1002
}
1002
{
1000
REACTOR
1002
}
1001
GENIUS_GENOENT_13
1002
{
1000
MYREF
1005
875
1002
}
1002
{
1000
GRP
1005
0
1002
}
1001
GENIUS_GENOLIS_13
1002
{
1000
ENT
1005
873
1005
872
1005
871
1005
870
1002
}
1001
GENIUS_GENOBJ-N-CRS_13
1002
{
1000
OWNER
1000
GEN
1002
}
  0
DIMENSION
  5
8E2
102
{ACAD_XDICTIONARY
360
8F4
102
}
102
{ACAD_REACTORS
330
8F5
102
}
330
67
100
AcDbEntity
  8
AM_5
100
AcDbDimension
  2
*D17
 10
34.4220369868888
 20
40.69175247583425
 30
0.0
 11
6.132936037035147
 21
57.02447252436478
 31
0.0
 70
    34
  1
3-<>
 71
     5
 42
2.094395102393193
  3
AM_JIS$2
100
AcDb2LineAngularDimension
 13
34.42203698688878
 23
40.69175247583425
 33
0.0
 14
34.42203698688878
 24
68.39175247583425
 34
0.0
 15
18.83357971876882
 25
31.69175247583425
 35
0.0
 16
15.11104368465919
 26
63.70569812032911
 36
0.0
1001
ACAD
1000
DSTYLE
1002
{
1070
    47
1040
0.0
1070
    48
1040
0.0
1002
}
1001
ACAD_DSTYLE_DIMINSPECT
1070
   396
1000
100%
1070
   395
1000

1070
   394
1070
    33
1070
   393
1070
     0
  0
DIMENSION
  5
94A
102
{ACAD_XDICTIONARY
360
953
102
}
102
{ACAD_REACTORS
330
954
102
}
330
67
100
AcDbEntity
  8
AM_5
100
AcDbDimension
  2
*D19
 10
27.81053464961039
 20
27.2274278791765
 30
0.0
 11
58.22204694598536
 21
65.44436105759722
 31
0.0
 70
   163
  1
P.C.D.<>
 71
     5
 42
30.00000000000003
  3
AM_JIS$3
100
AcDbDiametricDimension
 15
41.03353932416714
 25
54.15607707249199
 35
0.0
 40
0.0
1001
ACAD
1000
DSTYLE
1002
{
1070
    47
1040
0.0
1070
    48
1040
0.0
1070
   172
1070
     1
1002
}
1001
ACAD_DSTYLE_DIMRADIAL_EXTENSION
1070
   387
1070
     1
1070
   388
1040
0.0
1070
   390
1040
0.0
1001
ACAD_DSTYLE_DIMINSPECT
1070
   396
1000
100%
1070
   395
1000

1070
   394
1070
    33
1070
   393
1070
     0
  0
DIMENSION
  5
B60
330
67
100
AcDbEntity
  8
AM_5
100
AcDbDimension
  2
*D20
 10
204.4159050364223
 20
63.1917524758351
 30
0.0
 11
204.4159050364223
 21
40.63282034266535
 31
0.0
 70
   160
  1
%%c<>
 71
     5
 42
45.0
  3
AM_JIS$0
100
AcDbAlignedDimension
 13
183.9633124690778
 23
18.1917524758351
 33
0.0
 14
183.9633124690778
 24
63.1917524758351
 34
0.0
 50
90.00000000000005
100
AcDbRotatedDimension
1001
ACAD_DSTYLE_DIMINSPECT
1070
   396
1000
100%
1070
   395
1000

1070
   394
1070
    33
1070
   393
1070
     0
1001
ACAD
1000
DSTYLE
1002
{
1070
   144
1040
1.0
1070
    40
1040
1.0
1002
}
  0
DIMENSION
  5
B63
330
67
100
AcDbEntity
  8
AM_5
100
AcDbDimension
  2
*D21
 10
213.1671127804529
 20
65.39175247583512
 30
0.0
 11
213.1671127804529
 21
40.69175247583507
 31
0.0
 70
   160
  1
%%c<>max
 71
     5
 42
49.40000000000011
  3
AM_JIS$0
100
AcDbAlignedDimension
 13
176.9633124690777
 23
15.99175247583499
 33
0.0
 14
176.9633124690777
 24
65.39175247583512
 34
0.0
 50
90.00000000000005
100
AcDbRotatedDimension
1001
ACAD_DSTYLE_DIMINSPECT
1070
   396
1000
100%
1070
   395
1000

1070
   394
1070
    33
1070
   393
1070
     0
1001
ACAD
1000
DSTYLE
1002
{
1070
   144
1040
1.0
1070
    40
1040
1.0
1002
}
  0
ARC
  5
EEE
330
67
100
AcDbEntity
  8
AM_0
100
AcDbCircle
 10
34.42203698688878
 20
40.69175247583421
 30
0.0
 40
24.70000000000089
100
AcDbArc
 50
351.3793702084428
 51
338.620629791557
  0
ARC
  5
EEF
330
67
100
AcDbEntity
  8
AM_0
100
AcDbCircle
 10
244.7688797005704
 20
40.69175247583421
 30
0.0
 40
24.70000709053744
100
AcDbArc
 50
201.3793702084345
 51
188.6206297915538
  0
INSERT
  5
FE0
330
67
100
AcDbEntity
  8
AM_5
100
AcDbBlockReference
  2
*S29
 10
0.0
 20
0.0
 30
0.0
  0
TEXT
  5
FE1
102
{ACAD_XDICTIONARY
360
FE2
102
}
330
67
100
AcDbEntity
  8
AM_6KM
100
AcDbText
 10
253.5403279457723
 20
5.274037816044945
 30
0.0
 40
3.0
  1
Unit(mm)
  7
Note Text (JIS)
100
AcDbText
1001
AcadAnnotative
1000
AnnotativeData
1002
{
1070
     1
1070
     0
1002
}
  0
INSERT
  5
FE5
330
67
100
AcDbEntity
  8
AM_5
100
AcDbBlockReference
  2
*S30
 10
0.0
 20
0.0
 30
0.0
  0
INSERT
  5
FE7
330
67
100
AcDbEntity
  8
AM_5
100
AcDbBlockReference
  2
*S31
 10
0.0
 20
0.0
 30
0.0
  0
ENDSEC
  0
SECTION
  2
OBJECTS
  0
DICTIONARY
  5
C
330
0
100
AcDbDictionary
281
     1
  3
ACAD_2007HEADERVARS_RT
350
1100
  3
ACAD_COLOR
350
5E
  3
ACAD_GROUP
350
D
  3
ACAD_LAYOUT
350
5D
  3
ACAD_MATERIAL
350
10
  3
ACAD_MLEADERSTYLE
350
61
  3
ACAD_MLINESTYLE
350
5A
  3
ACAD_PLOTSETTINGS
350
5C
  3
ACAD_PLOTSTYLENAME
350
E
  3
ACAD_SCALELIST
350
3D
  3
ACAD_TABLESTYLE
350
5F
  3
ACAD_VISUALSTYLE
350
29
  3
ACDB_RECOMPOSE_DATA
350
10FE
  3
AcDbVariableDictionary
350
532
  3
AcmDictionary
350
590
  3
AMG
350
549
  3
AMGSNAPSETTINGS
350
5FB
  3
ASE_INDEX_DICTIONARY
350
52F
  3
DWGPROPS
350
10FF
  0
DICTIONARY
  5
9B2
330
2
100
AcDbDictionary
280
     1
281
     1
  3
ACAD_LAYERSTATES
360
9B3
  0
DICTIONARY
  5
5F7
330
4F
100
AcDbDictionary
280
     1
281
     1
  3
ADSK_XREC_LAYER_RECONCILED
360
5F8
  0
DICTIONARY
  5
CA
330
C9
100
AcDbDictionary
280
     1
281
     1
  3
ADSK_XREC_LAYER_RECONCILED
360
CB
  0
DICTIONARY
  5
D3
330
D2
100
AcDbDictionary
280
     1
281
     1
  3
ADSK_XREC_LAYER_RECONCILED
360
D4
  0
DICTIONARY
  5
F2
330
F1
100
AcDbDictionary
280
     1
281
     1
  3
ADSK_XREC_LAYER_RECONCILED
360
F3
  0
DICTIONARY
  5
150
330
14F
100
AcDbDictionary
280
     1
281
     1
  3
ADSK_XREC_LAYER_RECONCILED
360
151
  0
DICTIONARY
  5
5F9
330
230
100
AcDbDictionary
280
     1
281
     1
  3
ADSK_XREC_LAYER_RECONCILED
360
5FA
  0
DICTIONARY
  5
9B1
330
9B0
100
AcDbDictionary
280
     1
281
     1
  0
DICTIONARY
  5
4AF
330
67
100
AcDbDictionary
280
     1
281
     1
  3
ACAD_SORTENTS
360
4B0
  0
DICTIONARY
  5
1134
330
863
100
AcDbDictionary
280
     1
281
     1
  3
ACAD_MTEXT_RT
360
1135
  0
DICTIONARY
  5
1132
330
857
100
AcDbDictionary
280
     1
281
     1
  3
ACAD_MTEXT_RT
360
1133
  0
DICTIONARY
  5
1138
330
C8B
100
AcDbDictionary
280
     1
281
     1
  3
ACAD_MTEXT_RT
360
1139
  0
DICTIONARY
  5
1136
330
947
100
AcDbDictionary
280
     1
281
     1
  3
ACAD_MTEXT_RT
360
1137
  0
DICTIONARY
  5
113A
330
CB2
100
AcDbDictionary
280
     1
281
     1
  3
ACAD_MTEXT_RT
360
113B
  0
DICTIONARY
  5
113C
330
D24
100
AcDbDictionary
280
     1
281
     1
  3
ACAD_MTEXT_RT
360
113D
  0
DICTIONARY
  5
113E
330
D2F
100
AcDbDictionary
280
     1
281
     1
  3
ACAD_MTEXT_RT
360
113F
  0
DICTIONARY
  5
1140
330
D39
100
AcDbDictionary
280
     1
281
     1
  3
ACAD_MTEXT_RT
360
1141
  0
DICTIONARY
  5
1142
330
10E2
100
AcDbDictionary
280
     1
281
     1
  3
ACAD_MTEXT_RT
360
1143
  0
DICTIONARY
  5
1144
330
10F7
100
AcDbDictionary
280
     1
281
     1
  3
ACAD_MTEXT_RT
360
1145
  0
DICTIONARY
  5
8F4
330
8E2
100
AcDbDictionary
280
     1
281
     1
  3
ACAD_DIMASSOC
360
8F5
  0
DICTIONARY
  5
953
330
94A
100
AcDbDictionary
280
     1
281
     1
  3
ACAD_DIMASSOC
360
954
  0
DICTIONARY
  5
FE2
330
FE1
100
AcDbDictionary
280
     1
281
     1
  3
AcDbContextDataManager
360
FE3
  0
DICTIONARY
  5
1100
102
{ACAD_REACTORS
330
C
102
}
330
C
100
AcDbDictionary
281
     1
  3
DIMARCSYM
350
1101
  3
DIMLTEX1
350
1103
  3
DIMLTEX2
350
1104
  3
DIMLTYPE
350
1102
  0
DICTIONARY
  5
5E
102
{ACAD_REACTORS
330
C
102
}
330
C
100
AcDbDictionary
281
     1
  0
DICTIONARY
  5
D
102
{ACAD_REACTORS
330
C
102
}
330
C
100
AcDbDictionary
281
     1
  0
DICTIONARY
  5
5D
102
{ACAD_REACTORS
330
C
102
}
330
C
100
AcDbDictionary
281
     1
  3
Model
350
6A
  3
レイアウト1
350
66
  3
レイアウト2
350
6E
  0
DICTIONARY
  5
10
102
{ACAD_REACTORS
330
C
102
}
330
C
100
AcDbDictionary
281
     1
  3
ByBlock
350
19
  3
ByLayer
350
11
  3
Global
350
21
  0
DICTIONARY
  5
61
102
{ACAD_REACTORS
330
C
102
}
330
C
100
AcDbDictionary
281
     1
  3
Standard
350
62
  0
DICTIONARY
  5
5A
102
{ACAD_REACTORS
330
C
102
}
330
C
100
AcDbDictionary
281
     1
  3
Standard
350
5B
  0
DICTIONARY
  5
5C
102
{ACAD_REACTORS
330
C
102
}
330
C
100
AcDbDictionary
281
     1
  0
ACDBDICTIONARYWDFLT
  5
E
102
{ACAD_REACTORS
330
C
102
}
330
C
100
AcDbDictionary
281
     1
  3
Normal
350
F
100
AcDbDictionaryWithDefault
340
F
  0
DICTIONARY
  5
3D
102
{ACAD_REACTORS
330
C
102
}
330
C
100
AcDbDictionary
281
     1
  3
*A1
350
B6
  3
*A10
350
BD
  3
*A11
350
BE
  3
*A12
350
BF
  3
*A13
350
C0
  3
*A14
350
C1
  3
*A15
350
C2
  3
*A16
350
C3
  3
*A17
350
C4
  3
*A18
350
C5
  3
*A2
350
C6
  3
*A3
350
C7
  3
*A4
350
B7
  3
*A5
350
B8
  3
*A6
350
B9
  3
*A7
350
BA
  3
*A8
350
BB
  3
*A9
350
BC
  3
A0
350
3E
  3
A1
350
3F
  3
A2
350
40
  3
A3
350
41
  3
A4
350
42
  3
A5
350
43
  3
A6
350
44
  3
A7
350
45
  3
A8
350
46
  3
A9
350
47
  3
B0
350
48
  3
B1
350
49
  3
B2
350
4A
  3
B3
350
4B
  3
B4
350
4C
  3
B5
350
4D
  3
B6
350
4E
  0
DICTIONARY
  5
5F
102
{ACAD_REACTORS
330
C
102
}
330
C
100
AcDbDictionary
281
     1
  3
Standard
350
60
  0
DICTIONARY
  5
29
102
{ACAD_REACTORS
330
C
102
}
330
C
100
AcDbDictionary
281
     1
  3
2dWireframe
350
2F
  3
3D Hidden
350
31
  3
3dWireframe
350
30
  3
Basic
350
2E
  3
Brighten
350
35
  3
ColorChange
350
39
  3
Conceptual
350
32
  3
Dim
350
34
  3
EdgeColorOff
350
3C
  3
Facepattern
350
38
  3
Flat
350
2A
  3
FlatWithEdges
350
2B
  3
Gouraud
350
2C
  3
GouraudWithEdges
350
2D
  3
JitterOff
350
3A
  3
Linepattern
350
37
  3
OverhangOff
350
3B
  3
Realistic
350
33
  3
Thicken
350
36
  0
XRECORD
  5
10FE
102
{ACAD_REACTORS
330
C
102
}
330
C
100
AcDbXrecord
280
     1
 90
        1
330
60
  0
DICTIONARY
  5
532
102
{ACAD_REACTORS
330
C
102
}
330
C
100
AcDbDictionary
281
     1
  3
ANNOALLVISIBLE
350
536
  3
CANNOSCALE
350
537
  3
CMLEADERSTYLE
350
534
  3
CTABLESTYLE
350
533
  3
DIMASSOC
350
606
  3
HIDETEXT
350
604
  3
INDEXCTL
350
603
  3
LAYEREVAL
350
539
  3
LAYERNOTIFY
350
53A
  3
LIGHTINGUNITS
350
538
  3
MSLTSCALE
350
535
  3
SORTENTS
350
602
  3
XCLIPFRAME
350
10FC
  0
DICTIONARY
  5
590
102
{ACAD_REACTORS
330
C
102
}
330
C
100
AcDbDictionary
281
     1
  3
AcmStdDictionary
350
59D
  0
DICTIONARY
  5
549
102
{ACAD_REACTORS
330
C
102
}
330
C
100
AcDbDictionary
281
     1
  0
DICTIONARY
  5
5FB
102
{ACAD_REACTORS
330
C
102
}
330
C
100
AcDbDictionary
281
     1
  0
DICTIONARY
  5
52F
102
{ACAD_REACTORS
330
C
102
}
330
C
100
AcDbDictionary
281
     1
  3
ASEBlockHierarchyIndexRecord
350
531
1001
DCO15
1040
1793446026.343
  0
XRECORD
  5
10FF
102
{ACAD_REACTORS
330
C
102
}
330
C
100
AcDbXrecord
280
     1
  1
DWGPROPS COOKIE
  2

  3

  4

  6

  7

  8
Administrator
  9

300
AmdtFileType=84
301
=
302
=
303
=
304
=
305
=
306
=
307
=
308
=
309
=
 40
0.130619525462963
 41
2456560.6890086
 42
2457997.661722743
  1

 90
        1
  0
DICTIONARY
  5
9B3
102
{ACAD_REACTORS
330
9B2
102
}
330
9B2
100
AcDbDictionary
281
     1
  0
XRECORD
  5
5F8
102
{ACAD_REACTORS
330
5F7
102
}
330
5F7
100
AcDbXrecord
280
     1
290
     1
  0
XRECORD
  5
CB
102
{ACAD_REACTORS
330
CA
102
}
330
CA
100
AcDbXrecord
280
     1
290
     1
  0
XRECORD
  5
D4
102
{ACAD_REACTORS
330
D3
102
}
330
D3
100
AcDbXrecord
280
     1
290
     1
  0
XRECORD
  5
F3
102
{ACAD_REACTORS
330
F2
102
}
330
F2
100
AcDbXrecord
280
     1
290
     1
  0
XRECORD
  5
151
102
{ACAD_REACTORS
330
150
102
}
330
150
100
AcDbXrecord
280
     1
290
     1
  0
XRECORD
  5
5FA
102
{ACAD_REACTORS
330
5F9
102
}
330
5F9
100
AcDbXrecord
280
     1
290
     1
  0
SORTENTSTABLE
  5
4B0
102
{ACAD_REACTORS
330
4AF
102
}
330
4AF
100
AcDbSortentsTable
330
67
  0
XRECORD
  5
1135
102
{ACAD_REACTORS
330
1134
102
}
330
1134
100
AcDbXrecord
280
     1
 40
6633.0
  1
P.C.D.\U+220530
  0
XRECORD
  5
1133
102
{ACAD_REACTORS
330
1132
102
}
330
1132
100
AcDbXrecord
280
     1
 40
4433.0
  1
3-120\U+00B0
  0
XRECORD
  5
1139
102
{ACAD_REACTORS
330
1138
102
}
330
1138
100
AcDbXrecord
280
     1
 40
4433.0
  1
3-120\U+00B0
  0
XRECORD
  5
1137
102
{ACAD_REACTORS
330
1136
102
}
330
1136
100
AcDbXrecord
280
     1
 40
2340.0
  1
\U+220530
  0
XRECORD
  5
113B
102
{ACAD_REACTORS
330
113A
102
}
330
113A
100
AcDbXrecord
280
     1
 40
6633.0
  1
P.C.D.\U+220530
  0
XRECORD
  5
113D
102
{ACAD_REACTORS
330
113C
102
}
330
113C
100
AcDbXrecord
280
     1
 40
38814.0
  1
3-M3\P有効深さ2
  0
XRECORD
  5
113F
102
{ACAD_REACTORS
330
113E
102
}
330
113E
100
AcDbXrecord
280
     1
 40
25527.0
  1
定格銘板
  0
XRECORD
  5
1141
102
{ACAD_REACTORS
330
1140
102
}
330
1140
100
AcDbXrecord
280
     1
 40
14711.0
  1
＋端子
  0
XRECORD
  5
1143
102
{ACAD_REACTORS
330
1142
102
}
330
1142
100
AcDbXrecord
280
     1
 40
46069.0
  1
3-M3\U+00D70.5 TAPPED HOLE\P(2mmMAX)
  0
XRECORD
  5
1145
102
{ACAD_REACTORS
330
1144
102
}
330
1144
100
AcDbXrecord
280
     1
 40
8671.0
  1
＋TERMINAL
  0
DIMASSOC
  5
8F5
102
{ACAD_REACTORS
330
8F4
102
}
330
8F4
100
AcDbDimAssoc
330
8E2
 90
       15
 70
     0
 71
     0
  1
AcDbOsnapPointRef
 72
    13
331
84C
 73
     2
 91
        0
 40
0.0
 10
0.0
 20
0.0
 30
2.000000000000000E+50
 75
     0
  1
AcDbOsnapPointRef
 72
     1
331
84C
 73
     2
 91
        0
 40
0.0
 10
0.0
 20
0.0
 30
2.000000000000000E+50
 75
     0
  1
AcDbOsnapPointRef
 72
    13
331
84F
 73
     2
 91
        0
 40
0.0
 10
0.0
 20
0.0
 30
2.000000000000000E+50
 75
     0
  1
AcDbOsnapPointRef
 72
     1
331
84F
 73
     2
 91
        0
 40
0.0
 10
0.0
 20
0.0
 30
2.000000000000000E+50
 75
     0
  0
DIMASSOC
  5
954
102
{ACAD_REACTORS
330
953
102
}
330
953
100
AcDbDimAssoc
330
94A
 90
        2
 70
     0
 71
     0
  1
AcDbOsnapPointRef
 72
     3
331
84A
 73
     2
 91
        0
 40
0.0
 10
0.0
 20
0.0
 30
0.0
 75
     0
  0
DICTIONARY
  5
FE3
102
{ACAD_REACTORS
330
FE2
102
}
330
FE2
100
AcDbDictionary
281
     1
  3
ACDB_ANNOTATIONSCALES
350
FE4
  0
XRECORD
  5
1101
102
{ACAD_REACTORS
330
1100
102
}
330
1100
100
AcDbXrecord
280
     1
 70
     1
  0
XRECORD
  5
1103
102
{ACAD_REACTORS
330
1100
102
}
330
1100
100
AcDbXrecord
280
     1
340
56
  0
XRECORD
  5
1104
102
{ACAD_REACTORS
330
1100
102
}
330
1100
100
AcDbXrecord
280
     1
340
56
  0
XRECORD
  5
1102
102
{ACAD_REACTORS
330
1100
102
}
330
1100
100
AcDbXrecord
280
     1
340
56
  0
LAYOUT
  5
6A
102
{ACAD_XDICTIONARY
360
112E
102
}
102
{ACAD_REACTORS
330
5D
102
}
330
5D
100
AcDbPlotSettings
  1

  2
KONICA MINOLTA 350_250_200 PCL.pc3
  4
A4
  6

 40
5.027082920074462
 41
5.027085781097412
 42
5.027069091796875
 43
5.027069091796875
 44
209.9733276367186
 45
296.9259948730469
 46
0.0
 47
0.0
 48
0.0
 49
0.0
140
0.0
141
0.0
142
1.0
143
0.9623596680413179
 70
 11952
 72
     1
 73
     1
 74
     0
  7

 75
     0
147
1.039112540985107
148
0.536273098375176
149
23.31610732142104
100
AcDbLayout
  1
Model
 70
     1
 71
     0
 10
0.0
 20
0.0
 11
12.0
 21
9.0
 12
0.0
 22
0.0
 32
0.0
 14
0.0
 24
0.0
 34
0.0
 15
0.0
 25
0.0
 35
0.0
146
0.0
 13
0.0
 23
0.0
 33
0.0
 16
1.0
 26
0.0
 36
0.0
 17
0.0
 27
1.0
 37
0.0
 76
     0
330
67
331
52
1001
ACAD_PSEXT
1000
KONICA MINOLTA 350_250_200 PCL.pc3
1000
KONICA MINOLTA 350/250/200 PCL
1000
IP_192.168.3.100
1000

1070
     0
  0
LAYOUT
  5
66
102
{ACAD_XDICTIONARY
360
112C
102
}
102
{ACAD_REACTORS
330
5D
102
}
330
5D
100
AcDbPlotSettings
  1

  2
C:\Documents and Settings\SSEGAWA\application data\autodesk\autocad mechanical 2010\r18.0\jpn\plotters\konica minolta 350_250_200 pcl.pc3
  4

  6

 40
0.0
 41
0.0
 42
0.0
 43
0.0
 44
0.0
 45
0.0
 46
0.0
 47
0.0
 48
0.0
 49
0.0
140
0.0
141
0.0
142
1.0
143
1.0
 70
   688
 72
     0
 73
     0
 74
     5
  7

 75
    16
147
1.0
148
0.0
149
0.0
100
AcDbLayout
  1
レイアウト1
 70
     1
 71
     1
 10
0.0
 20
0.0
 11
12.0
 21
9.0
 12
0.0
 22
0.0
 32
0.0
 14
1.000000000000000E+20
 24
1.000000000000000E+20
 34
1.000000000000000E+20
 15
-1.000000000000000E+20
 25
-1.000000000000000E+20
 35
-1.000000000000000E+20
146
0.0
 13
0.0
 23
0.0
 33
0.0
 16
1.0
 26
0.0
 36
0.0
 17
0.0
 27
1.0
 37
0.0
 76
     0
330
63
  0
LAYOUT
  5
6E
102
{ACAD_XDICTIONARY
360
1130
102
}
102
{ACAD_REACTORS
330
5D
102
}
330
5D
100
AcDbPlotSettings
  1

  2
C:\Documents and Settings\SSEGAWA\application data\autodesk\autocad mechanical 2010\r18.0\jpn\plotters\konica minolta 350_250_200 pcl.pc3
  4

  6

 40
0.0
 41
0.0
 42
0.0
 43
0.0
 44
0.0
 45
0.0
 46
0.0
 47
0.0
 48
0.0
 49
0.0
140
0.0
141
0.0
142
1.0
143
1.0
 70
   688
 72
     0
 73
     0
 74
     5
  7

 75
    16
147
1.0
148
0.0
149
0.0
100
AcDbLayout
  1
レイアウト2
 70
     1
 71
     2
 10
0.0
 20
0.0
 11
12.0
 21
9.0
 12
0.0
 22
0.0
 32
0.0
 14
0.0
 24
0.0
 34
0.0
 15
0.0
 25
0.0
 35
0.0
146
0.0
 13
0.0
 23
0.0
 33
0.0
 16
1.0
 26
0.0
 36
0.0
 17
0.0
 27
1.0
 37
0.0
 76
     0
330
6B
  0
MATERIAL
  5
19
102
{ACAD_XDICTIONARY
360
1A
102
}
102
{ACAD_REACTORS
330
10
102
}
330
10
100
AcDbMaterial
  1
ByBlock
 72
     0
 43
0.0208333333333333
 43
0.0
 43
0.0
 43
0.0
 43
0.0
 43
0.0208333333333333
 43
0.0
 43
0.0
 43
0.0
 43
0.0
 43
1.0
 43
0.0
 43
0.0
 43
0.0
 43
0.0
 43
1.0
 77
     0
 47
0.0208333333333333
 47
0.0
 47
0.0
 47
0.0
 47
0.0
 47
0.0208333333333333
 47
0.0
 47
0.0
 47
0.0
 47
0.0
 47
1.0
 47
0.0
 47
0.0
 47
0.0
 47
0.0
 47
1.0
171
     0
 49
0.0208333333333333
 49
0.0
 49
0.0
 49
0.0
 49
0.0
 49
0.0208333333333333
 49
0.0
 49
0.0
 49
0.0
 49
0.0
 49
1.0
 49
0.0
 49
0.0
 49
0.0
 49
0.0
 49
1.0
175
     0
142
0.0208333333333333
142
0.0
142
0.0
142
0.0
142
0.0
142
0.0208333333333333
142
0.0
142
0.0
142
0.0
142
0.0
142
1.0
142
0.0
142
0.0
142
0.0
142
0.0
142
1.0
179
     0
144
0.0208333333333333
144
0.0
144
0.0
144
0.0
144
0.0
144
0.0208333333333333
144
0.0
144
0.0
144
0.0
144
0.0
144
1.0
144
0.0
144
0.0
144
0.0
144
0.0
144
1.0
147
0.0208333333333333
147
0.0
147
0.0
147
0.0
147
0.0
147
0.0208333333333333
147
0.0
147
0.0
147
0.0
147
0.0
147
1.0
147
0.0
147
0.0
147
0.0
147
0.0
147
1.0
  0
MATERIAL
  5
11
102
{ACAD_XDICTIONARY
360
12
102
}
102
{ACAD_REACTORS
330
10
102
}
330
10
100
AcDbMaterial
  1
ByLayer
 72
     0
 43
0.0208333333333333
 43
0.0
 43
0.0
 43
0.0
 43
0.0
 43
0.0208333333333333
 43
0.0
 43
0.0
 43
0.0
 43
0.0
 43
1.0
 43
0.0
 43
0.0
 43
0.0
 43
0.0
 43
1.0
 77
     0
 47
0.0208333333333333
 47
0.0
 47
0.0
 47
0.0
 47
0.0
 47
0.0208333333333333
 47
0.0
 47
0.0
 47
0.0
 47
0.0
 47
1.0
 47
0.0
 47
0.0
 47
0.0
 47
0.0
 47
1.0
171
     0
 49
0.0208333333333333
 49
0.0
 49
0.0
 49
0.0
 49
0.0
 49
0.0208333333333333
 49
0.0
 49
0.0
 49
0.0
 49
0.0
 49
1.0
 49
0.0
 49
0.0
 49
0.0
 49
0.0
 49
1.0
175
     0
142
0.0208333333333333
142
0.0
142
0.0
142
0.0
142
0.0
142
0.0208333333333333
142
0.0
142
0.0
142
0.0
142
0.0
142
1.0
142
0.0
142
0.0
142
0.0
142
0.0
142
1.0
179
     0
144
0.0208333333333333
144
0.0
144
0.0
144
0.0
144
0.0
144
0.0208333333333333
144
0.0
144
0.0
144
0.0
144
0.0
144
1.0
144
0.0
144
0.0
144
0.0
144
0.0
144
1.0
147
0.0208333333333333
147
0.0
147
0.0
147
0.0
147
0.0
147
0.0208333333333333
147
0.0
147
0.0
147
0.0
147
0.0
147
1.0
147
0.0
147
0.0
147
0.0
147
0.0
147
1.0
  0
MATERIAL
  5
21
102
{ACAD_XDICTIONARY
360
22
102
}
102
{ACAD_REACTORS
330
10
102
}
330
10
100
AcDbMaterial
  1
Global
 72
     0
 43
0.0208333333333333
 43
0.0
 43
0.0
 43
0.0
 43
0.0
 43
0.0208333333333333
 43
0.0
 43
0.0
 43
0.0
 43
0.0
 43
1.0
 43
0.0
 43
0.0
 43
0.0
 43
0.0
 43
1.0
 77
     0
 47
0.0208333333333333
 47
0.0
 47
0.0
 47
0.0
 47
0.0
 47
0.0208333333333333
 47
0.0
 47
0.0
 47
0.0
 47
0.0
 47
1.0
 47
0.0
 47
0.0
 47
0.0
 47
0.0
 47
1.0
171
     0
 49
0.0208333333333333
 49
0.0
 49
0.0
 49
0.0
 49
0.0
 49
0.0208333333333333
 49
0.0
 49
0.0
 49
0.0
 49
0.0
 49
1.0
 49
0.0
 49
0.0
 49
0.0
 49
0.0
 49
1.0
175
     0
142
0.0208333333333333
142
0.0
142
0.0
142
0.0
142
0.0
142
0.0208333333333333
142
0.0
142
0.0
142
0.0
142
0.0
142
1.0
142
0.0
142
0.0
142
0.0
142
0.0
142
1.0
179
     0
144
0.0208333333333333
144
0.0
144
0.0
144
0.0
144
0.0
144
0.0208333333333333
144
0.0
144
0.0
144
0.0
144
0.0
144
1.0
144
0.0
144
0.0
144
0.0
144
0.0
144
1.0
147
0.0208333333333333
147
0.0
147
0.0
147
0.0
147
0.0
147
0.0208333333333333
147
0.0
147
0.0
147
0.0
147
0.0
147
1.0
147
0.0
147
0.0
147
0.0
147
0.0
147
1.0
  0
MLEADERSTYLE
  5
62
102
{ACAD_REACTORS
330
61
102
}
330
61
100
AcDbMLeaderStyle
170
     2
171
     1
172
     0
 90
        2
 40
0.0
 41
0.0
173
     1
 91
-1056964608
340
56
 92
       -2
290
     1
 42
0.09
291
     1
 43
0.36
  3
Standard
 44
0.18
300

342
50
174
     1
178
     6
175
     1
176
     0
 93
-1056964608
 45
0.18
292
     0
297
     0
 46
0.18
 94
-1056964608
 47
1.0
 49
1.0
140
1.0
293
     1
141
0.0
294
     1
177
     0
142
1.0
295
     0
296
     0
143
0.125
1001
ACAD_MLEADERVER
1070
     2
  0
MLINESTYLE
  5
5B
102
{ACAD_REACTORS
330
5A
102
}
330
5A
100
AcDbMlineStyle
  2
STANDARD
 70
     0
  3

 62
   256
 51
90.0
 52
90.0
 71
     2
 49
0.5
 62
   256
  6
BYLAYER
 49
-0.5
 62
   256
  6
BYLAYER
  0
ACDBPLACEHOLDER
  5
F
102
{ACAD_REACTORS
330
E
102
}
330
E
  0
SCALE
  5
B6
102
{ACAD_REACTORS
330
3D
102
}
330
3D
100
AcDbScale
 70
     0
300
1.5:1
140
1.5
141
1.0
290
     0
  0
SCALE
  5
BD
102
{ACAD_REACTORS
330
3D
102
}
330
3D
100
AcDbScale
 70
     0
300
1/8" = 1'-0"
140
0.125
141
12.0
290
     0
  0
SCALE
  5
BE
102
{ACAD_REACTORS
330
3D
102
}
330
3D
100
AcDbScale
 70
     0
300
3/16" = 1'-0"
140
0.1875
141
12.0
290
     0
  0
SCALE
  5
BF
102
{ACAD_REACTORS
330
3D
102
}
330
3D
100
AcDbScale
 70
     0
300
1/4" = 1'-0"
140
0.25
141
12.0
290
     0
  0
SCALE
  5
C0
102
{ACAD_REACTORS
330
3D
102
}
330
3D
100
AcDbScale
 70
     0
300
3/8" = 1'-0"
140
0.375
141
12.0
290
     0
  0
SCALE
  5
C1
102
{ACAD_REACTORS
330
3D
102
}
330
3D
100
AcDbScale
 70
     0
300
1/2" = 1'-0"
140
0.5
141
12.0
290
     0
  0
SCALE
  5
C2
102
{ACAD_REACTORS
330
3D
102
}
330
3D
100
AcDbScale
 70
     0
300
3/4" = 1'-0"
140
0.75
141
12.0
290
     0
  0
SCALE
  5
C3
102
{ACAD_REACTORS
330
3D
102
}
330
3D
100
AcDbScale
 70
     0
300
1" = 1'-0"
140
1.0
141
12.0
290
     0
  0
SCALE
  5
C4
102
{ACAD_REACTORS
330
3D
102
}
330
3D
100
AcDbScale
 70
     0
300
1-1/2" = 1'-0"
140
1.5
141
12.0
290
     0
  0
SCALE
  5
C5
102
{ACAD_REACTORS
330
3D
102
}
330
3D
100
AcDbScale
 70
     0
300
3" = 1'-0"
140
3.0
141
12.0
290
     0
  0
SCALE
  5
C6
102
{ACAD_REACTORS
330
3D
102
}
330
3D
100
AcDbScale
 70
     0
300
6" = 1'-0"
140
6.0
141
12.0
290
     0
  0
SCALE
  5
C7
102
{ACAD_REACTORS
330
3D
102
}
330
3D
100
AcDbScale
 70
     0
300
1'-0" = 1'-0"
140
12.0
141
12.0
290
     0
  0
SCALE
  5
B7
102
{ACAD_REACTORS
330
3D
102
}
330
3D
100
AcDbScale
 70
     0
300
1.25:1
140
1.25
141
1.0
290
     0
  0
SCALE
  5
B8
102
{ACAD_REACTORS
330
3D
102
}
330
3D
100
AcDbScale
 70
     0
300
1/128" = 1'-0"
140
0.0078125
141
12.0
290
     0
  0
SCALE
  5
B9
102
{ACAD_REACTORS
330
3D
102
}
330
3D
100
AcDbScale
 70
     0
300
1/64" = 1'-0"
140
0.015625
141
12.0
290
     0
  0
SCALE
  5
BA
102
{ACAD_REACTORS
330
3D
102
}
330
3D
100
AcDbScale
 70
     0
300
1/32" = 1'-0"
140
0.03125
141
12.0
290
     0
  0
SCALE
  5
BB
102
{ACAD_REACTORS
330
3D
102
}
330
3D
100
AcDbScale
 70
     0
300
1/16" = 1'-0"
140
0.0625
141
12.0
290
     0
  0
SCALE
  5
BC
102
{ACAD_REACTORS
330
3D
102
}
330
3D
100
AcDbScale
 70
     0
300
3/32" = 1'-0"
140
0.09375
141
12.0
290
     0
  0
SCALE
  5
3E
102
{ACAD_REACTORS
330
3D
102
}
330
3D
100
AcDbScale
 70
     0
300
1:1
140
1.0
141
1.0
290
     1
  0
SCALE
  5
3F
102
{ACAD_REACTORS
330
3D
102
}
330
3D
100
AcDbScale
 70
     0
300
1:2
140
1.0
141
2.0
290
     0
  0
SCALE
  5
40
102
{ACAD_REACTORS
330
3D
102
}
330
3D
100
AcDbScale
 70
     0
300
1:4
140
1.0
141
4.0
290
     0
  0
SCALE
  5
41
102
{ACAD_REACTORS
330
3D
102
}
330
3D
100
AcDbScale
 70
     0
300
1:5
140
1.0
141
5.0
290
     0
  0
SCALE
  5
42
102
{ACAD_REACTORS
330
3D
102
}
330
3D
100
AcDbScale
 70
     0
300
1:8
140
1.0
141
8.0
290
     0
  0
SCALE
  5
43
102
{ACAD_REACTORS
330
3D
102
}
330
3D
100
AcDbScale
 70
     0
300
1:10
140
1.0
141
10.0
290
     0
  0
SCALE
  5
44
102
{ACAD_REACTORS
330
3D
102
}
330
3D
100
AcDbScale
 70
     0
300
1:16
140
1.0
141
16.0
290
     0
  0
SCALE
  5
45
102
{ACAD_REACTORS
330
3D
102
}
330
3D
100
AcDbScale
 70
     0
300
1:20
140
1.0
141
20.0
290
     0
  0
SCALE
  5
46
102
{ACAD_REACTORS
330
3D
102
}
330
3D
100
AcDbScale
 70
     0
300
1:30
140
1.0
141
30.0
290
     0
  0
SCALE
  5
47
102
{ACAD_REACTORS
330
3D
102
}
330
3D
100
AcDbScale
 70
     0
300
1:40
140
1.0
141
40.0
290
     0
  0
SCALE
  5
48
102
{ACAD_REACTORS
330
3D
102
}
330
3D
100
AcDbScale
 70
     0
300
1:50
140
1.0
141
50.0
290
     0
  0
SCALE
  5
49
102
{ACAD_REACTORS
330
3D
102
}
330
3D
100
AcDbScale
 70
     0
300
1:100
140
1.0
141
100.0
290
     0
  0
SCALE
  5
4A
102
{ACAD_REACTORS
330
3D
102
}
330
3D
100
AcDbScale
 70
     0
300
2:1
140
2.0
141
1.0
290
     0
  0
SCALE
  5
4B
102
{ACAD_REACTORS
330
3D
102
}
330
3D
100
AcDbScale
 70
     0
300
4:1
140
4.0
141
1.0
290
     0
  0
SCALE
  5
4C
102
{ACAD_REACTORS
330
3D
102
}
330
3D
100
AcDbScale
 70
     0
300
8:1
140
8.0
141
1.0
290
     0
  0
SCALE
  5
4D
102
{ACAD_REACTORS
330
3D
102
}
330
3D
100
AcDbScale
 70
     0
300
10:1
140
10.0
141
1.0
290
     0
  0
SCALE
  5
4E
102
{ACAD_REACTORS
330
3D
102
}
330
3D
100
AcDbScale
 70
     0
300
100:1
140
100.0
141
1.0
290
     0
  0
TABLESTYLE
  5
60
102
{ACAD_XDICTIONARY
360
607
102
}
102
{ACAD_REACTORS
330
5F
102
}
330
5F
100
AcDbTableStyle
  3
Standard
 70
     0
 71
     3
 40
1.5
 41
1.5
280
     0
281
     0
  7
STANDARD
140
4.5
170
     2
 62
     0
 63
     7
283
     0
274
    -2
284
     1
 64
     0
275
    -2
285
     1
 65
     0
276
    -2
286
     1
 66
     0
277
    -2
287
     1
 67
     0
278
    -2
288
     1
 68
     0
279
    -2
289
     1
 69
     0
  7
STANDARD
140
6.0
170
     5
 62
     0
 63
     7
283
     0
274
    -2
284
     1
 64
     0
275
    -2
285
     1
 65
     0
276
    -2
286
     1
 66
     0
277
    -2
287
     1
 67
     0
278
    -2
288
     1
 68
     0
279
    -2
289
     1
 69
     0
  7
STANDARD
140
4.5
170
     5
 62
     0
 63
     7
283
     0
274
    -2
284
     1
 64
     0
275
    -2
285
     1
 65
     0
276
    -2
286
     1
 66
     0
277
    -2
287
     1
 67
     0
278
    -2
288
     1
 68
     0
279
    -2
289
     1
 69
     0
  0
VISUALSTYLE
  5
2F
102
{ACAD_XDICTIONARY
360
110F
102
}
102
{ACAD_REACTORS
330
29
102
}
330
29
100
AcDbVisualStyle
  2

 70
     4
 71
     0
 72
     2
 73
     0
 90
        0
 40
-0.6
 41
-30.0
 62
     5
 63
     7
 74
     1
 91
        4
 64
     7
 65
   257
 75
     1
175
     1
 42
1.0
 92
        0
 66
   257
 43
1.0
 76
     1
 77
     6
 78
     2
 67
     7
 79
     5
170
     0
171
     0
290
     0
174
     0
 93
        1
 44
0.0
173
     0
291
     0
 45
0.0
1001
ACAD
1000
AcDbSavedByObjectVersion
1070
     0
  0
VISUALSTYLE
  5
31
102
{ACAD_XDICTIONARY
360
1113
102
}
102
{ACAD_REACTORS
330
29
102
}
330
29
100
AcDbVisualStyle
  2

 70
     6
 71
     1
 72
     2
 73
     2
 90
        0
 40
-0.6
 41
-30.0
 62
     5
 63
     7
 74
     2
 91
        2
 64
     7
 65
   257
 75
     2
175
     1
 42
179.0
 92
        0
 66
   257
 43
1.0
 76
     1
 77
     6
 78
     2
 67
     7
 79
     3
170
     0
171
     0
290
     0
174
     0
 93
        1
 44
0.0
173
     0
291
     0
 45
0.0
1001
ACAD
1000
AcDbSavedByObjectVersion
1070
     0
  0
VISUALSTYLE
  5
30
102
{ACAD_XDICTIONARY
360
1111
102
}
102
{ACAD_REACTORS
330
29
102
}
330
29
100
AcDbVisualStyle
  2

 70
     5
 71
     0
 72
     2
 73
     0
 90
        0
 40
-0.6
 41
-30.0
 62
     5
 63
     7
 74
     1
 91
        4
 64
     7
 65
   257
 75
     1
175
     1
 42
1.0
 92
        0
 66
   257
 43
1.0
 76
     1
 77
     6
 78
     2
 67
     7
 79
     5
170
     0
171
     0
290
     0
174
     0
 93
        1
 44
0.0
173
     0
291
     0
 45
0.0
1001
ACAD
1000
AcDbSavedByObjectVersion
1070
     0
  0
VISUALSTYLE
  5
2E
102
{ACAD_XDICTIONARY
360
110D
102
}
102
{ACAD_REACTORS
330
29
102
}
330
29
100
AcDbVisualStyle
  2

 70
     7
 71
     1
 72
     0
 73
     1
 90
        0
 40
-0.6
 41
-30.0
 62
     5
 63
     7
 74
     0
 91
        4
 64
     7
 65
   257
 75
     1
175
     1
 42
1.0
 92
        8
 66
     7
 43
1.0
 76
     1
 77
     6
 78
     2
 67
     7
 79
     5
170
     0
171
     0
290
     0
174
     0
 93
        1
 44
0.0
173
     0
291
     1
 45
0.0
1001
ACAD
1000
AcDbSavedByObjectVersion
1070
     0
  0
VISUALSTYLE
  5
35
102
{ACAD_XDICTIONARY
360
111B
102
}
102
{ACAD_REACTORS
330
29
102
}
330
29
100
AcDbVisualStyle
  2

 70
    12
 71
     2
 72
     2
 73
     0
 90
        0
 40
-0.6
 41
-30.0
 62
     5
 63
     7
 74
     1
 91
        4
 64
     7
 65
   257
 75
     1
175
     1
 42
1.0
 92
        8
 66
     7
 43
1.0
 76
     1
 77
     6
 78
     2
 67
     7
 79
     5
170
     0
171
     0
290
     0
174
     0
 93
        1
 44
50.0
173
     0
291
     1
 45
0.0
1001
ACAD
1000
AcDbSavedByObjectVersion
1070
     0
  0
VISUALSTYLE
  5
39
102
{ACAD_XDICTIONARY
360
1123
102
}
102
{ACAD_REACTORS
330
29
102
}
330
29
100
AcDbVisualStyle
  2

 70
    16
 71
     2
 72
     2
 73
     3
 90
        0
 40
-0.6
 41
-30.0
 62
     5
 63
     8
 74
     1
 91
        4
 64
     7
 65
   257
 75
     1
175
     1
 42
1.0
 92
        8
 66
     8
 43
1.0
 76
     1
 77
     6
 78
     2
 67
     7
 79
     5
170
     0
171
     0
290
     0
174
     0
 93
        1
 44
0.0
173
     0
291
     1
 45
0.0
1001
ACAD
1000
AcDbSavedByObjectVersion
1070
     0
  0
VISUALSTYLE
  5
32
102
{ACAD_XDICTIONARY
360
1115
102
}
102
{ACAD_REACTORS
330
29
102
}
330
29
100
AcDbVisualStyle
  2

 70
     9
 71
     3
 72
     2
 73
     0
 90
        0
 40
-0.6
 41
-30.0
 62
     5
 63
     7
 74
     2
 91
        2
 64
     7
 65
   257
 75
     1
175
     1
 42
179.0
 92
        8
 66
     7
 43
1.0
 76
     1
 77
     6
 78
     2
 67
     7
 79
     3
170
     0
171
     0
290
     0
174
     0
 93
        1
 44
0.0
173
     0
291
     0
 45
0.0
1001
ACAD
1000
AcDbSavedByObjectVersion
1070
     0
  0
VISUALSTYLE
  5
34
102
{ACAD_XDICTIONARY
360
1119
102
}
102
{ACAD_REACTORS
330
29
102
}
330
29
100
AcDbVisualStyle
  2

 70
    11
 71
     2
 72
     2
 73
     0
 90
        0
 40
-0.6
 41
-30.0
 62
     5
 63
     7
 74
     1
 91
        4
 64
     7
 65
   257
 75
     1
175
     1
 42
1.0
 92
        8
 66
     7
 43
1.0
 76
     1
 77
     6
 78
     2
 67
     7
 79
     5
170
     0
171
     0
290
     0
174
     0
 93
        1
 44
-50.0
173
     0
291
     1
 45
0.0
1001
ACAD
1000
AcDbSavedByObjectVersion
1070
     0
  0
VISUALSTYLE
  5
3C
102
{ACAD_XDICTIONARY
360
1129
102
}
102
{ACAD_REACTORS
330
29
102
}
330
29
100
AcDbVisualStyle
  2

 70
    22
 71
     2
 72
     2
 73
     0
 90
        0
 40
-0.6
 41
-30.0
 62
     5
 63
     7
 74
     1
 91
        4
 64
     7
 65
   257
 75
     1
175
     1
 42
1.0
 92
        8
 66
     7
 43
1.0
 76
     1
 77
     6
 78
     2
 67
     7
 79
     5
170
     0
171
     0
290
     0
174
     0
 93
        1
 44
0.0
173
     0
291
     1
 45
0.0
1001
ACAD
1000
AcDbSavedByObjectVersion
1070
     0
  0
VISUALSTYLE
  5
38
102
{ACAD_XDICTIONARY
360
1121
102
}
102
{ACAD_REACTORS
330
29
102
}
330
29
100
AcDbVisualStyle
  2

 70
    15
 71
     2
 72
     2
 73
     0
 90
        0
 40
-0.6
 41
-30.0
 62
     5
 63
     7
 74
     1
 91
        4
 64
     7
 65
   257
 75
     1
175
     1
 42
1.0
 92
        8
 66
     7
 43
1.0
 76
     1
 77
     6
 78
     2
 67
     7
 79
     5
170
     0
171
     0
290
     0
174
     0
 93
        1
 44
0.0
173
     0
291
     1
 45
0.0
1001
ACAD
1000
AcDbSavedByObjectVersion
1070
     0
  0
VISUALSTYLE
  5
2A
102
{ACAD_XDICTIONARY
360
1105
102
}
102
{ACAD_REACTORS
330
29
102
}
330
29
100
AcDbVisualStyle
  2

 70
     0
 71
     2
 72
     1
 73
     1
 90
        2
 40
-0.6
 41
30.0
 62
     5
 63
     7
 74
     0
 91
        4
 64
     7
 65
   257
 75
     1
175
     1
 42
1.0
 92
        8
 66
     7
 43
1.0
 76
     1
 77
     6
 78
     2
 67
     7
 79
     5
170
     0
171
     0
290
     0
174
     0
 93
       13
 44
0.0
173
     0
291
     1
 45
0.0
1001
ACAD
1000
AcDbSavedByObjectVersion
1070
     0
  0
VISUALSTYLE
  5
2B
102
{ACAD_XDICTIONARY
360
1107
102
}
102
{ACAD_REACTORS
330
29
102
}
330
29
100
AcDbVisualStyle
  2

 70
     1
 71
     2
 72
     1
 73
     1
 90
        2
 40
-0.6
 41
30.0
 62
     5
 63
     7
 74
     1
 91
        4
 64
     7
 65
   257
 75
     1
175
     1
 42
1.0
 92
        0
 66
   257
 43
1.0
 76
     1
 77
     6
 78
     2
 67
     7
 79
     5
170
     0
171
     0
290
     0
174
     0
 93
       13
 44
0.0
173
     0
291
     1
 45
0.0
1001
ACAD
1000
AcDbSavedByObjectVersion
1070
     0
  0
VISUALSTYLE
  5
2C
102
{ACAD_XDICTIONARY
360
1109
102
}
102
{ACAD_REACTORS
330
29
102
}
330
29
100
AcDbVisualStyle
  2

 70
     2
 71
     2
 72
     2
 73
     1
 90
        2
 40
-0.6
 41
30.0
 62
     5
 63
     7
 74
     0
 91
        4
 64
     7
 65
   257
 75
     1
175
     1
 42
1.0
 92
        0
 66
     7
 43
1.0
 76
     1
 77
     6
 78
     2
 67
     7
 79
     5
170
     0
171
     0
290
     0
174
     0
 93
       13
 44
0.0
173
     0
291
     1
 45
0.0
1001
ACAD
1000
AcDbSavedByObjectVersion
1070
     0
  0
VISUALSTYLE
  5
2D
102
{ACAD_XDICTIONARY
360
110B
102
}
102
{ACAD_REACTORS
330
29
102
}
330
29
100
AcDbVisualStyle
  2

 70
     3
 71
     2
 72
     2
 73
     1
 90
        2
 40
-0.6
 41
30.0
 62
     5
 63
     7
 74
     1
 91
        4
 64
     7
 65
   257
 75
     1
175
     1
 42
1.0
 92
        0
 66
   257
 43
1.0
 76
     1
 77
     6
 78
     2
 67
     7
 79
     5
170
     0
171
     0
290
     0
174
     0
 93
       13
 44
0.0
173
     0
291
     1
 45
0.0
1001
ACAD
1000
AcDbSavedByObjectVersion
1070
     0
  0
VISUALSTYLE
  5
3A
102
{ACAD_XDICTIONARY
360
1125
102
}
102
{ACAD_REACTORS
330
29
102
}
330
29
100
AcDbVisualStyle
  2

 70
    20
 71
     2
 72
     2
 73
     0
 90
        0
 40
-0.6
 41
-30.0
 62
     5
 63
     7
 74
     1
 91
        4
 64
     7
 65
   257
 75
     1
175
     1
 42
1.0
 92
       10
 66
     7
 43
1.0
 76
     1
 77
     6
 78
     2
 67
     7
 79
     5
170
     0
171
     0
290
     0
174
     0
 93
        1
 44
0.0
173
     0
291
     1
 45
0.0
1001
ACAD
1000
AcDbSavedByObjectVersion
1070
     0
  0
VISUALSTYLE
  5
37
102
{ACAD_XDICTIONARY
360
111F
102
}
102
{ACAD_REACTORS
330
29
102
}
330
29
100
AcDbVisualStyle
  2

 70
    14
 71
     2
 72
     2
 73
     0
 90
        0
 40
-0.6
 41
-30.0
 62
     5
 63
     7
 74
     1
 91
        4
 64
     7
 65
   257
 75
     7
175
     7
 42
1.0
 92
        8
 66
     7
 43
1.0
 76
     1
 77
     6
 78
     2
 67
     7
 79
     5
170
     0
171
     0
290
     0
174
     0
 93
        1
 44
0.0
173
     0
291
     1
 45
0.0
1001
ACAD
1000
AcDbSavedByObjectVersion
1070
     0
  0
VISUALSTYLE
  5
3B
102
{ACAD_XDICTIONARY
360
1127
102
}
102
{ACAD_REACTORS
330
29
102
}
330
29
100
AcDbVisualStyle
  2

 70
    21
 71
     2
 72
     2
 73
     0
 90
        0
 40
-0.6
 41
-30.0
 62
     5
 63
     7
 74
     1
 91
        4
 64
     7
 65
   257
 75
     1
175
     1
 42
1.0
 92
        9
 66
     7
 43
1.0
 76
     1
 77
     6
 78
     2
 67
     7
 79
     5
170
     0
171
     0
290
     0
174
     0
 93
        1
 44
0.0
173
     0
291
     1
 45
0.0
1001
ACAD
1000
AcDbSavedByObjectVersion
1070
     0
  0
VISUALSTYLE
  5
33
102
{ACAD_XDICTIONARY
360
1117
102
}
102
{ACAD_REACTORS
330
29
102
}
330
29
100
AcDbVisualStyle
  2

 70
     8
 71
     2
 72
     2
 73
     0
 90
        0
 40
-0.6
 41
-30.0
 62
     5
 63
     7
 74
     1
 91
        0
 64
     7
 65
   257
 75
     1
175
     1
 42
1.0
 92
        8
 66
     8
 43
1.0
 76
     1
 77
     6
 78
     2
 67
     7
 79
     5
170
     0
171
     0
290
     0
174
     0
 93
       13
 44
0.0
173
     0
291
     0
 45
0.0
1001
ACAD
1000
AcDbSavedByObjectVersion
1070
     0
  0
VISUALSTYLE
  5
36
102
{ACAD_XDICTIONARY
360
111D
102
}
102
{ACAD_REACTORS
330
29
102
}
330
29
100
AcDbVisualStyle
  2

 70
    13
 71
     2
 72
     2
 73
     0
 90
        0
 40
-0.6
 41
-30.0
 62
     5
 63
     7
 74
     1
 91
        4
 64
     7
 65
   257
 75
     1
175
     1
 42
1.0
 92
       12
 66
     7
 43
1.0
 76
     1
 77
     6
 78
     2
 67
     7
 79
     5
170
     0
171
     0
290
     0
174
     0
 93
        1
 44
0.0
173
     0
291
     1
 45
0.0
1001
ACAD
1000
AcDbSavedByObjectVersion
1070
     0
  0
DICTIONARYVAR
  5
536
102
{ACAD_REACTORS
330
532
102
}
330
532
100
DictionaryVariables
280
     0
  1
1
  0
DICTIONARYVAR
  5
537
102
{ACAD_REACTORS
330
532
102
}
330
532
100
DictionaryVariables
280
     0
  1
1:1
  0
DICTIONARYVAR
  5
534
102
{ACAD_REACTORS
330
532
102
}
330
532
100
DictionaryVariables
280
     0
  1
STANDARD
  0
DICTIONARYVAR
  5
533
102
{ACAD_REACTORS
330
532
102
}
330
532
100
DictionaryVariables
280
     0
  1
STANDARD
  0
DICTIONARYVAR
  5
606
102
{ACAD_REACTORS
330
532
102
}
330
532
100
DictionaryVariables
280
     0
  1
2
  0
DICTIONARYVAR
  5
604
102
{ACAD_REACTORS
330
532
102
}
330
532
100
DictionaryVariables
280
     0
  1
1
  0
DICTIONARYVAR
  5
603
102
{ACAD_REACTORS
330
532
102
}
330
532
100
DictionaryVariables
280
     0
  1
0
  0
DICTIONARYVAR
  5
539
102
{ACAD_REACTORS
330
532
102
}
330
532
100
DictionaryVariables
280
     0
  1
1
  0
DICTIONARYVAR
  5
53A
102
{ACAD_REACTORS
330
532
102
}
330
532
100
DictionaryVariables
280
     0
  1
15
  0
DICTIONARYVAR
  5
538
102
{ACAD_REACTORS
330
532
102
}
330
532
100
DictionaryVariables
280
     0
  1
0
  0
DICTIONARYVAR
  5
535
102
{ACAD_REACTORS
330
532
102
}
330
532
100
DictionaryVariables
280
     0
  1
0
  0
DICTIONARYVAR
  5
602
102
{ACAD_REACTORS
330
532
102
}
330
532
100
DictionaryVariables
280
     0
  1
127
  0
DICTIONARYVAR
  5
10FC
102
{ACAD_REACTORS
330
532
102
}
330
532
100
DictionaryVariables
280
     0
  1
2
  0
DICTIONARY
  5
59D
102
{ACAD_REACTORS
330
590
102
}
330
590
100
AcDbDictionary
281
     1
  0
XRECORD
  5
531
102
{ACAD_REACTORS
330
52F
102
}
330
52F
100
AcDbXrecord
280
     1
330
31E
330
31F
330
330
330
331
330
4B5
330
4B6
330
4BD
330
4BE
330
4CA
330
4CB
330
4D3
330
4D4
330
4DE
330
4DF
330
4E9
330
4EA
330
4F2
330
4F3
330
4FB
330
4FC
330
504
330
505
330
50D
330
50E
330
516
330
517
330
51F
330
520
330
528
330
529
  0
DICTIONARY
  5
FE4
102
{ACAD_REACTORS
330
FE3
102
}
330
FE3
100
AcDbDictionary
281
     1
  0
DICTIONARY
  5
112E
330
6A
100
AcDbDictionary
280
     1
281
     1
  3
ACAD_XREC_ROUNDTRIP
360
112F
  0
DICTIONARY
  5
112C
330
66
100
AcDbDictionary
280
     1
281
     1
  3
ACAD_XREC_ROUNDTRIP
360
112D
  0
DICTIONARY
  5
1130
330
6E
100
AcDbDictionary
280
     1
281
     1
  3
ACAD_XREC_ROUNDTRIP
360
1131
  0
DICTIONARY
  5
1A
330
19
100
AcDbDictionary
280
     1
281
     1
  3
ACAD_XREC_ROUNDTRIP
360
611
  3
BUMPTILE
360
1C
  3
DIFFUSETILE
360
1B
  3
OPACITYTILE
360
1F
  3
REFLECTIONTILE
360
1E
  3
REFRACTIONTILE
360
20
  3
SPECULARTILE
360
1D
  0
DICTIONARY
  5
12
330
11
100
AcDbDictionary
280
     1
281
     1
  3
ACAD_XREC_ROUNDTRIP
360
610
  3
BUMPTILE
360
14
  3
DIFFUSETILE
360
13
  3
OPACITYTILE
360
17
  3
REFLECTIONTILE
360
16
  3
REFRACTIONTILE
360
18
  3
SPECULARTILE
360
15
  0
DICTIONARY
  5
22
330
21
100
AcDbDictionary
280
     1
281
     1
  3
ACAD_XREC_ROUNDTRIP
360
612
  3
BUMPTILE
360
24
  3
DIFFUSETILE
360
23
  3
OPACITYTILE
360
27
  3
REFLECTIONTILE
360
26
  3
REFRACTIONTILE
360
28
  3
SPECULARTILE
360
25
  0
DICTIONARY
  5
607
330
60
100
AcDbDictionary
280
     1
281
     1
  3
ACAD_ROUNDTRIP_2008_TABLESTYLE_CELLSTYLEMAP
360
10FD
  3
ACAD_XREC_ROUNDTRIP
360
112B
  0
DICTIONARY
  5
110F
330
2F
100
AcDbDictionary
280
     1
281
     1
  3
ACAD_XREC_ROUNDTRIP
360
1110
  0
DICTIONARY
  5
1113
330
31
100
AcDbDictionary
280
     1
281
     1
  3
ACAD_XREC_ROUNDTRIP
360
1114
  0
DICTIONARY
  5
1111
330
30
100
AcDbDictionary
280
     1
281
     1
  3
ACAD_XREC_ROUNDTRIP
360
1112
  0
DICTIONARY
  5
110D
330
2E
100
AcDbDictionary
280
     1
281
     1
  3
ACAD_XREC_ROUNDTRIP
360
110E
  0
DICTIONARY
  5
111B
330
35
100
AcDbDictionary
280
     1
281
     1
  3
ACAD_XREC_ROUNDTRIP
360
111C
  0
DICTIONARY
  5
1123
330
39
100
AcDbDictionary
280
     1
281
     1
  3
ACAD_XREC_ROUNDTRIP
360
1124
  0
DICTIONARY
  5
1115
330
32
100
AcDbDictionary
280
     1
281
     1
  3
ACAD_XREC_ROUNDTRIP
360
1116
  0
DICTIONARY
  5
1119
330
34
100
AcDbDictionary
280
     1
281
     1
  3
ACAD_XREC_ROUNDTRIP
360
111A
  0
DICTIONARY
  5
1129
330
3C
100
AcDbDictionary
280
     1
281
     1
  3
ACAD_XREC_ROUNDTRIP
360
112A
  0
DICTIONARY
  5
1121
330
38
100
AcDbDictionary
280
     1
281
     1
  3
ACAD_XREC_ROUNDTRIP
360
1122
  0
DICTIONARY
  5
1105
330
2A
100
AcDbDictionary
280
     1
281
     1
  3
ACAD_XREC_ROUNDTRIP
360
1106
  0
DICTIONARY
  5
1107
330
2B
100
AcDbDictionary
280
     1
281
     1
  3
ACAD_XREC_ROUNDTRIP
360
1108
  0
DICTIONARY
  5
1109
330
2C
100
AcDbDictionary
280
     1
281
     1
  3
ACAD_XREC_ROUNDTRIP
360
110A
  0
DICTIONARY
  5
110B
330
2D
100
AcDbDictionary
280
     1
281
     1
  3
ACAD_XREC_ROUNDTRIP
360
110C
  0
DICTIONARY
  5
1125
330
3A
100
AcDbDictionary
280
     1
281
     1
  3
ACAD_XREC_ROUNDTRIP
360
1126
  0
DICTIONARY
  5
111F
330
37
100
AcDbDictionary
280
     1
281
     1
  3
ACAD_XREC_ROUNDTRIP
360
1120
  0
DICTIONARY
  5
1127
330
3B
100
AcDbDictionary
280
     1
281
     1
  3
ACAD_XREC_ROUNDTRIP
360
1128
  0
DICTIONARY
  5
1117
330
33
100
AcDbDictionary
280
     1
281
     1
  3
ACAD_XREC_ROUNDTRIP
360
1118
  0
DICTIONARY
  5
111D
330
36
100
AcDbDictionary
280
     1
281
     1
  3
ACAD_XREC_ROUNDTRIP
360
111E
  0
XRECORD
  5
112F
102
{ACAD_REACTORS
330
112E
102
}
330
112E
100
AcDbXrecord
280
     1
102
SHADEPLOT
 70
     0
102
SHADEPLOTRESLEVEL
 70
     2
102
SHADEPLOTCUSTOMDPI
 70
   300
  0
XRECORD
  5
112D
102
{ACAD_REACTORS
330
112C
102
}
330
112C
100
AcDbXrecord
280
     1
102
SHADEPLOT
 70
     0
102
SHADEPLOTRESLEVEL
 70
     2
102
SHADEPLOTCUSTOMDPI
 70
   300
  0
XRECORD
  5
1131
102
{ACAD_REACTORS
330
1130
102
}
330
1130
100
AcDbXrecord
280
     1
102
SHADEPLOT
 70
     0
102
SHADEPLOTRESLEVEL
 70
     2
102
SHADEPLOTCUSTOMDPI
 70
   300
  0
XRECORD
  5
611
102
{ACAD_REACTORS
330
1A
102
}
330
1A
100
AcDbXrecord
280
     1
102
MATERIAL
148
0.0
149
0.0
149
0.0
 93
        0
 94
      127
282
     0
 72
     0
 77
     0
171
     0
175
     0
179
     0
273
     0
  0
XRECORD
  5
1C
102
{ACAD_REACTORS
330
1A
102
}
330
1A
100
AcDbXrecord
280
     1
270
     1
271
     1
  0
XRECORD
  5
1B
102
{ACAD_REACTORS
330
1A
102
}
330
1A
100
AcDbXrecord
280
     1
270
     1
271
     1
  0
XRECORD
  5
1F
102
{ACAD_REACTORS
330
1A
102
}
330
1A
100
AcDbXrecord
280
     1
270
     1
271
     1
  0
XRECORD
  5
1E
102
{ACAD_REACTORS
330
1A
102
}
330
1A
100
AcDbXrecord
280
     1
270
     1
271
     1
  0
XRECORD
  5
20
102
{ACAD_REACTORS
330
1A
102
}
330
1A
100
AcDbXrecord
280
     1
270
     1
271
     1
  0
XRECORD
  5
1D
102
{ACAD_REACTORS
330
1A
102
}
330
1A
100
AcDbXrecord
280
     1
270
     1
271
     1
  0
XRECORD
  5
610
102
{ACAD_REACTORS
330
12
102
}
330
12
100
AcDbXrecord
280
     1
102
MATERIAL
148
0.0
149
0.0
149
0.0
 93
        0
 94
      127
282
     0
 72
     0
 77
     0
171
     0
175
     0
179
     0
273
     0
  0
XRECORD
  5
14
102
{ACAD_REACTORS
330
12
102
}
330
12
100
AcDbXrecord
280
     1
270
     1
271
     1
  0
XRECORD
  5
13
102
{ACAD_REACTORS
330
12
102
}
330
12
100
AcDbXrecord
280
     1
270
     1
271
     1
  0
XRECORD
  5
17
102
{ACAD_REACTORS
330
12
102
}
330
12
100
AcDbXrecord
280
     1
270
     1
271
     1
  0
XRECORD
  5
16
102
{ACAD_REACTORS
330
12
102
}
330
12
100
AcDbXrecord
280
     1
270
     1
271
     1
  0
XRECORD
  5
18
102
{ACAD_REACTORS
330
12
102
}
330
12
100
AcDbXrecord
280
     1
270
     1
271
     1
  0
XRECORD
  5
15
102
{ACAD_REACTORS
330
12
102
}
330
12
100
AcDbXrecord
280
     1
270
     1
271
     1
  0
XRECORD
  5
612
102
{ACAD_REACTORS
330
22
102
}
330
22
100
AcDbXrecord
280
     1
102
MATERIAL
148
0.0
149
0.0
149
0.0
 93
        0
 94
      127
282
     0
 72
     0
 77
     0
171
     0
175
     0
179
     0
273
     0
  0
XRECORD
  5
24
102
{ACAD_REACTORS
330
22
102
}
330
22
100
AcDbXrecord
280
     1
270
     1
271
     1
  0
XRECORD
  5
23
102
{ACAD_REACTORS
330
22
102
}
330
22
100
AcDbXrecord
280
     1
270
     1
271
     1
  0
XRECORD
  5
27
102
{ACAD_REACTORS
330
22
102
}
330
22
100
AcDbXrecord
280
     1
270
     1
271
     1
  0
XRECORD
  5
26
102
{ACAD_REACTORS
330
22
102
}
330
22
100
AcDbXrecord
280
     1
270
     1
271
     1
  0
XRECORD
  5
28
102
{ACAD_REACTORS
330
22
102
}
330
22
100
AcDbXrecord
280
     1
270
     1
271
     1
  0
XRECORD
  5
25
102
{ACAD_REACTORS
330
22
102
}
330
22
100
AcDbXrecord
280
     1
270
     1
271
     1
  0
CELLSTYLEMAP
  5
10FD
102
{ACAD_REACTORS
330
607
102
}
330
607
100
AcDbCellStyleMap
 90
        3
300
CELLSTYLE
  1
TABLEFORMAT_BEGIN
 90
        5
170
     1
 91
        0
 92
    32768
 62
   257
 93
        1
300
CONTENTFORMAT
  1
CONTENTFORMAT_BEGIN
 90
        0
 91
        0
 92
      512
 93
        0
300

 40
0.0
140
1.0
 94
        5
 62
     0
340
50
144
6.0
309
CONTENTFORMAT_END
171
     1
301
MARGIN
  1
CELLMARGIN_BEGIN
 40
1.5
 40
1.5
 40
1.5
 40
1.5
 40
0.18
 40
0.18
309
CELLMARGIN_END
 94
        6
 95
        1
302
GRIDFORMAT
  1
GRIDFORMAT_BEGIN
 90
        0
 91
        1
 62
     0
 92
       -2
340
0
 93
        0
 40
0.045
309
GRIDFORMAT_END
 95
        2
302
GRIDFORMAT
  1
GRIDFORMAT_BEGIN
 90
        0
 91
        1
 62
     0
 92
       -2
340
0
 93
        0
 40
0.045
309
GRIDFORMAT_END
 95
        4
302
GRIDFORMAT
  1
GRIDFORMAT_BEGIN
 90
        0
 91
        1
 62
     0
 92
       -2
340
0
 93
        0
 40
0.045
309
GRIDFORMAT_END
 95
        8
302
GRIDFORMAT
  1
GRIDFORMAT_BEGIN
 90
        0
 91
        1
 62
     0
 92
       -2
340
0
 93
        0
 40
0.045
309
GRIDFORMAT_END
 95
       16
302
GRIDFORMAT
  1
GRIDFORMAT_BEGIN
 90
        0
 91
        1
 62
     0
 92
       -2
340
0
 93
        0
 40
0.045
309
GRIDFORMAT_END
 95
       32
302
GRIDFORMAT
  1
GRIDFORMAT_BEGIN
 90
        0
 91
        1
 62
     0
 92
       -2
340
0
 93
        0
 40
0.045
309
GRIDFORMAT_END
309
TABLEFORMAT_END
  1
CELLSTYLE_BEGIN
 90
        1
 91
        1
300
_TITLE
309
CELLSTYLE_END
300
CELLSTYLE
  1
TABLEFORMAT_BEGIN
 90
        5
170
     1
 91
        0
 92
        0
 62
   257
 93
        1
300
CONTENTFORMAT
  1
CONTENTFORMAT_BEGIN
 90
        0
 91
        0
 92
      512
 93
        0
300

 40
0.0
140
1.0
 94
        5
 62
     0
340
50
144
4.5
309
CONTENTFORMAT_END
171
     1
301
MARGIN
  1
CELLMARGIN_BEGIN
 40
1.5
 40
1.5
 40
1.5
 40
1.5
 40
0.18
 40
0.18
309
CELLMARGIN_END
 94
        6
 95
        1
302
GRIDFORMAT
  1
GRIDFORMAT_BEGIN
 90
        0
 91
        1
 62
     0
 92
       -2
340
0
 93
        0
 40
0.045
309
GRIDFORMAT_END
 95
        2
302
GRIDFORMAT
  1
GRIDFORMAT_BEGIN
 90
        0
 91
        1
 62
     0
 92
       -2
340
0
 93
        0
 40
0.045
309
GRIDFORMAT_END
 95
        4
302
GRIDFORMAT
  1
GRIDFORMAT_BEGIN
 90
        0
 91
        1
 62
     0
 92
       -2
340
0
 93
        0
 40
0.045
309
GRIDFORMAT_END
 95
        8
302
GRIDFORMAT
  1
GRIDFORMAT_BEGIN
 90
        0
 91
        1
 62
     0
 92
       -2
340
0
 93
        0
 40
0.045
309
GRIDFORMAT_END
 95
       16
302
GRIDFORMAT
  1
GRIDFORMAT_BEGIN
 90
        0
 91
        1
 62
     0
 92
       -2
340
0
 93
        0
 40
0.045
309
GRIDFORMAT_END
 95
       32
302
GRIDFORMAT
  1
GRIDFORMAT_BEGIN
 90
        0
 91
        1
 62
     0
 92
       -2
340
0
 93
        0
 40
0.045
309
GRIDFORMAT_END
309
TABLEFORMAT_END
  1
CELLSTYLE_BEGIN
 90
        2
 91
        1
300
_HEADER
309
CELLSTYLE_END
300
CELLSTYLE
  1
TABLEFORMAT_BEGIN
 90
        5
170
     1
 91
        0
 92
        0
 62
   257
 93
        1
300
CONTENTFORMAT
  1
CONTENTFORMAT_BEGIN
 90
        0
 91
        0
 92
      512
 93
        0
300

 40
0.0
140
1.0
 94
        2
 62
     0
340
50
144
4.5
309
CONTENTFORMAT_END
171
     1
301
MARGIN
  1
CELLMARGIN_BEGIN
 40
1.5
 40
1.5
 40
1.5
 40
1.5
 40
0.18
 40
0.18
309
CELLMARGIN_END
 94
        6
 95
        1
302
GRIDFORMAT
  1
GRIDFORMAT_BEGIN
 90
        0
 91
        1
 62
     0
 92
       -2
340
0
 93
        0
 40
0.045
309
GRIDFORMAT_END
 95
        2
302
GRIDFORMAT
  1
GRIDFORMAT_BEGIN
 90
        0
 91
        1
 62
     0
 92
       -2
340
0
 93
        0
 40
0.045
309
GRIDFORMAT_END
 95
        4
302
GRIDFORMAT
  1
GRIDFORMAT_BEGIN
 90
        0
 91
        1
 62
     0
 92
       -2
340
0
 93
        0
 40
0.045
309
GRIDFORMAT_END
 95
        8
302
GRIDFORMAT
  1
GRIDFORMAT_BEGIN
 90
        0
 91
        1
 62
     0
 92
       -2
340
0
 93
        0
 40
0.045
309
GRIDFORMAT_END
 95
       16
302
GRIDFORMAT
  1
GRIDFORMAT_BEGIN
 90
        0
 91
        1
 62
     0
 92
       -2
340
0
 93
        0
 40
0.045
309
GRIDFORMAT_END
 95
       32
302
GRIDFORMAT
  1
GRIDFORMAT_BEGIN
 90
        0
 91
        1
 62
     0
 92
       -2
340
0
 93
        0
 40
0.045
309
GRIDFORMAT_END
309
TABLEFORMAT_END
  1
CELLSTYLE_BEGIN
 90
        3
 91
        2
300
_DATA
309
CELLSTYLE_END
  0
XRECORD
  5
112B
102
{ACAD_REACTORS
330
607
102
}
330
607
100
AcDbXrecord
280
     1
102
ACAD_ROUNDTRIP_PRE2007_TABLESTYLE
 90
      512
 91
        0
  1

 92
      512
 93
        0
  2

 94
      512
 95
        0
  3

  0
XRECORD
  5
1110
102
{ACAD_REACTORS
330
110F
102
}
330
110F
100
AcDbXrecord
280
     1
102
RTVSPropertyOp0
 70
     1
102
RTVSPropertyOp1
 70
     1
102
RTVSPropertyOp2
 70
     1
102
RTVSPropertyOp3
 70
     1
102
RTVSPropertyOp4
 70
     1
102
RTVSPropertyOp5
 70
     1
102
RTVSPropertyOp6
 70
     1
102
RTVSPropertyOp7
 70
     1
102
RTVSPropertyOp8
 70
     1
102
RTVSPropertyOp9
 70
     1
102
RTVSPropertyOp10
 70
     1
102
RTVSPropertyOp11
 70
     1
102
RTVSPropertyOp12
 70
     1
102
RTVSPropertyOp13
 70
     1
102
RTVSPropertyOp14
 70
     1
102
RTVSPropertyOp15
 70
     1
102
RTVSPropertyOp16
 70
     1
102
RTVSPropertyOp17
 70
     1
102
RTVSPropertyOp18
 70
     1
102
RTVSPropertyOp19
 70
     1
102
RTVSPropertyOp20
 70
     1
102
RTVSPropertyOp21
 70
     1
102
RTVSPropertyOp22
 70
     1
102
RTVSPropertyOp23
 70
     1
102
RTVSPropertyOp24
 70
     1
102
RTVSPropertyOp25
 70
     1
102
RTVSPropertyOp26
 70
     1
102
RTVSPropertyOp27
 70
     1
  0
XRECORD
  5
1114
102
{ACAD_REACTORS
330
1113
102
}
330
1113
100
AcDbXrecord
280
     1
102
RTVSPropertyOp0
 70
     1
102
RTVSPropertyOp1
 70
     1
102
RTVSPropertyOp2
 70
     1
102
RTVSPropertyOp3
 70
     1
102
RTVSPropertyOp4
 70
     1
102
RTVSPropertyOp5
 70
     1
102
RTVSPropertyOp6
 70
     1
102
RTVSPropertyOp7
 70
     1
102
RTVSPropertyOp8
 70
     1
102
RTVSPropertyOp9
 70
     1
102
RTVSPropertyOp10
 70
     1
102
RTVSPropertyOp11
 70
     1
102
RTVSPropertyOp12
 70
     1
102
RTVSPropertyOp13
 70
     1
102
RTVSPropertyOp14
 70
     1
102
RTVSPropertyOp15
 70
     1
102
RTVSPropertyOp16
 70
     1
102
RTVSPropertyOp17
 70
     1
102
RTVSPropertyOp18
 70
     1
102
RTVSPropertyOp19
 70
     1
102
RTVSPropertyOp20
 70
     1
102
RTVSPropertyOp21
 70
     1
102
RTVSPropertyOp22
 70
     1
102
RTVSPropertyOp23
 70
     1
102
RTVSPropertyOp24
 70
     1
102
RTVSPropertyOp25
 70
     1
102
RTVSPropertyOp26
 70
     1
102
RTVSPropertyOp27
 70
     1
  0
XRECORD
  5
1112
102
{ACAD_REACTORS
330
1111
102
}
330
1111
100
AcDbXrecord
280
     1
102
RTVSPropertyOp0
 70
     1
102
RTVSPropertyOp1
 70
     1
102
RTVSPropertyOp2
 70
     1
102
RTVSPropertyOp3
 70
     1
102
RTVSPropertyOp4
 70
     1
102
RTVSPropertyOp5
 70
     1
102
RTVSPropertyOp6
 70
     1
102
RTVSPropertyOp7
 70
     1
102
RTVSPropertyOp8
 70
     1
102
RTVSPropertyOp9
 70
     1
102
RTVSPropertyOp10
 70
     1
102
RTVSPropertyOp11
 70
     1
102
RTVSPropertyOp12
 70
     1
102
RTVSPropertyOp13
 70
     1
102
RTVSPropertyOp14
 70
     1
102
RTVSPropertyOp15
 70
     1
102
RTVSPropertyOp16
 70
     1
102
RTVSPropertyOp17
 70
     1
102
RTVSPropertyOp18
 70
     1
102
RTVSPropertyOp19
 70
     1
102
RTVSPropertyOp20
 70
     1
102
RTVSPropertyOp21
 70
     1
102
RTVSPropertyOp22
 70
     1
102
RTVSPropertyOp23
 70
     1
102
RTVSPropertyOp24
 70
     1
102
RTVSPropertyOp25
 70
     1
102
RTVSPropertyOp26
 70
     1
102
RTVSPropertyOp27
 70
     1
  0
XRECORD
  5
110E
102
{ACAD_REACTORS
330
110D
102
}
330
110D
100
AcDbXrecord
280
     1
102
RTVSPropertyOp0
 70
     1
102
RTVSPropertyOp1
 70
     1
102
RTVSPropertyOp2
 70
     1
102
RTVSPropertyOp3
 70
     1
102
RTVSPropertyOp4
 70
     1
102
RTVSPropertyOp5
 70
     1
102
RTVSPropertyOp6
 70
     1
102
RTVSPropertyOp7
 70
     1
102
RTVSPropertyOp8
 70
     1
102
RTVSPropertyOp9
 70
     1
102
RTVSPropertyOp10
 70
     1
102
RTVSPropertyOp11
 70
     1
102
RTVSPropertyOp12
 70
     1
102
RTVSPropertyOp13
 70
     1
102
RTVSPropertyOp14
 70
     1
102
RTVSPropertyOp15
 70
     1
102
RTVSPropertyOp16
 70
     1
102
RTVSPropertyOp17
 70
     1
102
RTVSPropertyOp18
 70
     1
102
RTVSPropertyOp19
 70
     1
102
RTVSPropertyOp20
 70
     1
102
RTVSPropertyOp21
 70
     1
102
RTVSPropertyOp22
 70
     1
102
RTVSPropertyOp23
 70
     1
102
RTVSPropertyOp24
 70
     1
102
RTVSPropertyOp25
 70
     1
102
RTVSPropertyOp26
 70
     1
102
RTVSPropertyOp27
 70
     1
  0
XRECORD
  5
111C
102
{ACAD_REACTORS
330
111B
102
}
330
111B
100
AcDbXrecord
280
     1
102
RTVSPropertyOp0
 70
     1
102
RTVSPropertyOp1
 70
     1
102
RTVSPropertyOp2
 70
     1
102
RTVSPropertyOp3
 70
     1
102
RTVSPropertyOp4
 70
     1
102
RTVSPropertyOp5
 70
     1
102
RTVSPropertyOp6
 70
     1
102
RTVSPropertyOp7
 70
     1
102
RTVSPropertyOp8
 70
     1
102
RTVSPropertyOp9
 70
     1
102
RTVSPropertyOp10
 70
     1
102
RTVSPropertyOp11
 70
     1
102
RTVSPropertyOp12
 70
     1
102
RTVSPropertyOp13
 70
     1
102
RTVSPropertyOp14
 70
     1
102
RTVSPropertyOp15
 70
     1
102
RTVSPropertyOp16
 70
     1
102
RTVSPropertyOp17
 70
     1
102
RTVSPropertyOp18
 70
     1
102
RTVSPropertyOp19
 70
     1
102
RTVSPropertyOp20
 70
     1
102
RTVSPropertyOp21
 70
     1
102
RTVSPropertyOp22
 70
     1
102
RTVSPropertyOp23
 70
     1
102
RTVSPropertyOp24
 70
     1
102
RTVSPropertyOp25
 70
     1
102
RTVSPropertyOp26
 70
     1
102
RTVSPropertyOp27
 70
     1
  0
XRECORD
  5
1124
102
{ACAD_REACTORS
330
1123
102
}
330
1123
100
AcDbXrecord
280
     1
102
RTVSPropertyOp0
 70
     1
102
RTVSPropertyOp1
 70
     1
102
RTVSPropertyOp2
 70
     1
102
RTVSPropertyOp3
 70
     1
102
RTVSPropertyOp4
 70
     1
102
RTVSPropertyOp5
 70
     1
102
RTVSPropertyOp6
 70
     1
102
RTVSPropertyOp7
 70
     1
102
RTVSPropertyOp8
 70
     1
102
RTVSPropertyOp9
 70
     1
102
RTVSPropertyOp10
 70
     1
102
RTVSPropertyOp11
 70
     1
102
RTVSPropertyOp12
 70
     1
102
RTVSPropertyOp13
 70
     1
102
RTVSPropertyOp14
 70
     1
102
RTVSPropertyOp15
 70
     1
102
RTVSPropertyOp16
 70
     1
102
RTVSPropertyOp17
 70
     1
102
RTVSPropertyOp18
 70
     1
102
RTVSPropertyOp19
 70
     1
102
RTVSPropertyOp20
 70
     1
102
RTVSPropertyOp21
 70
     1
102
RTVSPropertyOp22
 70
     1
102
RTVSPropertyOp23
 70
     1
102
RTVSPropertyOp24
 70
     1
102
RTVSPropertyOp25
 70
     1
102
RTVSPropertyOp26
 70
     1
102
RTVSPropertyOp27
 70
     1
  0
XRECORD
  5
1116
102
{ACAD_REACTORS
330
1115
102
}
330
1115
100
AcDbXrecord
280
     1
102
RTVSPropertyOp0
 70
     1
102
RTVSPropertyOp1
 70
     1
102
RTVSPropertyOp2
 70
     1
102
RTVSPropertyOp3
 70
     1
102
RTVSPropertyOp4
 70
     1
102
RTVSPropertyOp5
 70
     1
102
RTVSPropertyOp6
 70
     1
102
RTVSPropertyOp7
 70
     1
102
RTVSPropertyOp8
 70
     1
102
RTVSPropertyOp9
 70
     1
102
RTVSPropertyOp10
 70
     1
102
RTVSPropertyOp11
 70
     1
102
RTVSPropertyOp12
 70
     1
102
RTVSPropertyOp13
 70
     1
102
RTVSPropertyOp14
 70
     1
102
RTVSPropertyOp15
 70
     1
102
RTVSPropertyOp16
 70
     1
102
RTVSPropertyOp17
 70
     1
102
RTVSPropertyOp18
 70
     1
102
RTVSPropertyOp19
 70
     1
102
RTVSPropertyOp20
 70
     1
102
RTVSPropertyOp21
 70
     1
102
RTVSPropertyOp22
 70
     1
102
RTVSPropertyOp23
 70
     1
102
RTVSPropertyOp24
 70
     1
102
RTVSPropertyOp25
 70
     1
102
RTVSPropertyOp26
 70
     1
102
RTVSPropertyOp27
 70
     1
  0
XRECORD
  5
111A
102
{ACAD_REACTORS
330
1119
102
}
330
1119
100
AcDbXrecord
280
     1
102
RTVSPropertyOp0
 70
     1
102
RTVSPropertyOp1
 70
     1
102
RTVSPropertyOp2
 70
     1
102
RTVSPropertyOp3
 70
     1
102
RTVSPropertyOp4
 70
     1
102
RTVSPropertyOp5
 70
     1
102
RTVSPropertyOp6
 70
     1
102
RTVSPropertyOp7
 70
     1
102
RTVSPropertyOp8
 70
     1
102
RTVSPropertyOp9
 70
     1
102
RTVSPropertyOp10
 70
     1
102
RTVSPropertyOp11
 70
     1
102
RTVSPropertyOp12
 70
     1
102
RTVSPropertyOp13
 70
     1
102
RTVSPropertyOp14
 70
     1
102
RTVSPropertyOp15
 70
     1
102
RTVSPropertyOp16
 70
     1
102
RTVSPropertyOp17
 70
     1
102
RTVSPropertyOp18
 70
     1
102
RTVSPropertyOp19
 70
     1
102
RTVSPropertyOp20
 70
     1
102
RTVSPropertyOp21
 70
     1
102
RTVSPropertyOp22
 70
     1
102
RTVSPropertyOp23
 70
     1
102
RTVSPropertyOp24
 70
     1
102
RTVSPropertyOp25
 70
     1
102
RTVSPropertyOp26
 70
     1
102
RTVSPropertyOp27
 70
     1
  0
XRECORD
  5
112A
102
{ACAD_REACTORS
330
1129
102
}
330
1129
100
AcDbXrecord
280
     1
102
RTVSPropertyOp0
 70
     0
102
RTVSPropertyOp1
 70
     0
102
RTVSPropertyOp2
 70
     0
102
RTVSPropertyOp3
 70
     0
102
RTVSPropertyOp4
 70
     0
102
RTVSPropertyOp5
 70
     0
102
RTVSPropertyOp6
 70
     0
102
RTVSPropertyOp7
 70
     0
102
RTVSPropertyOp8
 70
     0
102
RTVSPropertyOp9
 70
     0
102
RTVSPropertyOp10
 70
     0
102
RTVSPropertyOp11
 70
     0
102
RTVSPropertyOp12
 70
     0
102
RTVSPropertyOp13
 70
     0
102
RTVSPropertyOp14
 70
     2
102
RTVSPropertyOp15
 70
     0
102
RTVSPropertyOp16
 70
     0
102
RTVSPropertyOp17
 70
     0
102
RTVSPropertyOp18
 70
     0
102
RTVSPropertyOp19
 70
     0
102
RTVSPropertyOp20
 70
     0
102
RTVSPropertyOp21
 70
     0
102
RTVSPropertyOp22
 70
     0
102
RTVSPropertyOp23
 70
     0
102
RTVSPropertyOp24
 70
     0
102
RTVSPropertyOp25
 70
     0
102
RTVSPropertyOp26
 70
     0
102
RTVSPropertyOp27
 70
     0
  0
XRECORD
  5
1122
102
{ACAD_REACTORS
330
1121
102
}
330
1121
100
AcDbXrecord
280
     1
102
RTVSPropertyOp0
 70
     1
102
RTVSPropertyOp1
 70
     1
102
RTVSPropertyOp2
 70
     1
102
RTVSPropertyOp3
 70
     1
102
RTVSPropertyOp4
 70
     1
102
RTVSPropertyOp5
 70
     1
102
RTVSPropertyOp6
 70
     1
102
RTVSPropertyOp7
 70
     1
102
RTVSPropertyOp8
 70
     1
102
RTVSPropertyOp9
 70
     1
102
RTVSPropertyOp10
 70
     1
102
RTVSPropertyOp11
 70
     1
102
RTVSPropertyOp12
 70
     1
102
RTVSPropertyOp13
 70
     1
102
RTVSPropertyOp14
 70
     1
102
RTVSPropertyOp15
 70
     1
102
RTVSPropertyOp16
 70
     1
102
RTVSPropertyOp17
 70
     1
102
RTVSPropertyOp18
 70
     1
102
RTVSPropertyOp19
 70
     1
102
RTVSPropertyOp20
 70
     1
102
RTVSPropertyOp21
 70
     1
102
RTVSPropertyOp22
 70
     1
102
RTVSPropertyOp23
 70
     1
102
RTVSPropertyOp24
 70
     1
102
RTVSPropertyOp25
 70
     1
102
RTVSPropertyOp26
 70
     1
102
RTVSPropertyOp27
 70
     1
  0
XRECORD
  5
1106
102
{ACAD_REACTORS
330
1105
102
}
330
1105
100
AcDbXrecord
280
     1
102
RTVSPropertyOp0
 70
     1
102
RTVSPropertyOp1
 70
     1
102
RTVSPropertyOp2
 70
     1
102
RTVSPropertyOp3
 70
     1
102
RTVSPropertyOp4
 70
     1
102
RTVSPropertyOp5
 70
     1
102
RTVSPropertyOp6
 70
     1
102
RTVSPropertyOp7
 70
     1
102
RTVSPropertyOp8
 70
     1
102
RTVSPropertyOp9
 70
     1
102
RTVSPropertyOp10
 70
     1
102
RTVSPropertyOp11
 70
     1
102
RTVSPropertyOp12
 70
     1
102
RTVSPropertyOp13
 70
     1
102
RTVSPropertyOp14
 70
     1
102
RTVSPropertyOp15
 70
     1
102
RTVSPropertyOp16
 70
     1
102
RTVSPropertyOp17
 70
     1
102
RTVSPropertyOp18
 70
     1
102
RTVSPropertyOp19
 70
     1
102
RTVSPropertyOp20
 70
     1
102
RTVSPropertyOp21
 70
     1
102
RTVSPropertyOp22
 70
     1
102
RTVSPropertyOp23
 70
     1
102
RTVSPropertyOp24
 70
     1
102
RTVSPropertyOp25
 70
     1
102
RTVSPropertyOp26
 70
     1
102
RTVSPropertyOp27
 70
     1
  0
XRECORD
  5
1108
102
{ACAD_REACTORS
330
1107
102
}
330
1107
100
AcDbXrecord
280
     1
102
RTVSPropertyOp0
 70
     1
102
RTVSPropertyOp1
 70
     1
102
RTVSPropertyOp2
 70
     1
102
RTVSPropertyOp3
 70
     1
102
RTVSPropertyOp4
 70
     1
102
RTVSPropertyOp5
 70
     1
102
RTVSPropertyOp6
 70
     1
102
RTVSPropertyOp7
 70
     1
102
RTVSPropertyOp8
 70
     1
102
RTVSPropertyOp9
 70
     1
102
RTVSPropertyOp10
 70
     1
102
RTVSPropertyOp11
 70
     1
102
RTVSPropertyOp12
 70
     1
102
RTVSPropertyOp13
 70
     1
102
RTVSPropertyOp14
 70
     1
102
RTVSPropertyOp15
 70
     1
102
RTVSPropertyOp16
 70
     1
102
RTVSPropertyOp17
 70
     1
102
RTVSPropertyOp18
 70
     1
102
RTVSPropertyOp19
 70
     1
102
RTVSPropertyOp20
 70
     1
102
RTVSPropertyOp21
 70
     1
102
RTVSPropertyOp22
 70
     1
102
RTVSPropertyOp23
 70
     1
102
RTVSPropertyOp24
 70
     1
102
RTVSPropertyOp25
 70
     1
102
RTVSPropertyOp26
 70
     1
102
RTVSPropertyOp27
 70
     1
  0
XRECORD
  5
110A
102
{ACAD_REACTORS
330
1109
102
}
330
1109
100
AcDbXrecord
280
     1
102
RTVSPropertyOp0
 70
     1
102
RTVSPropertyOp1
 70
     1
102
RTVSPropertyOp2
 70
     1
102
RTVSPropertyOp3
 70
     1
102
RTVSPropertyOp4
 70
     1
102
RTVSPropertyOp5
 70
     1
102
RTVSPropertyOp6
 70
     1
102
RTVSPropertyOp7
 70
     1
102
RTVSPropertyOp8
 70
     1
102
RTVSPropertyOp9
 70
     1
102
RTVSPropertyOp10
 70
     1
102
RTVSPropertyOp11
 70
     1
102
RTVSPropertyOp12
 70
     1
102
RTVSPropertyOp13
 70
     1
102
RTVSPropertyOp14
 70
     1
102
RTVSPropertyOp15
 70
     1
102
RTVSPropertyOp16
 70
     1
102
RTVSPropertyOp17
 70
     1
102
RTVSPropertyOp18
 70
     1
102
RTVSPropertyOp19
 70
     1
102
RTVSPropertyOp20
 70
     1
102
RTVSPropertyOp21
 70
     1
102
RTVSPropertyOp22
 70
     1
102
RTVSPropertyOp23
 70
     1
102
RTVSPropertyOp24
 70
     1
102
RTVSPropertyOp25
 70
     1
102
RTVSPropertyOp26
 70
     1
102
RTVSPropertyOp27
 70
     1
  0
XRECORD
  5
110C
102
{ACAD_REACTORS
330
110B
102
}
330
110B
100
AcDbXrecord
280
     1
102
RTVSPropertyOp0
 70
     1
102
RTVSPropertyOp1
 70
     1
102
RTVSPropertyOp2
 70
     1
102
RTVSPropertyOp3
 70
     1
102
RTVSPropertyOp4
 70
     1
102
RTVSPropertyOp5
 70
     1
102
RTVSPropertyOp6
 70
     1
102
RTVSPropertyOp7
 70
     1
102
RTVSPropertyOp8
 70
     1
102
RTVSPropertyOp9
 70
     1
102
RTVSPropertyOp10
 70
     1
102
RTVSPropertyOp11
 70
     1
102
RTVSPropertyOp12
 70
     1
102
RTVSPropertyOp13
 70
     1
102
RTVSPropertyOp14
 70
     1
102
RTVSPropertyOp15
 70
     1
102
RTVSPropertyOp16
 70
     1
102
RTVSPropertyOp17
 70
     1
102
RTVSPropertyOp18
 70
     1
102
RTVSPropertyOp19
 70
     1
102
RTVSPropertyOp20
 70
     1
102
RTVSPropertyOp21
 70
     1
102
RTVSPropertyOp22
 70
     1
102
RTVSPropertyOp23
 70
     1
102
RTVSPropertyOp24
 70
     1
102
RTVSPropertyOp25
 70
     1
102
RTVSPropertyOp26
 70
     1
102
RTVSPropertyOp27
 70
     1
  0
XRECORD
  5
1126
102
{ACAD_REACTORS
330
1125
102
}
330
1125
100
AcDbXrecord
280
     1
102
RTVSPropertyOp0
 70
     0
102
RTVSPropertyOp1
 70
     0
102
RTVSPropertyOp2
 70
     0
102
RTVSPropertyOp3
 70
     0
102
RTVSPropertyOp4
 70
     0
102
RTVSPropertyOp5
 70
     0
102
RTVSPropertyOp6
 70
     0
102
RTVSPropertyOp7
 70
     0
102
RTVSPropertyOp8
 70
     0
102
RTVSPropertyOp9
 70
     0
102
RTVSPropertyOp10
 70
     0
102
RTVSPropertyOp11
 70
     0
102
RTVSPropertyOp12
 70
     0
102
RTVSPropertyOp13
 70
     0
102
RTVSPropertyOp14
 70
     2
102
RTVSPropertyOp15
 70
     0
102
RTVSPropertyOp16
 70
     0
102
RTVSPropertyOp17
 70
     0
102
RTVSPropertyOp18
 70
     0
102
RTVSPropertyOp19
 70
     0
102
RTVSPropertyOp20
 70
     0
102
RTVSPropertyOp21
 70
     0
102
RTVSPropertyOp22
 70
     0
102
RTVSPropertyOp23
 70
     0
102
RTVSPropertyOp24
 70
     0
102
RTVSPropertyOp25
 70
     0
102
RTVSPropertyOp26
 70
     0
102
RTVSPropertyOp27
 70
     0
  0
XRECORD
  5
1120
102
{ACAD_REACTORS
330
111F
102
}
330
111F
100
AcDbXrecord
280
     1
102
RTVSPropertyOp0
 70
     1
102
RTVSPropertyOp1
 70
     1
102
RTVSPropertyOp2
 70
     1
102
RTVSPropertyOp3
 70
     1
102
RTVSPropertyOp4
 70
     1
102
RTVSPropertyOp5
 70
     1
102
RTVSPropertyOp6
 70
     1
102
RTVSPropertyOp7
 70
     1
102
RTVSPropertyOp8
 70
     1
102
RTVSPropertyOp9
 70
     1
102
RTVSPropertyOp10
 70
     1
102
RTVSPropertyOp11
 70
     1
102
RTVSPropertyOp12
 70
     1
102
RTVSPropertyOp13
 70
     1
102
RTVSPropertyOp14
 70
     1
102
RTVSPropertyOp15
 70
     1
102
RTVSPropertyOp16
 70
     1
102
RTVSPropertyOp17
 70
     1
102
RTVSPropertyOp18
 70
     1
102
RTVSPropertyOp19
 70
     1
102
RTVSPropertyOp20
 70
     1
102
RTVSPropertyOp21
 70
     1
102
RTVSPropertyOp22
 70
     1
102
RTVSPropertyOp23
 70
     1
102
RTVSPropertyOp24
 70
     1
102
RTVSPropertyOp25
 70
     1
102
RTVSPropertyOp26
 70
     1
102
RTVSPropertyOp27
 70
     1
  0
XRECORD
  5
1128
102
{ACAD_REACTORS
330
1127
102
}
330
1127
100
AcDbXrecord
280
     1
102
RTVSPropertyOp0
 70
     0
102
RTVSPropertyOp1
 70
     0
102
RTVSPropertyOp2
 70
     0
102
RTVSPropertyOp3
 70
     0
102
RTVSPropertyOp4
 70
     0
102
RTVSPropertyOp5
 70
     0
102
RTVSPropertyOp6
 70
     0
102
RTVSPropertyOp7
 70
     0
102
RTVSPropertyOp8
 70
     0
102
RTVSPropertyOp9
 70
     0
102
RTVSPropertyOp10
 70
     0
102
RTVSPropertyOp11
 70
     0
102
RTVSPropertyOp12
 70
     0
102
RTVSPropertyOp13
 70
     0
102
RTVSPropertyOp14
 70
     2
102
RTVSPropertyOp15
 70
     0
102
RTVSPropertyOp16
 70
     0
102
RTVSPropertyOp17
 70
     0
102
RTVSPropertyOp18
 70
     0
102
RTVSPropertyOp19
 70
     0
102
RTVSPropertyOp20
 70
     0
102
RTVSPropertyOp21
 70
     0
102
RTVSPropertyOp22
 70
     0
102
RTVSPropertyOp23
 70
     0
102
RTVSPropertyOp24
 70
     0
102
RTVSPropertyOp25
 70
     0
102
RTVSPropertyOp26
 70
     0
102
RTVSPropertyOp27
 70
     0
  0
XRECORD
  5
1118
102
{ACAD_REACTORS
330
1117
102
}
330
1117
100
AcDbXrecord
280
     1
102
RTVSPropertyOp0
 70
     1
102
RTVSPropertyOp1
 70
     1
102
RTVSPropertyOp2
 70
     1
102
RTVSPropertyOp3
 70
     1
102
RTVSPropertyOp4
 70
     1
102
RTVSPropertyOp5
 70
     1
102
RTVSPropertyOp6
 70
     1
102
RTVSPropertyOp7
 70
     1
102
RTVSPropertyOp8
 70
     1
102
RTVSPropertyOp9
 70
     1
102
RTVSPropertyOp10
 70
     1
102
RTVSPropertyOp11
 70
     1
102
RTVSPropertyOp12
 70
     1
102
RTVSPropertyOp13
 70
     1
102
RTVSPropertyOp14
 70
     1
102
RTVSPropertyOp15
 70
     1
102
RTVSPropertyOp16
 70
     1
102
RTVSPropertyOp17
 70
     1
102
RTVSPropertyOp18
 70
     1
102
RTVSPropertyOp19
 70
     1
102
RTVSPropertyOp20
 70
     1
102
RTVSPropertyOp21
 70
     1
102
RTVSPropertyOp22
 70
     1
102
RTVSPropertyOp23
 70
     1
102
RTVSPropertyOp24
 70
     1
102
RTVSPropertyOp25
 70
     1
102
RTVSPropertyOp26
 70
     1
102
RTVSPropertyOp27
 70
     1
  0
XRECORD
  5
111E
102
{ACAD_REACTORS
330
111D
102
}
330
111D
100
AcDbXrecord
280
     1
102
RTVSPropertyOp0
 70
     1
102
RTVSPropertyOp1
 70
     1
102
RTVSPropertyOp2
 70
     1
102
RTVSPropertyOp3
 70
     1
102
RTVSPropertyOp4
 70
     1
102
RTVSPropertyOp5
 70
     1
102
RTVSPropertyOp6
 70
     1
102
RTVSPropertyOp7
 70
     1
102
RTVSPropertyOp8
 70
     1
102
RTVSPropertyOp9
 70
     1
102
RTVSPropertyOp10
 70
     1
102
RTVSPropertyOp11
 70
     1
102
RTVSPropertyOp12
 70
     1
102
RTVSPropertyOp13
 70
     1
102
RTVSPropertyOp14
 70
     1
102
RTVSPropertyOp15
 70
     1
102
RTVSPropertyOp16
 70
     1
102
RTVSPropertyOp17
 70
     1
102
RTVSPropertyOp18
 70
     1
102
RTVSPropertyOp19
 70
     1
102
RTVSPropertyOp20
 70
     1
102
RTVSPropertyOp21
 70
     1
102
RTVSPropertyOp22
 70
     1
102
RTVSPropertyOp23
 70
     1
102
RTVSPropertyOp24
 70
     1
102
RTVSPropertyOp25
 70
     1
102
RTVSPropertyOp26
 70
     1
102
RTVSPropertyOp27
 70
     1
  0
ENDSEC
  0
EOF
