  0
SECTION
  2
HEADER
  9
$ACADVER
  1
AC1015
  9
$ACADMAINTVER
 70
    20
  9
$DWGCODEPAGE
  3
ANSI_932
  9
$INSBASE
 10
0.0
 20
0.0
 30
0.0
  9
$EXTMIN
 10
-6.378941640312291
 20
-0.010168116062232
 30
-0.0000000000000022
  9
$EXTMAX
 10
180.0070707361248
 20
80.00216609815515
 30
0.0000000000000132
  9
$LIMMIN
 10
-5.027069091796875
 20
-5.027082920074462
  9
$LIMMAX
 10
291.89892578125
 20
204.9462447166443
  9
$ORTHOMODE
 70
     0
  9
$REGENMODE
 70
     1
  9
$FILLMODE
 70
     1
  9
$QTEXTMODE
 70
     0
  9
$MIRRTEXT
 70
     0
  9
$LTSCALE
 40
1.0
  9
$ATTMODE
 70
     1
  9
$TEXTSIZE
 40
2.5
  9
$TRACEWID
 40
1.0
  9
$TEXTSTYLE
  7
STANDARD
  9
$CLAYER
  8
0
  9
$CELTYPE
  6
ByLayer
  9
$CECOLOR
 62
   256
  9
$CELTSCALE
 40
1.0
  9
$DISPSILH
 70
     0
  9
$DIMSCALE
 40
1.0
  9
$DIMASZ
 40
2.5
  9
$DIMEXO
 40
0.5
  9
$DIMDLI
 40
8.0
  9
$DIMRND
 40
0.0
  9
$DIMDLE
 40
0.0
  9
$DIMEXE
 40
1.0
  9
$DIMTP
 40
0.0
  9
$DIMTM
 40
0.0
  9
$DIMTXT
 40
3.5
  9
$DIMCEN
 40
0.0
  9
$DIMTSZ
 40
0.0
  9
$DIMTOL
 70
     0
  9
$DIMLIM
 70
     0
  9
$DIMTIH
 70
     0
  9
$DIMTOH
 70
     0
  9
$DIMSE1
 70
     0
  9
$DIMSE2
 70
     0
  9
$DIMTAD
 70
     3
  9
$DIMZIN
 70
     8
  9
$DIMBLK
  1
Open
  9
$DIMASO
 70
     1
  9
$DIMSHO
 70
     1
  9
$DIMPOST
  1

  9
$DIMAPOST
  1
"
  9
$DIMALT
 70
     0
  9
$DIMALTD
 70
     2
  9
$DIMALTF
 40
0.0393701
  9
$DIMLFAC
 40
1.0
  9
$DIMTOFL
 70
     1
  9
$DIMTVP
 40
0.0
  9
$DIMTIX
 70
     0
  9
$DIMSOXD
 70
     0
  9
$DIMSAH
 70
     0
  9
$DIMBLK1
  1

  9
$DIMBLK2
  1

  9
$DIMSTYLE
  2
AM_JIS
  9
$DIMCLRD
 70
   256
  9
$DIMCLRE
 70
   256
  9
$DIMCLRT
 70
   140
  9
$DIMTFAC
 40
0.55
  9
$DIMGAP
 40
0.8
  9
$DIMJUST
 70
     0
  9
$DIMSD1
 70
     0
  9
$DIMSD2
 70
     0
  9
$DIMTOLJ
 70
     0
  9
$DIMTZIN
 70
     8
  9
$DIMALTZ
 70
     0
  9
$DIMALTTZ
 70
     0
  9
$DIMUPT
 70
     0
  9
$DIMDEC
 70
     3
  9
$DIMTDEC
 70
     3
  9
$DIMALTU
 70
     2
  9
$DIMALTTD
 70
     2
  9
$DIMTXSTY
  7
STANDARD
  9
$DIMAUNIT
 70
     0
  9
$DIMADEC
 70
     0
  9
$DIMALTRND
 40
0.0
  9
$DIMAZIN
 70
     2
  9
$DIMDSEP
 70
    46
  9
$DIMATFIT
 70
     3
  9
$DIMFRAC
 70
     0
  9
$DIMLDRBLK
  1
Open
  9
$DIMLUNIT
 70
     2
  9
$DIMLWD
 70
    -1
  9
$DIMLWE
 70
    -1
  9
$DIMTMOVE
 70
     0
  9
$LUNITS
 70
     2
  9
$LUPREC
 70
     2
  9
$SKETCHINC
 40
1.0
  9
$FILLETRAD
 40
2.5
  9
$AUNITS
 70
     0
  9
$AUPREC
 70
     0
  9
$MENU
  1
.
  9
$ELEVATION
 40
0.0
  9
$PELEVATION
 40
0.0
  9
$THICKNESS
 40
0.0
  9
$LIMCHECK
 70
     0
  9
$CHAMFERA
 40
2.5
  9
$CHAMFERB
 40
2.5
  9
$CHAMFERC
 40
20.0
  9
$CHAMFERD
 40
0.0
  9
$SKPOLY
 70
     0
  9
$TDCREATE
 40
2456512.499609827
  9
$TDUCREATE
 40
2456512.124609826
  9
$TDUPDATE
 40
2457948.564816760
  9
$TDUUPDATE
 40
2457948.189816760
  9
$TDINDWG
 40
0.0430680903
  9
$TDUSRTIMER
 40
0.0430679630
  9
$USRTIMER
 70
     1
  9
$ANGBASE
 50
0.0
  9
$ANGDIR
 70
     0
  9
$PDMODE
 70
     0
  9
$PDSIZE
 40
0.0
  9
$PLINEWID
 40
0.0
  9
$SPLFRAME
 70
     0
  9
$SPLINETYPE
 70
     6
  9
$SPLINESEGS
 70
     8
  9
$HANDSEED
  5
143B
  9
$SURFTAB1
 70
     6
  9
$SURFTAB2
 70
     6
  9
$SURFTYPE
 70
     6
  9
$SURFU
 70
     6
  9
$SURFV
 70
     6
  9
$UCSBASE
  2

  9
$UCSNAME
  2

  9
$UCSORG
 10
0.0
 20
0.0
 30
0.0
  9
$UCSXDIR
 10
1.0
 20
0.0
 30
0.0
  9
$UCSYDIR
 10
0.0
 20
1.0
 30
0.0
  9
$UCSORTHOREF
  2

  9
$UCSORTHOVIEW
 70
     0
  9
$UCSORGTOP
 10
0.0
 20
0.0
 30
0.0
  9
$UCSORGBOTTOM
 10
0.0
 20
0.0
 30
0.0
  9
$UCSORGLEFT
 10
0.0
 20
0.0
 30
0.0
  9
$UCSORGRIGHT
 10
0.0
 20
0.0
 30
0.0
  9
$UCSORGFRONT
 10
0.0
 20
0.0
 30
0.0
  9
$UCSORGBACK
 10
0.0
 20
0.0
 30
0.0
  9
$PUCSBASE
  2

  9
$PUCSNAME
  2

  9
$PUCSORG
 10
0.0
 20
0.0
 30
0.0
  9
$PUCSXDIR
 10
1.0
 20
0.0
 30
0.0
  9
$PUCSYDIR
 10
0.0
 20
1.0
 30
0.0
  9
$PUCSORTHOREF
  2

  9
$PUCSORTHOVIEW
 70
     0
  9
$PUCSORGTOP
 10
0.0
 20
0.0
 30
0.0
  9
$PUCSORGBOTTOM
 10
0.0
 20
0.0
 30
0.0
  9
$PUCSORGLEFT
 10
0.0
 20
0.0
 30
0.0
  9
$PUCSORGRIGHT
 10
0.0
 20
0.0
 30
0.0
  9
$PUCSORGFRONT
 10
0.0
 20
0.0
 30
0.0
  9
$PUCSORGBACK
 10
0.0
 20
0.0
 30
0.0
  9
$USERI1
 70
     0
  9
$USERI2
 70
     0
  9
$USERI3
 70
     0
  9
$USERI4
 70
     0
  9
$USERI5
 70
     0
  9
$USERR1
 40
0.0
  9
$USERR2
 40
0.0
  9
$USERR3
 40
0.0
  9
$USERR4
 40
0.0
  9
$USERR5
 40
0.0
  9
$WORLDVIEW
 70
     1
  9
$SHADEDGE
 70
     3
  9
$SHADEDIF
 70
    70
  9
$TILEMODE
 70
     1
  9
$MAXACTVP
 70
    64
  9
$PINSBASE
 10
0.0
 20
0.0
 30
0.0
  9
$PLIMCHECK
 70
     0
  9
$PEXTMIN
 10
1.000000000000000E+20
 20
1.000000000000000E+20
 30
1.000000000000000E+20
  9
$PEXTMAX
 10
-1.000000000000000E+20
 20
-1.000000000000000E+20
 30
-1.000000000000000E+20
  9
$PLIMMIN
 10
0.0
 20
0.0
  9
$PLIMMAX
 10
12.0
 20
9.0
  9
$UNITMODE
 70
     0
  9
$VISRETAIN
 70
     1
  9
$PLINEGEN
 70
     0
  9
$PSLTSCALE
 70
     1
  9
$TREEDEPTH
 70
  3020
  9
$CMLSTYLE
  2
Standard
  9
$CMLJUST
 70
     0
  9
$CMLSCALE
 40
20.0
  9
$PROXYGRAPHICS
 70
     1
  9
$MEASUREMENT
 70
     1
  9
$CELWEIGHT
370
    -1
  9
$ENDCAPS
280
     0
  9
$JOINSTYLE
280
     0
  9
$LWDISPLAY
290
     0
  9
$INSUNITS
 70
     4
  9
$HYPERLINKBASE
  1

  9
$STYLESHEET
  1

  9
$XEDIT
290
     1
  9
$CEPSNTYPE
380
     0
  9
$PSTYLEMODE
290
     1
  9
$FINGERPRINTGUID
  2
{2DDB2E83-A2C1-469C-A42C-E937CBE341E4}
  9
$VERSIONGUID
  2
{4034387C-2F7E-44CA-82D5-05538F2FDDFA}
  9
$EXTNAMES
290
     1
  9
$PSVPSCALE
 40
0.0
  9
$OLESTARTUP
290
     0
  0
ENDSEC
  0
SECTION
  2
CLASSES
  0
CLASS
  1
ACDBDICTIONARYWDFLT
  2
AcDbDictionaryWithDefault
  3
ObjectDBX Classes
 90
        0
280
     0
281
     0
  0
CLASS
  1
MATERIAL
  2
AcDbMaterial
  3
ObjectDBX Classes
 90
     1153
280
     0
281
     0
  0
CLASS
  1
VISUALSTYLE
  2
AcDbVisualStyle
  3
ObjectDBX Classes
 90
     4095
280
     0
281
     0
  0
CLASS
  1
SCALE
  2
AcDbScale
  3
ObjectDBX Classes
 90
     1153
280
     0
281
     0
  0
CLASS
  1
TABLESTYLE
  2
AcDbTableStyle
  3
ObjectDBX Classes
 90
     4095
280
     0
281
     0
  0
CLASS
  1
MLEADERSTYLE
  2
AcDbMLeaderStyle
  3
ACDB_MLEADERSTYLE_CLASS
 90
     4095
280
     0
281
     0
  0
CLASS
  1
DIMASSOC
  2
AcDbDimAssoc
  3
"AcDbDimAssoc|Product Desc:     AcDim ARX App For Dimension|Company:          Autodesk, Inc.|WEB Address:      www.autodesk.com"
 90
    32768
280
     0
281
     0
  0
CLASS
  1
SORTENTSTABLE
  2
AcDbSortentsTable
  3
ObjectDBX Classes
 90
        0
280
     0
281
     0
  0
CLASS
  1
DICTIONARYVAR
  2
AcDbDictionaryVar
  3
ObjectDBX Classes
 90
        0
280
     0
281
     0
  0
CLASS
  1
ACME_DOCUMENT
  2
AcMeDbDoc
  3
AcMeServices
 90
     1024
280
     0
281
     0
  0
CLASS
  1
AMGSETTINGSOBJ
  2
AmgSettingsObj
  3
"AcadM|Product Description: AutoCAD Mechanical|Company: Autodesk, Inc."
 90
     1024
280
     0
281
     0
  0
CLASS
  1
AMGOBJPROPCFG
  2
AmgObjPropCfg
  3
"AmgLay|Product Description: AutoCAD Mechanical|Company: Autodesk, Inc."
 90
     1025
280
     0
281
     0
  0
CLASS
  1
ACMESCOPE
  2
AcMeScope
  3
AcMeServices
 90
     1024
280
     0
281
     0
  0
CLASS
  1
ACGREFMASTER
  2
AcGrefMaster
  3
AcAttribServices
 90
     1024
280
     0
281
     0
  0
CLASS
  1
ACMECOMMANDHISTORY
  2
AcMeCommandHistory
  3
AcMeServices
 90
     1024
280
     0
281
     0
  0
CLASS
  1
ACIMSYSVARMAN
  2
AcImSysVarManager
  3
AcMeServices
 90
     1024
280
     0
281
     0
  0
CLASS
  1
ACIMINTSYSVAR
  2
AcImIntSysVar
  3
AcMeServices
 90
     1024
280
     0
281
     0
  0
CLASS
  1
ACMEDRAWINGMAN
  2
AcMeDrawingMan
  3
AcMeServices
 90
     1024
280
     0
281
     0
  0
CLASS
  1
ACMEVIEW
  2
AcMeView
  3
AcMeServices
 90
     1024
280
     0
281
     0
  0
CLASS
  1
ACDBENTITYCACHE
  2
AcMeEntityCache
  3
AcMeServices
 90
     1024
280
     0
281
     0
  0
CLASS
  1
ACMESTATEMGR
  2
AcMeStateMgr
  3
AcMeServices
 90
     1024
280
     0
281
     0
  0
CLASS
  1
AM_DRAWING_MGR
  2
AcDmDwgMgr
  3
AcMechDwgViewMgmt
 90
     1024
280
     0
281
     0
  0
CLASS
  1
AM_DWG_DOCUMENT
  2
AcDmDwgDocument
  3
AcMechDwgViewMgmt
 90
     1024
280
     0
281
     0
  0
CLASS
  1
AM_DWG_SHEET
  2
AcDmSheet
  3
AcMechDwgViewMgmt
 90
     1024
280
     0
281
     0
  0
CLASS
  1
AM_VIEWDIMPARMAP
  2
AcDmViewDimParMap
  3
AcMechDwgViewMgmt
 90
     1024
280
     0
281
     0
  0
CLASS
  1
AMDTINTERNALREACTOR
  2
AmdtInternalReactor
  3
AcMeServices
 90
     1024
280
     0
281
     0
  0
CLASS
  1
ACIMREALSYSVAR
  2
AcImRealSysVar
  3
AcMeServices
 90
     1024
280
     0
281
     0
  0
CLASS
  1
AM_DWGMGR_NAME
  2
AcDmDwgMgrName
  3
AcMechDwgViewMgmt
 90
     1024
280
     0
281
     0
  0
CLASS
  1
ACME_DATABASE
  2
AcMeDbDatabase
  3
AcMeServices
 90
     1024
280
     0
281
     0
  0
CLASS
  1
ACRFINSADJUSTERMGR
  2
AcRfInsAdjusterMgr
  3
AcMeServices
 90
     1024
280
     0
281
     0
  0
CLASS
  1
ACGREFACADMASTER
  2
AcGrefacadMaster
  3
AcGrefServices
 90
     1024
280
     0
281
     0
  0
CLASS
  1
AMDTMENUSTATEMGR
  2
AmdtMenuStateMgr
  3
McadcomServices
 90
     1024
280
     0
281
     0
  0
CLASS
  1
AMDTMCOMMENUSTATE
  2
AmdtMcomMenuState
  3
McadcomServices
 90
     1024
280
     0
281
     0
  0
CLASS
  1
AMIMASTER
  2
AmiMaster
  3
AmiServices
 90
     1024
280
     0
281
     0
  0
CLASS
  1
MAPIAMMOUDLE
  2
MApiAmModule
  3
MApiAmServices
 90
     1024
280
     0
281
     0
  0
CLASS
  1
AMDTWELDINGLIBRARY
  2
AmdtWeldingLibrary
  3
"AcmSymBB|Product Description: AutoCAD Mechanical|Company: Autodesk, Inc."
 90
    36863
280
     0
281
     0
  0
CLASS
  1
AMDTWELDINGLIBOBJECT
  2
AmdtWeldingLibObject
  3
"AcmSymBB|Product Description: AutoCAD Mechanical|Company: Autodesk, Inc."
 90
    36863
280
     0
281
     0
  0
CLASS
  1
AMDTEDGELIBRARY
  2
AmdtEdgeLibrary
  3
"AcmSymBB|Product Description: AutoCAD Mechanical|Company: Autodesk, Inc."
 90
    36863
280
     0
281
     0
  0
CLASS
  1
AMDTEDGELIBOBJECT
  2
AmdtEdgeLibObject
  3
"AcmSymBB|Product Description: AutoCAD Mechanical|Company: Autodesk, Inc."
 90
    36863
280
     0
281
     0
  0
CLASS
  1
AMDTFCFLIBRARY
  2
AmdtFCFLibrary
  3
"AcmSymBB|Product Description: AutoCAD Mechanical|Company: Autodesk, Inc."
 90
    36863
280
     0
281
     0
  0
CLASS
  1
AMDTFCFLIBOBJECT
  2
AmdtFCFLibObject
  3
"AcmSymBB|Product Description: AutoCAD Mechanical|Company: Autodesk, Inc."
 90
    36863
280
     0
281
     0
  0
CLASS
  1
ACMSTANDARDJIS
  2
AcmStandardJIS
  3
"Amdt_StdImp|Product Description: AutoCAD Mechanical|Company: Autodesk, Inc."
 90
     1024
280
     0
281
     0
  0
CLASS
  1
ACMSURFSTANDARDJIS2003
  2
AcmSurfTextStdJIS2003
  3
"Amdt_StdImp|Product Description: AutoCAD Mechanical|Company: Autodesk, Inc."
 90
     1024
280
     0
281
     0
  0
CLASS
  1
ACMFCFSTANDARDJIS98
  2
AcmFCFStdJIS98
  3
"Amdt_StdImp|Product Description: AutoCAD Mechanical|Company: Autodesk, Inc."
 90
     1024
280
     0
281
     0
  0
CLASS
  1
ACMWELDSTANDARDJIS
  2
AcmWeldingStdJIS
  3
"Amdt_StdImp|Product Description: AutoCAD Mechanical|Company: Autodesk, Inc."
 90
     1024
280
     0
281
     0
  0
CLASS
  1
ACMIDSTANDARDJIS
  2
AcmIdStdJIS
  3
"Amdt_StdImp|Product Description: AutoCAD Mechanical|Company: Autodesk, Inc."
 90
     1024
280
     0
281
     0
  0
CLASS
  1
ACMDATUMSTANDARDJIS
  2
AcmDatumStdJIS
  3
"Amdt_StdImp|Product Description: AutoCAD Mechanical|Company: Autodesk, Inc."
 90
     1024
280
     0
281
     0
  0
CLASS
  1
ACMBOMSTANDARDJIS
  2
AcmBOMStdJIS
  3
"Amdt_StdImp|Product Description: AutoCAD Mechanical|Company: Autodesk, Inc."
 90
     1024
280
     0
281
     0
  0
CLASS
  1
ACMDETAILSTANDARDJIS
  2
AmdtDetailSymStdJIS
  3
"Amdt_StdImp|Product Description: AutoCAD Mechanical|Company: Autodesk, Inc."
 90
     1024
280
     0
281
     0
  0
CLASS
  1
ACMSECTIONSTANDARDJIS
  2
AmdtSectionSymStdJIS
  3
"Amdt_StdImp|Product Description: AutoCAD Mechanical|Company: Autodesk, Inc."
 90
     1024
280
     0
281
     0
  0
CLASS
  1
ACMCENTERLINESTANDARDJIS
  2
AmdtCenterLineStdJIS
  3
"Amdt_StdImp|Product Description: AutoCAD Mechanical|Company: Autodesk, Inc."
 90
     1024
280
     0
281
     0
  0
CLASS
  1
ACMTHREADLINESTANDARDJIS
  2
AmdtThreadLineStdJIS
  3
"Amdt_StdImp|Product Description: AutoCAD Mechanical|Company: Autodesk, Inc."
 90
     1024
280
     0
281
     0
  0
CLASS
  1
ACAMGLAYSTD
  2
AcAmgLayStd
  3
"AmgLay|Product Description: AutoCAD Mechanical|Company: Autodesk, Inc."
 90
     1024
280
     0
281
     0
  0
CLASS
  1
ACAMGDIMSTD
  2
AcAmgDimStd
  3
"AmgDim|Product Description: AutoCAD Mechanical|Company: Autodesk, Inc."
 90
     1024
280
     0
281
     0
  0
CLASS
  1
ACAMGTITLESTD
  2
AcAmgTitleStd
  3
"AmgTitle|Product Description: AutoCAD Mechanical|Company: Autodesk, Inc."
 90
     4095
280
     0
281
     0
  0
CLASS
  1
ACMNOTESTANDARDJIS
  2
AmdtNoteStdJIS
  3
"Amdt_StdImp|Product Description: AutoCAD Mechanical|Company: Autodesk, Inc."
 90
     1024
280
     0
281
     0
  0
CLASS
  1
AMDTNOTETEMPLATEDB
  2
AmdtNoteTemplateDB
  3
AcmSymBB|Product Description: AutoCAD Mechanical|Company: Autodesk, Inc.
 90
     1024
280
     0
281
     0
  0
CLASS
  1
ACAMGHOLECHARTSTDJIS
  2
AcAmgHoleChartStdJIS
  3
AmgDim|Product Description: AutoCAD Mechanical|Company: Autodesk, Inc.
 90
     1024
280
     0
281
     0
  0
CLASS
  1
ACMTAPERSTANDARDJIS
  2
AcmTaperStdJIS
  3
"Amdt_StdImp|Product Description: AutoCAD Mechanical|Company: Autodesk, Inc."
 90
     1024
280
     0
281
     0
  0
CLASS
  1
ACMANOOTATIONVIEWSTANDARDJIS
  2
AmdtAnViewStdJIS
  3
"Amdt_StdImp|Product Description: AutoCAD Mechanical|Company: Autodesk, Inc."
 90
     1024
280
     0
281
     0
  0
CLASS
  1
AMDTEDGESTANDARDJIS
  2
AmdtEdgeStdJIS
  3
"Amdt_StdImp|Product Description: AutoCAD Mechanical|Company: Autodesk, Inc."
 90
     1024
280
     0
281
     0
  0
CLASS
  1
ACIMSTRSYSVAR
  2
AcImStrSysVar
  3
AcMeServices
 90
     1024
280
     0
281
     0
  0
CLASS
  1
AMDTADMENUSTATE
  2
AmdtAdMenuState
  3
DesignerServices
 90
     1024
280
     0
281
     0
  0
CLASS
  1
ADAPPL
  2
AcAdAppl
  3
DesignerServices
 90
     1024
280
     0
281
     0
  0
CLASS
  1
DEPMGR
  2
AcAdDepMgr
  3
DesignerServices
 90
     1024
280
     0
281
     0
  0
CLASS
  1
PARAMMGR
  2
AcAdParamMgr
  3
DesignerServices
 90
     1024
280
     0
281
     0
  0
CLASS
  1
PARAMSCOPE
  2
AcAdParamScope
  3
DesignerServices
 90
     1024
280
     0
281
     0
  0
CLASS
  1
NAMEDAPPL
  2
AcAdNamedAppl
  3
DesignerServices
 90
     1024
280
     0
281
     0
  0
CLASS
  1
AMDTDMMENUSTATE
  2
AmdtDmMenuState
  3
AcMechDwgViewMgmt
 90
     1024
280
     0
281
     0
  0
CLASS
  1
AMDTAMMENUSTATE
  2
AmdtAmMenuState
  3
DesignerAssemblies
 90
     1024
280
     0
281
     0
  0
CLASS
  1
ACAMPROJECT
  2
AcAmProject
  3
DesignerAssemblies
 90
     1024
280
     0
281
     0
  0
CLASS
  1
ACAMGRCOMPDEF
  2
AcAmGrCompDef
  3
DesignerAssemblies
 90
     1024
280
     0
281
     0
  0
CLASS
  1
ACAMCOMPDEF
  2
AcAmCompDef
  3
DesignerAssemblies
 90
     1024
280
     0
281
     0
  0
CLASS
  1
ACAMCOMPDEFMGR
  2
AcAmCompDefMgr
  3
DesignerAssemblies
 90
     1024
280
     0
281
     0
  0
CLASS
  1
AMCONTEXTMGR
  2
AcAmContextMgr
  3
DesignerAssemblies
 90
     1024
280
     0
281
     0
  0
CLASS
  1
ACAMCONTEXTMODELER
  2
AcAmContextModeler
  3
DesignerAssemblies
 90
     1024
280
     0
281
     0
  0
CLASS
  1
ACMDATADICTIONARY
  2
AcmDataDictionary
  3
"AcmSymBB|Product Description: AutoCAD Mechanical|Company: Autodesk, Inc."
 90
     1024
280
     0
281
     0
  0
CLASS
  1
CATALOGSTATE
  2
AcAmCatalogState
  3
DesignerAssemblies
 90
     1024
280
     0
281
     0
  0
CLASS
  1
ACAMGRCOMPDEFSET
  2
AcAmGrCompDefSet
  3
DesignerAssemblies
 90
     1024
280
     0
281
     0
  0
CLASS
  1
AMDTBROWSERDBTAB
  2
AmdtBrowserDbTab
  3
McadcomServices
 90
     1024
280
     0
281
     0
  0
CLASS
  1
CBROWSERAPPOBJECT
  2
CBrowserAppObject
  3
McadcomServices
 90
     1024
280
     0
281
     0
  0
CLASS
  1
DM_PLACEHOLDER
  2
AcDmSelsetPlaceholder
  3
AcMechDwgViewMgmt
 90
     1024
280
     0
281
     0
  0
CLASS
  1
EXACXREFPANELOBJECT
  2
ExAcXREFPanelObject
  3
EXAC_ESW
 90
    33793
280
     0
281
     0
  0
CLASS
  1
NPOCOLLECTION
  2
AcDbImpNonPersistentObjectsCollection
  3
ObjectDBX Classes
 90
    33921
280
     0
281
     0
  0
CLASS
  1
ACAMGFILTERDAT
  2
AcAmgFilterDat
  3
"AcadM|Product Description: AutoCAD Mechanical|Company: Autodesk, Inc."
 90
    33792
280
     0
281
     0
  0
CLASS
  1
CELLSTYLEMAP
  2
AcDbCellStyleMap
  3
ObjectDBX Classes
 90
     1152
280
     0
281
     0
  0
CLASS
  1
ACDBPLACEHOLDER
  2
AcDbPlaceHolder
  3
ObjectDBX Classes
 90
        0
280
     0
281
     0
  0
CLASS
  1
LAYOUT
  2
AcDbLayout
  3
ObjectDBX Classes
 90
        0
280
     0
281
     0
  0
CLASS
  1
ACMSTANDARDISO
  2
AcmStandardISO
  3
"Amdt_StdImp|Product Description: AutoCAD Mechanical|Company: Autodesk, Inc."
 90
     1024
280
     0
281
     0
  0
CLASS
  1
AMDTEDGESTANDARDISO13715
  2
AmdtEdgeStdISO13715
  3
"Amdt_StdImp|Product Description: AutoCAD Mechanical|Company: Autodesk, Inc."
 90
     1024
280
     0
281
     0
  0
CLASS
  1
ACMSURFSTANDARDISO2002
  2
AcmSurfTextStdISO2002
  3
"Amdt_StdImp|Product Description: AutoCAD Mechanical|Company: Autodesk, Inc."
 90
     1024
280
     0
281
     0
  0
CLASS
  1
ACMFCFSTANDARDISO
  2
AcmFCFStdISO
  3
"Amdt_StdImp|Product Description: AutoCAD Mechanical|Company: Autodesk, Inc."
 90
     1024
280
     0
281
     0
  0
CLASS
  1
ACMWELDSTANDARDISO
  2
AcmWeldingStdISO
  3
"Amdt_StdImp|Product Description: AutoCAD Mechanical|Company: Autodesk, Inc."
 90
     1024
280
     0
281
     0
  0
CLASS
  1
ACMIDSTANDARDISO
  2
AcmIdStdISO
  3
"Amdt_StdImp|Product Description: AutoCAD Mechanical|Company: Autodesk, Inc."
 90
     1024
280
     0
281
     0
  0
CLASS
  1
ACMDATUMSTANDARDISO
  2
AcmDatumStdISO
  3
"Amdt_StdImp|Product Description: AutoCAD Mechanical|Company: Autodesk, Inc."
 90
     1024
280
     0
281
     0
  0
CLASS
  1
ACMBOMSTANDARDISO
  2
AcmBOMStdISO
  3
"Amdt_StdImp|Product Description: AutoCAD Mechanical|Company: Autodesk, Inc."
 90
     1024
280
     0
281
     0
  0
CLASS
  1
ACMDETAILSTANDARDISO
  2
AmdtDetailSymStdISO
  3
"Amdt_StdImp|Product Description: AutoCAD Mechanical|Company: Autodesk, Inc."
 90
     1024
280
     0
281
     0
  0
CLASS
  1
ACMSECTIONSTANDARDISO2001
  2
AmdtSectionSymStdISO2001
  3
"Amdt_StdImp|Product Description: AutoCAD Mechanical|Company: Autodesk, Inc."
 90
     1024
280
     0
281
     0
  0
CLASS
  1
ACMCENTERLINESTANDARDISO
  2
AmdtCenterLineStdISO
  3
"Amdt_StdImp|Product Description: AutoCAD Mechanical|Company: Autodesk, Inc."
 90
     1024
280
     0
281
     0
  0
CLASS
  1
ACMTHREADLINESTANDARDISO
  2
AmdtThreadLineStdISO
  3
"Amdt_StdImp|Product Description: AutoCAD Mechanical|Company: Autodesk, Inc."
 90
     1024
280
     0
281
     0
  0
CLASS
  1
ACMNOTESTANDARDISO
  2
AmdtNoteStdISO
  3
"Amdt_StdImp|Product Description: AutoCAD Mechanical|Company: Autodesk, Inc."
 90
     1024
280
     0
281
     0
  0
CLASS
  1
ACMTAPERSTANDARDISO
  2
AcmTaperStdISO
  3
"Amdt_StdImp|Product Description: AutoCAD Mechanical|Company: Autodesk, Inc."
 90
     1024
280
     0
281
     0
  0
CLASS
  1
ACMANOOTATIONVIEWSTANDARDISO
  2
AmdtAnViewStdISO
  3
"Amdt_StdImp|Product Description: AutoCAD Mechanical|Company: Autodesk, Inc."
 90
     1024
280
     0
281
     0
  0
CLASS
  1
ACAMGHOLECHARTSTDISO
  2
AcAmgHoleChartStdISO
  3
AmgDim|Product Description: AutoCAD Mechanical|Company: Autodesk, Inc.
 90
     1024
280
     0
281
     0
  0
CLASS
  1
CAMSSTRUCTBTNSTATE
  2
StructBtnState
  3
DesignerAssemblies
 90
    33792
280
     0
281
     0
  0
CLASS
  1
AMDTNOTE
  2
AmdtNote
  3
"AcmSymBB|Product Description: AutoCAD Mechanical|Company: Autodesk, Inc."
 90
     4095
280
     0
281
     1
  0
ENDSEC
  0
SECTION
  2
TABLES
  0
TABLE
  2
VPORT
  5
8
330
0
100
AcDbSymbolTable
 70
     1
  0
VPORT
  5
52
330
8
100
AcDbSymbolTableRecord
100
AcDbViewportTableRecord
  2
*Active
 70
     0
 10
0.0
 20
0.0
 11
1.0
 21
1.0
 12
86.81406454790625
 22
39.99599899104646
 13
0.0
 23
0.0
 14
10.0
 24
10.0
 15
10.0
 25
10.0
 16
0.0
 26
0.0
 36
1.0
 17
0.0
 27
0.0
 37
0.0
 40
80.75204762759998
 41
2.893518518518518
 42
50.0
 43
0.0
 44
0.0
 50
0.0
 51
0.0
 71
     0
 72
  1000
 73
     1
 74
     1
 75
     0
 76
     0
 77
     0
 78
     0
281
     0
 65
     0
110
0.0
120
0.0
130
0.0
111
1.0
121
0.0
131
0.0
112
0.0
122
1.0
132
0.0
 79
     0
146
0.0
  0
ENDTAB
  0
TABLE
  2
LTYPE
  5
5
330
0
100
AcDbSymbolTable
 70
    19
  0
LTYPE
  5
56
330
5
100
AcDbSymbolTableRecord
100
AcDbLinetypeTableRecord
  2
ByBlock
 70
     0
  3

 72
    65
 73
     0
 40
0.0
  0
LTYPE
  5
57
330
5
100
AcDbSymbolTableRecord
100
AcDbLinetypeTableRecord
  2
ByLayer
 70
     0
  3

 72
    65
 73
     0
 40
0.0
  0
LTYPE
  5
58
330
5
100
AcDbSymbolTableRecord
100
AcDbLinetypeTableRecord
  2
Continuous
 70
     0
  3
Solid line
 72
    65
 73
     0
 40
0.0
  0
LTYPE
  5
94
330
5
100
AcDbSymbolTableRecord
100
AcDbLinetypeTableRecord
  2
AM_ISO02W050
 70
     0
  3
__ __ __ __ __ __ __ __ __ __ __ __ __ __ __
 72
    65
 73
     2
 40
7.5
 49
6.0
 74
     0
 49
-1.5
 74
     0
  0
LTYPE
  5
95
330
5
100
AcDbSymbolTableRecord
100
AcDbLinetypeTableRecord
  2
AM_ISO08W050
 70
     0
  3
____ . ____ . ____ . ____ . ____ . ____ . ____
 72
    65
 73
     4
 40
18.0
 49
12.0
 74
     0
 49
-1.5
 74
     0
 49
3.0
 74
     0
 49
-1.5
 74
     0
  0
LTYPE
  5
96
330
5
100
AcDbSymbolTableRecord
100
AcDbLinetypeTableRecord
  2
AM_ISO09W050
 70
     0
  3
_____ . . _____ . . _____ . . ____ .. ____
 72
    65
 73
     6
 40
22.5
 49
12.0
 74
     0
 49
-1.5
 74
     0
 49
3.0
 74
     0
 49
-1.5
 74
     0
 49
3.0
 74
     0
 49
-1.5
 74
     0
  0
LTYPE
  5
97
330
5
100
AcDbSymbolTableRecord
100
AcDbLinetypeTableRecord
  2
Amconstr
 70
     0
  3
_______________________
 72
    65
 73
     2
 40
9999.0
 49
9999.0
 74
     0
 49
0.0
 74
     0
  0
LTYPE
  5
98
330
5
100
AcDbSymbolTableRecord
100
AcDbLinetypeTableRecord
  2
AM_ISO08W050x2
 70
     0
  3
__ . __ . __ . __ . __ . __
 72
    65
 73
     4
 40
9.0
 49
6.0
 74
     0
 49
-0.75
 74
     0
 49
1.5
 74
     0
 49
-0.75
 74
     0
  0
LTYPE
  5
99
330
5
100
AcDbSymbolTableRecord
100
AcDbLinetypeTableRecord
  2
AM_ISO02W050x2
 70
     0
  3
 _ _ _ _ _ _ _ _ _ _ _ _
 72
    65
 73
     2
 40
3.75
 49
3.0
 74
     0
 49
-0.75
 74
     0
  0
LTYPE
  5
9A
330
5
100
AcDbSymbolTableRecord
100
AcDbLinetypeTableRecord
  2
Amzigzag
 70
     0
  3
/\/-/\/-/\/-/\/-/\/-/\/
 72
    65
 73
     2
 40
11.0001
 49
0.0001
 74
     4
 75
   136
340
8B
 46
0.04
 50
0.0
 44
0.0
 45
0.0
 49
-11.0
 74
     0
  0
LTYPE
  5
9B
330
5
100
AcDbSymbolTableRecord
100
AcDbLinetypeTableRecord
  2
ACJISTGB
 70
     0
  3
__ . . __ . .
 72
    65
 73
     6
 40
9.0
 49
4.0
 74
     0
 49
-1.0
 74
     0
 49
1.0
 74
     0
 49
-1.0
 74
     0
 49
1.0
 74
     0
 49
-1.0
 74
     0
  0
LTYPE
  5
9C
330
5
100
AcDbSymbolTableRecord
100
AcDbLinetypeTableRecord
  2
ACJISTGL
 70
     0
  3
_ _ _ _ _
 72
    65
 73
     2
 40
3.0
 49
2.0
 74
     0
 49
-1.0
 74
     0
  0
LTYPE
  5
9D
330
5
100
AcDbSymbolTableRecord
100
AcDbLinetypeTableRecord
  2
HIDDEN
 70
     0
  3
Hidden __ __ __ __ __ __ __ __ __ __ __ __ __ _
 72
    65
 73
     2
 40
9.524999999999996
 49
6.349999999999997
 74
     0
 49
-3.174999999999998
 74
     0
  0
LTYPE
  5
9E
330
5
100
AcDbSymbolTableRecord
100
AcDbLinetypeTableRecord
  2
ACJISWELD
 70
     0
  3
_ _ _ _ _
 72
    65
 73
     2
 40
2.0
 49
2.0
 74
     0
 49
-1.0
 74
     0
  0
LTYPE
  5
9F
330
5
100
AcDbSymbolTableRecord
100
AcDbLinetypeTableRecord
  2
DASH_DOT
 70
     0
  3
Dash dot __ . __ . __ . __ . __ . __ . __ . __
 72
    65
 73
     4
 40
0.37
 49
0.24
 74
     0
 49
-0.06
 74
     0
 49
0.01
 74
     0
 49
-0.06
 74
     0
  0
LTYPE
  5
A0
330
5
100
AcDbSymbolTableRecord
100
AcDbLinetypeTableRecord
  2
PHANTOM2
 70
     0
  3
Phantom (.5x) ___ _ _ ___ _ _ ___ _ _ ___ _ _
 72
    65
 73
     6
 40
31.75
 49
15.875
 74
     0
 49
-3.174999999999998
 74
     0
 49
3.174999999999998
 74
     0
 49
-3.174999999999998
 74
     0
 49
3.174999999999998
 74
     0
 49
-3.174999999999998
 74
     0
  0
LTYPE
  5
A1
330
5
100
AcDbSymbolTableRecord
100
AcDbLinetypeTableRecord
  2
CENTER
 70
     0
  3
Center ____ _ ____ _ ____ _ ____ _ ____ _ ____
 72
    65
 73
     4
 40
50.8
 49
31.75
 74
     0
 49
-6.349999999999997
 74
     0
 49
6.349999999999997
 74
     0
 49
-6.349999999999997
 74
     0
  0
LTYPE
  5
683
330
5
100
AcDbSymbolTableRecord
100
AcDbLinetypeTableRecord
  2
ACISOWELD
 70
     0
  3
_ _ _ _ _
 72
    65
 73
     2
 40
2.0
 49
2.0
 74
     0
 49
-1.0
 74
     0
  0
LTYPE
  5
684
330
5
100
AcDbSymbolTableRecord
100
AcDbLinetypeTableRecord
  2
ACISOTGB
 70
     0
  3
__ . . __ . .
 72
    65
 73
     6
 40
9.0
 49
4.0
 74
     0
 49
-1.0
 74
     0
 49
1.0
 74
     0
 49
-1.0
 74
     0
 49
1.0
 74
     0
 49
-1.0
 74
     0
  0
LTYPE
  5
685
330
5
100
AcDbSymbolTableRecord
100
AcDbLinetypeTableRecord
  2
ACISOTGL
 70
     0
  3
_ _ _ _ _
 72
    65
 73
     2
 40
3.0
 49
2.0
 74
     0
 49
-1.0
 74
     0
  0
ENDTAB
  0
TABLE
  2
LAYER
  5
2
102
{ACAD_XDICTIONARY
360
68D
102
}
330
0
100
AcDbSymbolTable
 70
    11
  0
LAYER
  5
4F
102
{ACAD_XDICTIONARY
360
5B1
102
}
330
2
100
AcDbSymbolTableRecord
100
AcDbLayerTableRecord
  2
0
 70
     0
 62
     7
  6
Continuous
370
    -3
390
F
1001
AcAecLayerStandard
1000

1000

  0
LAYER
  5
70
330
2
100
AcDbSymbolTableRecord
100
AcDbLayerTableRecord
  2
Defpoints
 70
     0
 62
     7
  6
Continuous
290
     0
370
    -3
390
F
1001
AcAecLayerStandard
1000

1000

  0
LAYER
  5
C9
102
{ACAD_XDICTIONARY
360
CA
102
}
330
2
100
AcDbSymbolTableRecord
100
AcDbLayerTableRecord
  2
AM_VIEWS
 70
     0
 62
     1
  6
Continuous
290
     0
370
    25
390
F
1001
AcAecLayerStandard
1000

1000

  0
LAYER
  5
D2
102
{ACAD_XDICTIONARY
360
D3
102
}
330
2
100
AcDbSymbolTableRecord
100
AcDbLayerTableRecord
  2
AM_5
 70
     0
 62
    92
  6
Continuous
370
    13
390
F
1001
AcAecLayerStandard
1000

1000

  0
LAYER
  5
F1
102
{ACAD_XDICTIONARY
360
F2
102
}
330
2
100
AcDbSymbolTableRecord
100
AcDbLayerTableRecord
  2
AM_0
 70
     0
 62
     7
  6
Continuous
370
    35
390
F
  0
LAYER
  5
136
102
{ACAD_XDICTIONARY
360
137
102
}
330
2
100
AcDbSymbolTableRecord
100
AcDbLayerTableRecord
  2
AM_7
 70
     0
 62
   142
  6
AM_ISO08W050x2
370
    13
390
F
1001
AcAecLayerStandard
1000

1000

  0
LAYER
  5
200
102
{ACAD_XDICTIONARY
360
5B3
102
}
330
2
100
AcDbSymbolTableRecord
100
AcDbLayerTableRecord
  2
Viewport2ForCustomObjects_0
 70
     0
 62
     7
  6
Continuous
370
    -3
390
F
  0
LAYER
  5
AAE
102
{ACAD_XDICTIONARY
360
AAF
102
}
330
2
100
AcDbSymbolTableRecord
100
AcDbLayerTableRecord
  2
AM_1
 70
     0
 62
    14
  6
Continuous
370
    50
390
F
1001
AcAecLayerStandard
1000

1000

  0
LAYER
  5
CBF
102
{ACAD_XDICTIONARY
360
CC0
102
}
330
2
100
AcDbSymbolTableRecord
100
AcDbLayerTableRecord
  2
Visible (ISO)
 70
     0
 62
     7
  6
Continuous
370
    35
390
F
  0
LAYER
  5
CC1
102
{ACAD_XDICTIONARY
360
CC2
102
}
330
2
100
AcDbSymbolTableRecord
100
AcDbLayerTableRecord
  2
Visible Narrow (ISO)
 70
     0
 62
     7
  6
Continuous
370
    35
390
F
  0
LAYER
  5
CC3
102
{ACAD_XDICTIONARY
360
CC4
102
}
330
2
100
AcDbSymbolTableRecord
100
AcDbLayerTableRecord
  2
AM_6KM
 70
     0
 62
   140
  6
Continuous
370
    13
390
F
1001
AcAecLayerStandard
1000

1000

  0
ENDTAB
  0
TABLE
  2
STYLE
  5
3
330
0
100
AcDbSymbolTable
 70
    14
  0
STYLE
  5
50
330
3
100
AcDbSymbolTableRecord
100
AcDbTextStyleTableRecord
  2
STANDARD
 70
     0
 40
0.0
 41
1.0
 50
0.0
 71
     0
 42
2.5
  3
tahoma.ttf
  4

1001
ACAD
1000
Tahoma
1071
       34
  0
STYLE
  5
55
330
3
100
AcDbSymbolTableRecord
100
AcDbTextStyleTableRecord
  2
Annotative
 70
     0
 40
0.0
 41
1.0
 50
0.0
 71
     0
 42
0.2
  3
txt
  4

1001
AcadAnnotative
1000
AnnotativeData
1002
{
1070
     1
1070
     1
1002
}
  0
STYLE
  5
8A
330
3
100
AcDbSymbolTableRecord
100
AcDbTextStyleTableRecord
  2
ACJISGDT
 70
     0
 40
0.0
 41
1.0
 50
0.0
 71
     0
 42
2.5
  3
amgdt.shx
  4
extfont2.shx
  0
STYLE
  5
8B
330
3
100
AcDbSymbolTableRecord
100
AcDbTextStyleTableRecord
  2

 70
     1
 40
0.0
 41
1.0
 50
0.0
 71
     0
 42
2.5
  3
genltshp.shx
  4

  0
STYLE
  5
8C
330
3
100
AcDbSymbolTableRecord
100
AcDbTextStyleTableRecord
  2
Note Text (JIS)
 70
     0
 40
0.0
 41
1.0
 50
0.0
 71
     0
 42
0.2
  3
tahoma.ttf
  4

1001
ACAD
1000
Tahoma
1071
      256
  0
STYLE
  5
8D
330
3
100
AcDbSymbolTableRecord
100
AcDbTextStyleTableRecord
  2
CustomTextStyle0
 70
     0
 40
3.5
 41
1.0
 50
0.0
 71
     0
 42
2.5
  3
tahoma.ttf
  4

1001
ACAD
1000
Tahoma
1071
      290
  0
STYLE
  5
8E
330
3
100
AcDbSymbolTableRecord
100
AcDbTextStyleTableRecord
  2
CustomTextStyle1
 70
     0
 40
3.5
 41
1.0
 50
0.0
 71
     0
 42
2.5
  3

  4

1001
ACAD
1000
MS PGothic
1071
      306
  0
STYLE
  5
8F
330
3
100
AcDbSymbolTableRecord
100
AcDbTextStyleTableRecord
  2
CustomTextStyle2
 70
     0
 40
3.5
 41
1.0
 50
0.0
 71
     0
 42
2.5
  3
tahoma.ttf
  4

1001
ACAD
1000
Tahoma
1071
      290
  0
STYLE
  5
90
330
3
100
AcDbSymbolTableRecord
100
AcDbTextStyleTableRecord
  2
CustomTextStyle3
 70
     0
 40
3.5
 41
1.0
 50
0.0
 71
     0
 42
2.5
  3

  4

1001
ACAD
1000
MS PGothic
1071
      306
  0
STYLE
  5
91
330
3
100
AcDbSymbolTableRecord
100
AcDbTextStyleTableRecord
  2
CustomTextStyle4
 70
     0
 40
3.5
 41
1.0
 50
0.0
 71
     0
 42
2.5
  3
tahoma.ttf
  4

1001
ACAD
1000
Tahoma
1071
      290
  0
STYLE
  5
92
330
3
100
AcDbSymbolTableRecord
100
AcDbTextStyleTableRecord
  2
CustomTextStyle5
 70
     0
 40
3.5
 41
1.0
 50
0.0
 71
     0
 42
2.5
  3

  4

1001
ACAD
1000
MS PGothic
1071
      306
  0
STYLE
  5
93
330
3
100
AcDbSymbolTableRecord
100
AcDbTextStyleTableRecord
  2
CustomTextStyle6
 70
     0
 40
3.5
 41
1.0
 50
0.0
 71
     0
 42
2.5
  3

  4

1001
ACAD
1000
MS PGothic
1071
      306
  0
STYLE
  5
681
330
3
100
AcDbSymbolTableRecord
100
AcDbTextStyleTableRecord
  2
ACISOTS
 70
     0
 40
1.0
 41
1.0
 50
0.0
 71
     0
 42
2.5
  3
isocp.shx
  4
extfont.shx
  0
STYLE
  5
682
330
3
100
AcDbSymbolTableRecord
100
AcDbTextStyleTableRecord
  2
ACISOGDT
 70
     0
 40
0.0
 41
1.0
 50
0.0
 71
     0
 42
2.5
  3
amgdt.shx
  4

  0
ENDTAB
  0
TABLE
  2
VIEW
  5
6
330
0
100
AcDbSymbolTable
 70
     0
  0
ENDTAB
  0
TABLE
  2
UCS
  5
7
330
0
100
AcDbSymbolTable
 70
     0
  0
ENDTAB
  0
TABLE
  2
APPID
  5
9
330
0
100
AcDbSymbolTable
 70
    45
  0
APPID
  5
51
330
9
100
AcDbSymbolTableRecord
100
AcDbRegAppTableRecord
  2
ACAD
 70
     0
  0
APPID
  5
59
330
9
100
AcDbSymbolTableRecord
100
AcDbRegAppTableRecord
  2
AcadAnnotative
 70
     0
  0
APPID
  5
6F
330
9
100
AcDbSymbolTableRecord
100
AcDbRegAppTableRecord
  2
ACAD_PSEXT
 70
     0
  0
APPID
  5
71
330
9
100
AcDbSymbolTableRecord
100
AcDbRegAppTableRecord
  2
ACAD_DSTYLE_DIMJOGGED_JOGANGLE_SYMBOL
 70
     0
  0
APPID
  5
72
330
9
100
AcDbSymbolTableRecord
100
AcDbRegAppTableRecord
  2
ACAD_DSTYLE_DIMJAG
 70
     0
  0
APPID
  5
73
330
9
100
AcDbSymbolTableRecord
100
AcDbRegAppTableRecord
  2
ACAD_DSTYLE_DIMBREAK
 70
     0
  0
APPID
  5
74
330
9
100
AcDbSymbolTableRecord
100
AcDbRegAppTableRecord
  2
AcAecLayerStandard
 70
     0
  0
APPID
  5
75
330
9
100
AcDbSymbolTableRecord
100
AcDbRegAppTableRecord
  2
GENIUS_GENREC_14
 70
     0
  0
APPID
  5
76
330
9
100
AcDbSymbolTableRecord
100
AcDbRegAppTableRecord
  2
GENIUS_GENODEF_13
 70
     0
  0
APPID
  5
77
330
9
100
AcDbSymbolTableRecord
100
AcDbRegAppTableRecord
  2
GENIUS_GENOBJ-N-REC_13
 70
     0
  0
APPID
  5
78
330
9
100
AcDbSymbolTableRecord
100
AcDbRegAppTableRecord
  2
ACAD_DSTYLE_DIMTALN
 70
     0
  0
APPID
  5
79
330
9
100
AcDbSymbolTableRecord
100
AcDbRegAppTableRecord
  2
GENIUS_GENOENT_13
 70
     0
  0
APPID
  5
7A
330
9
100
AcDbSymbolTableRecord
100
AcDbRegAppTableRecord
  2
GENIUS_GENOBJ-N-FITL_13
 70
     0
  0
APPID
  5
7B
330
9
100
AcDbSymbolTableRecord
100
AcDbRegAppTableRecord
  2
GENIUS_GENOLIS_13
 70
     0
  0
APPID
  5
7C
330
9
100
AcDbSymbolTableRecord
100
AcDbRegAppTableRecord
  2
GENIUS_GENFITL_13
 70
     0
  0
APPID
  5
7D
330
9
100
AcDbSymbolTableRecord
100
AcDbRegAppTableRecord
  2
GENIUS_GENOREF_13
 70
     0
  0
APPID
  5
7E
330
9
100
AcDbSymbolTableRecord
100
AcDbRegAppTableRecord
  2
GENIUS_GENOBJ-N-RSSYM_13
 70
     0
  0
APPID
  5
7F
330
9
100
AcDbSymbolTableRecord
100
AcDbRegAppTableRecord
  2
GENIUS_GENSYMENT_13
 70
     0
  0
APPID
  5
80
330
9
100
AcDbSymbolTableRecord
100
AcDbRegAppTableRecord
  2
ACAD_DSTYLE_DIMINSPECT
 70
     0
  0
APPID
  5
81
330
9
100
AcDbSymbolTableRecord
100
AcDbRegAppTableRecord
  2
ACAD_DSTYLE_DIMRADIAL_EXTENSION
 70
     0
  0
APPID
  5
82
330
9
100
AcDbSymbolTableRecord
100
AcDbRegAppTableRecord
  2
GENIUS_GENSCREG_15
 70
     0
  0
APPID
  5
83
330
9
100
AcDbSymbolTableRecord
100
AcDbRegAppTableRecord
  2
GENIUS_GENOBJ-N-SDF_13
 70
     0
  0
APPID
  5
84
330
9
100
AcDbSymbolTableRecord
100
AcDbRegAppTableRecord
  2
GENIUS_GENOBJ-N-CRS_13
 70
     0
  0
APPID
  5
85
330
9
100
AcDbSymbolTableRecord
100
AcDbRegAppTableRecord
  2
AcDbDynamicBlockGUID
 70
     0
  0
APPID
  5
86
330
9
100
AcDbSymbolTableRecord
100
AcDbRegAppTableRecord
  2
GENIUS_AMGTXT_16
 70
     0
  0
APPID
  5
87
330
9
100
AcDbSymbolTableRecord
100
AcDbRegAppTableRecord
  2
GENIUS_GENOBJ-N-CEN_13
 70
     0
  0
APPID
  5
88
330
9
100
AcDbSymbolTableRecord
100
AcDbRegAppTableRecord
  2
GENIUS_GENCEN_19
 70
     0
  0
APPID
  5
89
330
9
100
AcDbSymbolTableRecord
100
AcDbRegAppTableRecord
  2
ACATTRIBSERVICES
 70
     0
  0
APPID
  5
505
330
9
100
AcDbSymbolTableRecord
100
AcDbRegAppTableRecord
  2
MCAD_NO_VIS
 70
     0
  0
APPID
  5
506
330
9
100
AcDbSymbolTableRecord
100
AcDbRegAppTableRecord
  2
ACAD_TEMP_GRAPHIC
 70
     0
  0
APPID
  5
507
330
9
100
AcDbSymbolTableRecord
100
AcDbRegAppTableRecord
  2
AD_DRAW
 70
     0
  0
APPID
  5
508
330
9
100
AcDbSymbolTableRecord
100
AcDbRegAppTableRecord
  2
DESIGNERASSEMBLIES
 70
     0
  0
APPID
  5
509
330
9
100
AcDbSymbolTableRecord
100
AcDbRegAppTableRecord
  2
ACADM_DIM_EDIT
 70
     0
  0
APPID
  5
50A
330
9
100
AcDbSymbolTableRecord
100
AcDbRegAppTableRecord
  2
AMDT_DM_ADJ
 70
     0
  0
APPID
  5
50B
330
9
100
AcDbSymbolTableRecord
100
AcDbRegAppTableRecord
  2
ACAD_DSTYLE_DIMARC_LENGTH_SYMBOL
 70
     0
  0
APPID
  5
50C
330
9
100
AcDbSymbolTableRecord
100
AcDbRegAppTableRecord
  2
ACAD_MLEADERVER
 70
     0
  0
APPID
  5
50D
330
9
100
AcDbSymbolTableRecord
100
AcDbRegAppTableRecord
  2
ACAD_EXEMPT_FROM_CAD_STANDARDS
 70
     0
  0
APPID
  5
50E
330
9
100
AcDbSymbolTableRecord
100
AcDbRegAppTableRecord
  2
AcadAnnoPO
 70
     0
  0
APPID
  5
50F
330
9
100
AcDbSymbolTableRecord
100
AcDbRegAppTableRecord
  2
GENIUS_GENTRA_14
 70
     0
  0
APPID
  5
510
330
9
100
AcDbSymbolTableRecord
100
AcDbRegAppTableRecord
  2
GENIUS_GENSCSYM_13
 70
     0
  0
APPID
  5
5FA
330
9
100
AcDbSymbolTableRecord
100
AcDbRegAppTableRecord
  2
ACAD_DSTYLE_DIM_LINETYPE
 70
     0
  0
APPID
  5
5FB
330
9
100
AcDbSymbolTableRecord
100
AcDbRegAppTableRecord
  2
ACAD_DSTYLE_DIM_EXT1_LINETYPE
 70
     0
  0
APPID
  5
5FC
330
9
100
AcDbSymbolTableRecord
100
AcDbRegAppTableRecord
  2
ACAD_DSTYLE_DIM_EXT2_LINETYPE
 70
     0
  0
APPID
  5
A8E
330
9
100
AcDbSymbolTableRecord
100
AcDbRegAppTableRecord
  2
ACAD_DSTYLE_DIMANGULAR_EXTENSION
 70
     0
  0
APPID
  5
EE5
330
9
100
AcDbSymbolTableRecord
100
AcDbRegAppTableRecord
  2
GENIUS_GENDTOL_13
 70
     0
  0
ENDTAB
  0
TABLE
  2
DIMSTYLE
  5
A
330
0
100
AcDbSymbolTable
 70
    20
100
AcDbDimStyleTable
 71
     1
340
A3
  0
DIMSTYLE
105
53
330
A
100
AcDbSymbolTableRecord
100
AcDbDimStyleTableRecord
  2
Standard
 70
     0
340
50
  0
DIMSTYLE
105
54
330
A
100
AcDbSymbolTableRecord
100
AcDbDimStyleTableRecord
  2
Annotative
 70
     0
340
50
1001
AcadAnnotative
1000
AnnotativeData
1002
{
1070
     1
1070
     1
1002
}
  0
DIMSTYLE
105
A2
330
A
100
AcDbSymbolTableRecord
100
AcDbDimStyleTableRecord
  2
ISO-25
 70
     0
 41
2.5
 42
0.625
 43
3.75
 44
1.25
 73
     0
 74
     0
 77
     1
 78
     8
140
2.5
141
2.5
143
0.03937007874016
147
0.625
171
     3
172
     1
271
     2
272
     2
274
     3
278
    44
283
     0
284
     8
340
50
  0
DIMSTYLE
105
A3
330
A
100
AcDbSymbolTableRecord
100
AcDbDimStyleTableRecord
  2
AM_JIS
 70
     0
  4
"
 41
2.5
 42
0.5
 43
8.0
 44
1.0
 47
0.1
 48
0.1000000001
 73
     0
 74
     0
 77
     3
 78
     8
 79
     2
140
3.5
141
0.0
143
0.0393701
146
0.55
147
0.8
172
     1
176
   256
177
   256
178
   140
271
     3
272
     3
283
     0
284
     8
340
50
341
A4
342
A4
371
    -1
372
    -1
1001
ACAD_DSTYLE_DIMJOGGED_JOGANGLE_SYMBOL
1070
   384
1040
0.7853981633974483
1001
ACAD_DSTYLE_DIMBREAK
1070
   391
1040
3.75
1001
ACAD_DSTYLE_DIMJAG
1070
   388
1040
1.5
1001
ACAD_DSTYLE_DIMTALN
1070
   392
1070
     0
1001
ACAD_DSTYLE_DIMARC_LENGTH_SYMBOL
1070
   379
1070
     1
1001
ACAD_DSTYLE_DIM_LINETYPE
1070
   380
1005
56
1001
ACAD_DSTYLE_DIM_EXT1_LINETYPE
1070
   381
1005
56
1001
ACAD_DSTYLE_DIM_EXT2_LINETYPE
1070
   382
1005
56
  0
DIMSTYLE
105
AA
330
A
100
AcDbSymbolTableRecord
100
AcDbDimStyleTableRecord
  2
AM_JIS$3
 70
     0
  4
"
 41
2.5
 42
0.5
 43
8.0
 44
1.0
 47
0.1
 48
0.1000000001
 73
     0
 77
     3
 78
     8
 79
     2
140
3.5
141
0.0
143
0.0393701
146
0.55
147
0.8
176
   256
177
   256
178
   140
271
     3
272
     3
283
     0
284
     8
288
     1
289
     0
340
50
341
A4
342
A4
371
    -1
372
    -1
1001
ACAD_DSTYLE_DIMJOGGED_JOGANGLE_SYMBOL
1070
   384
1040
0.7853981633974483
1001
ACAD_DSTYLE_DIMBREAK
1070
   391
1040
3.75
1001
ACAD_DSTYLE_DIMJAG
1070
   388
1040
1.5
1001
ACAD_DSTYLE_DIMTALN
1070
   392
1070
     0
1001
ACAD_DSTYLE_DIMARC_LENGTH_SYMBOL
1070
   379
1070
     1
1001
ACAD_DSTYLE_DIM_LINETYPE
1070
   380
1005
56
1001
ACAD_DSTYLE_DIM_EXT1_LINETYPE
1070
   381
1005
56
1001
ACAD_DSTYLE_DIM_EXT2_LINETYPE
1070
   382
1005
56
  0
DIMSTYLE
105
AB
330
A
100
AcDbSymbolTableRecord
100
AcDbDimStyleTableRecord
  2
AM_JIS$4
 70
     0
  4
"
 41
2.5
 42
0.5
 43
8.0
 44
1.0
 47
0.1
 48
0.1000000001
 73
     0
 74
     0
 77
     3
 78
     8
 79
     2
140
3.5
141
0.0
143
0.0393701
146
0.55
147
0.8
172
     1
176
   256
177
   256
178
   140
271
     3
272
     3
283
     0
284
     8
340
50
341
A4
342
A4
371
    -1
372
    -1
1001
ACAD_DSTYLE_DIMJOGGED_JOGANGLE_SYMBOL
1070
   384
1040
0.7853981633974483
1001
ACAD_DSTYLE_DIMBREAK
1070
   391
1040
3.75
1001
ACAD_DSTYLE_DIMJAG
1070
   388
1040
1.5
1001
ACAD_DSTYLE_DIMTALN
1070
   392
1070
     0
1001
ACAD_DSTYLE_DIMARC_LENGTH_SYMBOL
1070
   379
1070
     1
1001
ACAD_DSTYLE_DIM_LINETYPE
1070
   380
1005
56
1001
ACAD_DSTYLE_DIM_EXT1_LINETYPE
1070
   381
1005
56
1001
ACAD_DSTYLE_DIM_EXT2_LINETYPE
1070
   382
1005
56
  0
DIMSTYLE
105
AC
330
A
100
AcDbSymbolTableRecord
100
AcDbDimStyleTableRecord
  2
AM_JIS$6
 70
     0
  4
"
 41
2.5
 42
0.5
 43
8.0
 44
1.0
 47
0.1
 48
0.1000000001
 73
     0
 74
     0
 78
     8
 79
     2
140
3.5
141
0.0
143
0.0393701
146
0.55
147
0.8
172
     1
176
   256
177
   256
178
   140
271
     3
272
     3
283
     0
284
     8
340
50
341
A4
342
A4
371
    -1
372
    -1
1001
ACAD_DSTYLE_DIMJOGGED_JOGANGLE_SYMBOL
1070
   384
1040
0.7853981633974483
1001
ACAD_DSTYLE_DIMBREAK
1070
   391
1040
3.75
1001
ACAD_DSTYLE_DIMJAG
1070
   388
1040
1.5
1001
ACAD_DSTYLE_DIMTALN
1070
   392
1070
     0
1001
ACAD_DSTYLE_DIMARC_LENGTH_SYMBOL
1070
   379
1070
     1
1001
ACAD_DSTYLE_DIM_LINETYPE
1070
   380
1005
56
1001
ACAD_DSTYLE_DIM_EXT1_LINETYPE
1070
   381
1005
56
1001
ACAD_DSTYLE_DIM_EXT2_LINETYPE
1070
   382
1005
56
  0
DIMSTYLE
105
AD
330
A
100
AcDbSymbolTableRecord
100
AcDbDimStyleTableRecord
  2
AM_JIS$7
 70
     0
  4
"
 41
2.5
 42
0.5
 43
8.0
 44
1.0
 47
0.1
 48
0.1000000001
 73
     0
 74
     0
 77
     3
 78
     8
 79
     2
140
3.5
141
0.0
143
0.0393701
146
0.55
147
0.8
172
     1
176
   256
177
   256
178
   140
271
     3
272
     3
283
     0
284
     8
340
50
341
A4
342
A4
371
    -1
372
    -1
1001
ACAD_DSTYLE_DIMJOGGED_JOGANGLE_SYMBOL
1070
   384
1040
0.7853981633974483
1001
ACAD_DSTYLE_DIMBREAK
1070
   391
1040
3.75
1001
ACAD_DSTYLE_DIMJAG
1070
   388
1040
1.5
1001
ACAD_DSTYLE_DIMTALN
1070
   392
1070
     0
1001
ACAD_DSTYLE_DIMARC_LENGTH_SYMBOL
1070
   379
1070
     1
1001
ACAD_DSTYLE_DIM_LINETYPE
1070
   380
1005
56
1001
ACAD_DSTYLE_DIM_EXT1_LINETYPE
1070
   381
1005
56
1001
ACAD_DSTYLE_DIM_EXT2_LINETYPE
1070
   382
1005
56
  0
DIMSTYLE
105
AE
330
A
100
AcDbSymbolTableRecord
100
AcDbDimStyleTableRecord
  2
AM_JIS$SF
 70
     0
  4
"
 41
2.5
 42
0.5
 43
8.0
 44
1.0
 47
0.1
 48
0.1000000001
 73
     0
 74
     0
 75
     1
 76
     1
 77
     3
 78
     8
 79
     2
140
3.5
141
0.0
143
0.0393701
146
0.55
147
0.8
172
     1
176
   256
177
   256
178
   140
271
     3
272
     3
283
     0
284
     8
340
50
341
A4
342
A4
371
    -1
372
    -1
1001
ACAD_DSTYLE_DIMJOGGED_JOGANGLE_SYMBOL
1070
   384
1040
0.7853981633974483
1001
ACAD_DSTYLE_DIMBREAK
1070
   391
1040
3.75
1001
ACAD_DSTYLE_DIMJAG
1070
   388
1040
1.5
1001
ACAD_DSTYLE_DIMTALN
1070
   392
1070
     0
1001
ACAD_DSTYLE_DIMARC_LENGTH_SYMBOL
1070
   379
1070
     1
1001
ACAD_DSTYLE_DIM_LINETYPE
1070
   380
1005
56
1001
ACAD_DSTYLE_DIM_EXT1_LINETYPE
1070
   381
1005
56
1001
ACAD_DSTYLE_DIM_EXT2_LINETYPE
1070
   382
1005
56
  0
DIMSTYLE
105
AF
330
A
100
AcDbSymbolTableRecord
100
AcDbDimStyleTableRecord
  2
AM_JIS$SH
 70
     0
  4
"
 41
2.5
 42
0.5
 43
8.0
 44
1.0
 47
0.1
 48
0.1000000001
 73
     0
 74
     0
 75
     1
 76
     1
 77
     3
 78
     8
 79
     2
140
3.5
141
0.0
143
0.0393701
144
2.0
146
0.55
147
0.8
172
     1
173
     1
176
   256
177
   256
178
   140
271
     3
272
     3
283
     0
284
     8
340
50
341
A4
342
A4
343
B0
371
    -1
372
    -1
1001
ACAD_DSTYLE_DIMJOGGED_JOGANGLE_SYMBOL
1070
   384
1040
0.7853981633974483
1001
ACAD_DSTYLE_DIMBREAK
1070
   391
1040
3.75
1001
ACAD_DSTYLE_DIMJAG
1070
   388
1040
1.5
1001
ACAD_DSTYLE_DIMTALN
1070
   392
1070
     0
1001
ACAD_DSTYLE_DIMARC_LENGTH_SYMBOL
1070
   379
1070
     1
1001
ACAD_DSTYLE_DIM_LINETYPE
1070
   380
1005
56
1001
ACAD_DSTYLE_DIM_EXT1_LINETYPE
1070
   381
1005
56
1001
ACAD_DSTYLE_DIM_EXT2_LINETYPE
1070
   382
1005
56
  0
DIMSTYLE
105
B4
102
{ACAD_REACTORS
330
D9F
330
DA0
330
DA1
330
DA2
330
DA3
330
DA4
330
DA5
330
DA6
330
DA7
330
EA8
102
}
330
A
100
AcDbSymbolTableRecord
100
AcDbDimStyleTableRecord
  2
AM_JIS$0
 70
     0
  4
"
 41
2.5
 42
0.5
 43
8.0
 44
1.0
 47
0.1
 48
0.1000000001
 73
     0
 74
     0
 77
     3
 78
     8
 79
     2
140
3.5
141
0.0
143
0.0393701
146
0.55
147
0.8
172
     1
176
   256
177
   256
178
   140
271
     3
272
     3
283
     0
284
     8
340
50
341
A4
342
A4
371
    -1
372
    -1
1001
ACAD_DSTYLE_DIMBREAK
1070
   391
1040
3.75
1001
ACAD_DSTYLE_DIMJAG
1070
   388
1040
1.5
1001
ACAD_DSTYLE_DIMTALN
1070
   392
1070
     0
1001
ACAD_DSTYLE_DIMARC_LENGTH_SYMBOL
1070
   379
1070
     1
1001
ACAD_DSTYLE_DIM_LINETYPE
1070
   380
1005
56
1001
ACAD_DSTYLE_DIM_EXT1_LINETYPE
1070
   381
1005
56
1001
ACAD_DSTYLE_DIM_EXT2_LINETYPE
1070
   382
1005
56
  0
DIMSTYLE
105
B5
330
A
100
AcDbSymbolTableRecord
100
AcDbDimStyleTableRecord
  2
AM_JIS$2
 70
     0
  4
"
 41
2.5
 42
0.5
 43
8.0
 44
1.0
 47
0.1
 48
0.1000000001
 73
     0
 74
     0
 77
     3
 78
     8
 79
     2
140
3.5
141
0.0
143
0.0393701
146
0.55
147
0.8
172
     1
176
   256
177
   256
178
   140
271
     3
272
     3
283
     0
284
     8
340
50
341
A4
342
A4
371
    -1
372
    -1
1001
ACAD_DSTYLE_DIMJOGGED_JOGANGLE_SYMBOL
1070
   384
1040
0.7853981633974483
1001
ACAD_DSTYLE_DIMBREAK
1070
   391
1040
3.75
1001
ACAD_DSTYLE_DIMJAG
1070
   388
1040
1.5
1001
ACAD_DSTYLE_DIMTALN
1070
   392
1070
     0
1001
ACAD_DSTYLE_DIMARC_LENGTH_SYMBOL
1070
   379
1070
     1
1001
ACAD_DSTYLE_DIM_LINETYPE
1070
   380
1005
56
1001
ACAD_DSTYLE_DIM_EXT1_LINETYPE
1070
   381
1005
56
1001
ACAD_DSTYLE_DIM_EXT2_LINETYPE
1070
   382
1005
56
  0
DIMSTYLE
105
677
102
{ACAD_REACTORS
330
120B
102
}
330
A
100
AcDbSymbolTableRecord
100
AcDbDimStyleTableRecord
  2
AM_ISO
 70
     0
  4
"
 41
3.5
 42
1.0
 43
10.0
 44
1.0
 47
0.1
 48
0.1
 73
     0
 74
     0
 77
     1
 78
     8
 79
     2
140
3.5
141
0.0
143
0.0393701
146
0.71
147
1.5
172
     1
176
   256
177
   256
178
   140
271
     2
272
     3
274
     4
283
     0
284
     8
340
50
371
    -1
372
    -1
1001
ACAD_DSTYLE_DIMJAG
1070
   388
1040
1.5
1001
ACAD_DSTYLE_DIMBREAK
1070
   391
1040
3.75
1001
ACAD_DSTYLE_DIMARC_LENGTH_SYMBOL
1070
   379
1070
     1
1001
ACAD_DSTYLE_DIM_LINETYPE
1070
   380
1005
56
1001
ACAD_DSTYLE_DIM_EXT1_LINETYPE
1070
   381
1005
56
1001
ACAD_DSTYLE_DIM_EXT2_LINETYPE
1070
   382
1005
56
  0
DIMSTYLE
105
679
330
A
100
AcDbSymbolTableRecord
100
AcDbDimStyleTableRecord
  2
AM_ISO$3
 70
     0
  4
"
 41
3.5
 42
1.0
 43
10.0
 44
1.0
 47
0.1
 48
0.1
 73
     0
 77
     1
 78
     8
 79
     2
140
3.5
141
0.0
143
0.0393701
146
0.71
147
1.5
176
   256
177
   256
178
   140
271
     2
272
     3
274
     4
283
     0
284
     8
288
     1
289
     0
340
50
371
    -1
372
    -1
1001
ACAD_DSTYLE_DIMBREAK
1070
   391
1040
3.75
1001
ACAD_DSTYLE_DIMJAG
1070
   388
1040
1.5
1001
ACAD_DSTYLE_DIMARC_LENGTH_SYMBOL
1070
   379
1070
     1
1001
ACAD_DSTYLE_DIM_LINETYPE
1070
   380
1005
56
1001
ACAD_DSTYLE_DIM_EXT1_LINETYPE
1070
   381
1005
56
1001
ACAD_DSTYLE_DIM_EXT2_LINETYPE
1070
   382
1005
56
  0
DIMSTYLE
105
67A
330
A
100
AcDbSymbolTableRecord
100
AcDbDimStyleTableRecord
  2
AM_ISO$4
 70
     0
  4
"
 41
3.5
 42
1.0
 43
10.0
 44
1.0
 47
0.1
 48
0.1
 73
     0
 77
     1
 78
     8
 79
     2
140
3.5
141
0.0
143
0.0393701
146
0.71
147
1.5
176
   256
177
   256
178
   140
271
     2
272
     3
274
     4
283
     0
284
     8
288
     1
289
     0
340
50
371
    -1
372
    -1
1001
ACAD_DSTYLE_DIMBREAK
1070
   391
1040
3.75
1001
ACAD_DSTYLE_DIMJAG
1070
   388
1040
1.5
1001
ACAD_DSTYLE_DIMARC_LENGTH_SYMBOL
1070
   379
1070
     1
1001
ACAD_DSTYLE_DIM_LINETYPE
1070
   380
1005
56
1001
ACAD_DSTYLE_DIM_EXT1_LINETYPE
1070
   381
1005
56
1001
ACAD_DSTYLE_DIM_EXT2_LINETYPE
1070
   382
1005
56
  0
DIMSTYLE
105
67B
330
A
100
AcDbSymbolTableRecord
100
AcDbDimStyleTableRecord
  2
AM_ISO$6
 70
     0
  4
"
 41
3.5
 42
1.0
 43
10.0
 44
1.0
 47
0.1
 48
0.1
 73
     0
 74
     0
 78
     8
 79
     2
140
3.5
141
0.0
143
0.0393701
146
0.71
147
1.5
172
     1
176
   256
177
   256
178
   140
271
     2
272
     3
274
     4
283
     0
284
     8
340
50
371
    -1
372
    -1
1001
ACAD_DSTYLE_DIMBREAK
1070
   391
1040
3.75
1001
ACAD_DSTYLE_DIMJAG
1070
   388
1040
1.5
1001
ACAD_DSTYLE_DIMARC_LENGTH_SYMBOL
1070
   379
1070
     1
1001
ACAD_DSTYLE_DIM_LINETYPE
1070
   380
1005
56
1001
ACAD_DSTYLE_DIM_EXT1_LINETYPE
1070
   381
1005
56
1001
ACAD_DSTYLE_DIM_EXT2_LINETYPE
1070
   382
1005
56
  0
DIMSTYLE
105
67C
330
A
100
AcDbSymbolTableRecord
100
AcDbDimStyleTableRecord
  2
AM_ISO$7
 70
     0
  4
"
 41
3.5
 42
1.0
 43
10.0
 44
1.0
 47
0.1
 48
0.1
 73
     0
 74
     0
 77
     1
 78
     8
 79
     2
140
3.5
141
0.0
143
0.0393701
146
0.71
147
1.5
172
     1
176
   256
177
   256
178
   140
271
     2
272
     3
274
     4
283
     0
284
     8
340
50
371
    -1
372
    -1
1001
ACAD_DSTYLE_DIMBREAK
1070
   391
1040
3.75
1001
ACAD_DSTYLE_DIMJAG
1070
   388
1040
1.5
1001
ACAD_DSTYLE_DIMARC_LENGTH_SYMBOL
1070
   379
1070
     1
1001
ACAD_DSTYLE_DIM_LINETYPE
1070
   380
1005
56
1001
ACAD_DSTYLE_DIM_EXT1_LINETYPE
1070
   381
1005
56
1001
ACAD_DSTYLE_DIM_EXT2_LINETYPE
1070
   382
1005
56
  0
DIMSTYLE
105
67D
330
A
100
AcDbSymbolTableRecord
100
AcDbDimStyleTableRecord
  2
AM_ISO$SF
 70
     0
  4
"
 41
3.5
 42
1.0
 43
10.0
 44
1.0
 47
0.1
 48
0.1
 73
     0
 74
     0
 75
     1
 76
     1
 77
     1
 78
     8
 79
     2
140
3.5
141
0.0
143
0.0393701
146
0.71
147
1.5
172
     1
176
   256
177
   256
178
   140
271
     2
272
     3
274
     4
283
     0
284
     8
340
50
371
    -1
372
    -1
1001
ACAD_DSTYLE_DIMBREAK
1070
   391
1040
3.75
1001
ACAD_DSTYLE_DIMJAG
1070
   388
1040
1.5
1001
ACAD_DSTYLE_DIMARC_LENGTH_SYMBOL
1070
   379
1070
     1
1001
ACAD_DSTYLE_DIM_LINETYPE
1070
   380
1005
56
1001
ACAD_DSTYLE_DIM_EXT1_LINETYPE
1070
   381
1005
56
1001
ACAD_DSTYLE_DIM_EXT2_LINETYPE
1070
   382
1005
56
  0
DIMSTYLE
105
67E
330
A
100
AcDbSymbolTableRecord
100
AcDbDimStyleTableRecord
  2
AM_ISO$SH
 70
     0
  4
"
 41
3.5
 42
1.0
 43
10.0
 44
1.0
 47
0.1
 48
0.1
 73
     0
 74
     0
 75
     1
 76
     1
 77
     1
 78
     8
 79
     2
140
3.5
141
0.0
143
0.0393701
144
2.0
146
0.71
147
1.5
172
     1
173
     1
176
   256
177
   256
178
   140
271
     2
272
     3
274
     4
283
     0
284
     8
340
50
343
B0
371
    -1
372
    -1
1001
ACAD_DSTYLE_DIMBREAK
1070
   391
1040
3.75
1001
ACAD_DSTYLE_DIMJAG
1070
   388
1040
1.5
1001
ACAD_DSTYLE_DIMARC_LENGTH_SYMBOL
1070
   379
1070
     1
1001
ACAD_DSTYLE_DIM_LINETYPE
1070
   380
1005
56
1001
ACAD_DSTYLE_DIM_EXT1_LINETYPE
1070
   381
1005
56
1001
ACAD_DSTYLE_DIM_EXT2_LINETYPE
1070
   382
1005
56
  0
ENDTAB
  0
TABLE
  2
BLOCK_RECORD
  5
1
330
0
100
AcDbSymbolTable
 70
    40
  0
BLOCK_RECORD
  5
67
102
{ACAD_XDICTIONARY
360
470
102
}
330
1
100
AcDbSymbolTableRecord
100
AcDbBlockTableRecord
  2
*Model_Space
340
6A
  0
BLOCK_RECORD
  5
63
330
1
100
AcDbSymbolTableRecord
100
AcDbBlockTableRecord
  2
*Paper_Space
340
66
  0
BLOCK_RECORD
  5
6B
330
1
100
AcDbSymbolTableRecord
100
AcDbBlockTableRecord
  2
*Paper_Space0
340
6E
  0
BLOCK_RECORD
  5
A4
330
1
100
AcDbSymbolTableRecord
100
AcDbBlockTableRecord
  2
_Open
340
0
102
{BLKREFS
331
BC0
331
BC1
331
BC6
331
BC7
331
BD3
331
BD4
331
BDC
331
BDD
331
BE7
331
BE8
331
BF1
331
BF2
331
BFA
331
BFB
331
C05
331
C06
331
C0E
331
C0F
331
C17
331
C18
331
C22
331
C23
331
E8D
331
E8E
331
EA0
331
EA1
331
1074
331
1075
331
107D
331
107E
331
1088
331
1089
331
10B0
331
10B1
331
10B9
331
10BA
331
10C4
331
10C5
331
10CD
331
10CE
331
1343
331
1344
331
134C
331
134D
331
1357
331
1358
102
}
  0
BLOCK_RECORD
  5
B0
330
1
100
AcDbSymbolTableRecord
100
AcDbBlockTableRecord
  2
GENAXEH
340
0
  0
BLOCK_RECORD
  5
201
330
1
100
AcDbSymbolTableRecord
100
AcDbBlockTableRecord
  2
CustomObjectsInViewport2_0
340
0
  0
BLOCK_RECORD
  5
811
330
1
100
AcDbSymbolTableRecord
100
AcDbBlockTableRecord
  2
*D4
340
0
  0
BLOCK_RECORD
  5
81F
330
1
100
AcDbSymbolTableRecord
100
AcDbBlockTableRecord
  2
*D5
340
0
  0
BLOCK_RECORD
  5
82B
330
1
100
AcDbSymbolTableRecord
100
AcDbBlockTableRecord
  2
*D6
340
0
  0
BLOCK_RECORD
  5
839
330
1
100
AcDbSymbolTableRecord
100
AcDbBlockTableRecord
  2
*D7
340
0
  0
BLOCK_RECORD
  5
846
330
1
100
AcDbSymbolTableRecord
100
AcDbBlockTableRecord
  2
*D8
340
0
  0
BLOCK_RECORD
  5
852
330
1
100
AcDbSymbolTableRecord
100
AcDbBlockTableRecord
  2
*D9
340
0
  0
BLOCK_RECORD
  5
89D
330
1
100
AcDbSymbolTableRecord
100
AcDbBlockTableRecord
  2
*D10
340
0
  0
BLOCK_RECORD
  5
8A9
330
1
100
AcDbSymbolTableRecord
100
AcDbBlockTableRecord
  2
*D11
340
0
  0
BLOCK_RECORD
  5
8B5
330
1
100
AcDbSymbolTableRecord
100
AcDbBlockTableRecord
  2
*D12
340
0
  0
BLOCK_RECORD
  5
A3E
330
1
100
AcDbSymbolTableRecord
100
AcDbBlockTableRecord
  2
*D13
340
0
  0
BLOCK_RECORD
  5
A5F
330
1
100
AcDbSymbolTableRecord
100
AcDbBlockTableRecord
  2
*D14
340
0
  0
BLOCK_RECORD
  5
CB9
330
1
100
AcDbSymbolTableRecord
100
AcDbBlockTableRecord
  2
_Open30
340
0
  0
BLOCK_RECORD
  5
DAF
330
1
100
AcDbSymbolTableRecord
100
AcDbBlockTableRecord
  2
*D16
340
0
  0
BLOCK_RECORD
  5
DBD
330
1
100
AcDbSymbolTableRecord
100
AcDbBlockTableRecord
  2
*D17
340
0
  0
BLOCK_RECORD
  5
DC9
330
1
100
AcDbSymbolTableRecord
100
AcDbBlockTableRecord
  2
*D18
340
0
  0
BLOCK_RECORD
  5
DD7
330
1
100
AcDbSymbolTableRecord
100
AcDbBlockTableRecord
  2
*D19
340
0
  0
BLOCK_RECORD
  5
DE4
330
1
100
AcDbSymbolTableRecord
100
AcDbBlockTableRecord
  2
*D20
340
0
  0
BLOCK_RECORD
  5
DF0
330
1
100
AcDbSymbolTableRecord
100
AcDbBlockTableRecord
  2
*D21
340
0
  0
BLOCK_RECORD
  5
DFE
330
1
100
AcDbSymbolTableRecord
100
AcDbBlockTableRecord
  2
*D22
340
0
  0
BLOCK_RECORD
  5
E0A
330
1
100
AcDbSymbolTableRecord
100
AcDbBlockTableRecord
  2
*D23
340
0
  0
BLOCK_RECORD
  5
E16
330
1
100
AcDbSymbolTableRecord
100
AcDbBlockTableRecord
  2
*D24
340
0
  0
BLOCK_RECORD
  5
E24
330
1
100
AcDbSymbolTableRecord
100
AcDbBlockTableRecord
  2
*D25
340
0
  0
BLOCK_RECORD
  5
E91
330
1
100
AcDbSymbolTableRecord
100
AcDbBlockTableRecord
  2
*D26
340
0
  0
BLOCK_RECORD
  5
EA9
330
1
100
AcDbSymbolTableRecord
100
AcDbBlockTableRecord
  2
*D27
340
0
  0
BLOCK_RECORD
  5
113C
330
1
100
AcDbSymbolTableRecord
100
AcDbBlockTableRecord
  2
*S4728
340
0
  0
BLOCK_RECORD
  5
1146
330
1
100
AcDbSymbolTableRecord
100
AcDbBlockTableRecord
  2
*S4829
340
0
  0
BLOCK_RECORD
  5
1150
330
1
100
AcDbSymbolTableRecord
100
AcDbBlockTableRecord
  2
*S4930
340
0
  0
BLOCK_RECORD
  5
13CC
330
1
100
AcDbSymbolTableRecord
100
AcDbBlockTableRecord
  2
*S36
340
0
  0
BLOCK_RECORD
  5
13D6
330
1
100
AcDbSymbolTableRecord
100
AcDbBlockTableRecord
  2
*S37
340
0
  0
BLOCK_RECORD
  5
13E0
330
1
100
AcDbSymbolTableRecord
100
AcDbBlockTableRecord
  2
*S38
340
0
  0
BLOCK_RECORD
  5
13EA
330
1
100
AcDbSymbolTableRecord
100
AcDbBlockTableRecord
  2
*S39
340
0
  0
ENDTAB
  0
ENDSEC
  0
SECTION
  2
BLOCKS
  0
BLOCK
  5
68
330
67
100
AcDbEntity
  8
0
100
AcDbBlockBegin
  2
*Model_Space
 70
     0
 10
0.0
 20
0.0
 30
0.0
  3
*Model_Space
  1

  0
ENDBLK
  5
69
330
67
100
AcDbEntity
  8
0
100
AcDbBlockEnd
  0
BLOCK
  5
64
330
63
100
AcDbEntity
 67
     1
  8
0
100
AcDbBlockBegin
  2
*Paper_Space
 70
     0
 10
0.0
 20
0.0
 30
0.0
  3
*Paper_Space
  1

  0
ENDBLK
  5
65
330
63
100
AcDbEntity
 67
     1
  8
0
100
AcDbBlockEnd
  0
BLOCK
  5
6C
330
6B
100
AcDbEntity
 67
     1
  8
0
100
AcDbBlockBegin
  2
*Paper_Space0
 70
     0
 10
0.0
 20
0.0
 30
0.0
  3
*Paper_Space0
  1

  0
ENDBLK
  5
6D
330
6B
100
AcDbEntity
 67
     1
  8
0
100
AcDbBlockEnd
  0
BLOCK
  5
573
330
A4
100
AcDbEntity
  8
0
100
AcDbBlockBegin
  2
_Open
 70
     0
 10
0.0
 20
0.0
 30
0.0
  3
_Open
  1

  0
LINE
  5
574
330
A4
100
AcDbEntity
  8
0
  6
ByBlock
 62
     0
370
    -2
100
AcDbLine
 10
-1.0
 20
0.1666666666666666
 30
0.0
 11
0.0
 21
0.0
 31
0.0
  0
LINE
  5
575
330
A4
100
AcDbEntity
  8
0
  6
ByBlock
 62
     0
370
    -2
100
AcDbLine
 10
-1.0
 20
-0.1666666666666666
 30
0.0
 11
0.0
 21
0.0
 31
0.0
  0
LINE
  5
576
330
A4
100
AcDbEntity
  8
0
  6
ByBlock
 62
     0
370
    -2
100
AcDbLine
 10
0.0
 20
0.0
 30
0.0
 11
-1.0
 21
0.0
 31
0.0
  0
ENDBLK
  5
577
330
A4
100
AcDbEntity
  8
0
100
AcDbBlockEnd
  0
BLOCK
  5
580
330
B0
100
AcDbEntity
  8
0
100
AcDbBlockBegin
  2
GENAXEH
 70
     0
 10
0.0
 20
0.0
 30
0.0
  3
GENAXEH
  1

  0
LINE
  5
581
330
B0
100
AcDbEntity
  8
0
100
AcDbLine
 10
-1.0
 20
0.0
 30
0.0
 11
1.0
 21
0.0
 31
0.0
  0
ENDBLK
  5
582
330
B0
100
AcDbEntity
  8
0
100
AcDbBlockEnd
  0
BLOCK
  5
202
330
201
100
AcDbEntity
  8
0
100
AcDbBlockBegin
  2
CustomObjectsInViewport2_0
 70
     0
 10
0.0
 20
0.0
 30
0.0
  3
CustomObjectsInViewport2_0
  1

  0
LINE
  5
203
330
201
100
AcDbEntity
  8
AM_5
100
AcDbLine
 10
36.50708839609264
 20
70.30145156297493
 30
0.0
 11
7.653323666866183
 21
70.30145156297493
 31
0.0
  0
LINE
  5
204
330
201
100
AcDbEntity
  8
AM_5
100
AcDbLine
 10
7.653323666866183
 20
70.30145156297493
 30
0.0
 11
18.10203862914302
 21
40.31340262127389
 31
0.0
  0
LINE
  5
205
330
201
100
AcDbEntity
  8
AM_5
  6
Continuous
100
AcDbLine
 10
18.10203862914302
 20
40.3134026212739
 30
0.0
 11
18.92461044876609
 21
37.9526028412074
 31
0.0
  0
LINE
  5
206
330
201
100
AcDbEntity
  8
AM_5
  6
Continuous
100
AcDbLine
 10
17.7085720148706
 20
40.17630732348719
 30
0.0
 11
18.92461044876609
 21
37.9526028412074
 31
0.0
  0
LINE
  5
207
330
201
100
AcDbEntity
  8
AM_5
  6
Continuous
100
AcDbLine
 10
18.92461044876609
 20
37.9526028412074
 30
0.0
 11
18.49550524341544
 21
40.4504979190606
 31
0.0
  0
TEXT
  5
208
330
201
100
AcDbEntity
  8
AM_5
 62
   140
100
AcDbText
 10
10.92531829413281
 20
71.01602510226304
 30
0.0
 40
3.5
  1
3-M2.6
  7
CustomTextStyle0
100
AcDbText
  0
TEXT
  5
209
330
201
100
AcDbEntity
  8
AM_5
 62
   140
100
AcDbText
 10
10.87491457595709
 20
64.54632813256607
 30
0.0
 40
3.5
  1
有効深さ
  7
CustomTextStyle1
100
AcDbText
  0
TEXT
  5
20A
330
201
100
AcDbEntity
  8
AM_5
 62
   140
100
AcDbText
 10
30.04536912141164
 20
64.54632813256607
 30
0.0
 40
3.5
  1
2.5
  7
CustomTextStyle2
100
AcDbText
  0
LINE
  5
20B
330
201
100
AcDbEntity
  8
AM_5
100
AcDbLine
 10
11.15332366686618
 20
70.30145156297493
 30
0.0
 11
36.50708839609264
 21
70.30145156297493
 31
0.0
  0
LINE
  5
20C
330
201
100
AcDbEntity
  8
AM_5
100
AcDbLine
 10
109.9388381353721
 20
59.0954577977011
 30
0.0
 11
86.69167904446306
 21
59.0954577977011
 31
0.0
  0
LINE
  5
20D
330
201
100
AcDbEntity
  8
AM_5
100
AcDbLine
 10
86.69167904446306
 20
59.0954577977011
 30
0.0
 11
93.47845946816065
 21
51.46473962129692
 31
0.0
  0
LWPOLYLINE
  5
20E
330
201
100
AcDbEntity
  8
AM_5
  6
Continuous
100
AcDbPolyline
 90
        2
 70
   129
 43
0.4464285714285758
 10
94.91669076170834
 20
49.59669289084535
 42
1.0
 10
95.36311933313694
 20
49.59669289084535
 42
1.0
  0
LINE
  5
20F
330
201
100
AcDbEntity
  8
AM_5
  6
Continuous
100
AcDbLine
 10
94.84321833684013
 20
49.93027266414028
 30
0.0
 11
93.47845946816065
 21
51.46473962129692
 31
0.0
  0
TEXT
  5
210
330
201
100
AcDbEntity
  8
AM_5
 62
   140
100
AcDbText
 10
89.85361086264488
 20
61.36250325224655
 30
0.0
 40
3.5
  1
定格銘板
  7
CustomTextStyle3
100
AcDbText
  0
LINE
  5
211
330
201
100
AcDbEntity
  8
AM_5
100
AcDbLine
 10
152.5078352147938
 20
5.106938544382898
 30
0.0
 11
169.0246688890107
 21
5.106938544382898
 31
0.0
  0
LINE
  5
212
330
201
100
AcDbEntity
  8
AM_5
100
AcDbLine
 10
169.0246688890107
 20
5.106938544382898
 30
0.0
 11
161.5909850777264
 21
22.38252702174868
 31
0.0
  0
LINE
  5
213
330
201
100
AcDbEntity
  8
AM_5
  6
Continuous
100
AcDbLine
 10
161.5909850777264
 20
22.38252702174868
 30
0.0
 11
160.6028345250639
 21
24.67894999787325
 31
0.0
  0
LINE
  5
214
330
201
100
AcDbEntity
  8
AM_5
  6
Continuous
100
AcDbLine
 10
161.9737222251043
 20
22.54721877393809
 30
0.0
 11
160.6028345250639
 21
24.67894999787325
 31
0.0
  0
LINE
  5
215
330
201
100
AcDbEntity
  8
AM_5
  6
Continuous
100
AcDbLine
 10
160.6028345250639
 20
24.67894999787325
 30
0.0
 11
161.2082479303485
 21
22.21783526955927
 31
0.0
  0
TEXT
  5
216
330
201
100
AcDbEntity
  8
AM_5
 62
   140
100
AcDbText
 10
152.1387955908851
 20
7.2944385443829
 30
0.0
 40
3.5
  1
+
  7
CustomTextStyle4
100
AcDbText
  0
TEXT
  5
217
330
201
100
AcDbEntity
  8
AM_5
 62
   140
100
AcDbText
 10
155.641146161738
 20
7.2944385443829
 30
0.0
 40
3.5
  1
端子
  7
CustomTextStyle5
100
AcDbText
  0
LINE
  5
218
330
201
100
AcDbEntity
  8
AM_5
100
AcDbLine
 10
147.0752184127211
 20
8.782334989777892
 30
0.0
 11
123.828059321812
 21
8.782334989777892
 31
0.0
  0
LINE
  5
219
330
201
100
AcDbEntity
  8
AM_5
100
AcDbLine
 10
123.828059321812
 20
8.782334989777892
 30
0.0
 11
115.8992807638025
 21
21.89581430909989
 31
0.0
  0
LINE
  5
21A
330
201
100
AcDbEntity
  8
AM_5
  6
Continuous
100
AcDbLine
 10
115.8992807638025
 20
21.89581430909989
 30
0.0
 11
114.6057684903683
 21
24.03516607972461
 31
0.0
  0
LINE
  5
21B
330
201
100
AcDbEntity
  8
AM_5
  6
Continuous
100
AcDbLine
 10
116.2558393779776
 20
22.11139967938218
 30
0.0
 11
114.6057684903683
 21
24.03516607972461
 31
0.0
  0
LINE
  5
21C
330
201
100
AcDbEntity
  8
AM_5
  6
Continuous
100
AcDbLine
 10
114.6057684903683
 20
24.03516607972461
 30
0.0
 11
115.5427221496274
 21
21.6802289388176
 31
0.0
  0
TEXT
  5
21D
330
201
100
AcDbEntity
  8
AM_5
 62
   140
100
AcDbText
 10
127.0098775036302
 20
10.96983498977789
 30
0.0
 40
3.5
  1
入力端子
  7
CustomTextStyle6
100
AcDbText
  0
ENDBLK
  5
21E
330
201
100
AcDbEntity
  8
0
100
AcDbBlockEnd
  0
BLOCK
  5
812
330
811
100
AcDbEntity
  8
0
100
AcDbBlockBegin
  2
*D4
 70
     1
 10
0.0
 20
0.0
 30
0.0
  3
*D4
  1

  0
LINE
  5
BCE
330
811
100
AcDbEntity
  8
AM_5
  6
ByBlock
100
AcDbLine
 10
76.78410032622109
 20
35.74959359997831
 30
0.0
 11
66.48410032622087
 21
35.74959359997831
 31
0.0
  0
LINE
  5
BCF
330
811
100
AcDbEntity
  8
AM_5
  6
ByBlock
100
AcDbLine
 10
76.78410032622109
 20
37.74959359997831
 30
0.0
 11
66.48410032622087
 21
37.74959359997831
 31
0.0
  0
LINE
  5
BD0
330
811
100
AcDbEntity
  8
AM_5
  6
ByBlock
100
AcDbLine
 10
67.48410032622087
 20
33.24959359997831
 30
0.0
 11
67.48410032622086
 21
30.74959359997831
 31
0.0
  0
LINE
  5
BD1
330
811
100
AcDbEntity
  8
AM_5
  6
ByBlock
100
AcDbLine
 10
67.48410032622087
 20
40.24959359997831
 30
0.0
 11
67.48410032622087
 21
49.56598043678154
 31
0.0
  0
LINE
  5
BD2
330
811
100
AcDbEntity
  8
AM_5
  6
ByBlock
100
AcDbLine
 10
67.48410032622087
 20
35.74959359997831
 30
0.0
 11
67.48410032622087
 21
37.74959359997831
 31
0.0
  0
INSERT
  5
BD3
330
811
100
AcDbEntity
  8
AM_5
100
AcDbBlockReference
  2
_Open
 10
67.48410032622087
 20
35.74959359997831
 30
0.0
 41
2.5
 42
2.5
 43
2.5
 50
90.0
  0
INSERT
  5
BD4
330
811
100
AcDbEntity
  8
AM_5
100
AcDbBlockReference
  2
_Open
 10
67.48410032622087
 20
37.74959359997831
 30
0.0
 41
2.5
 42
2.5
 43
2.5
 50
270.0
  0
MTEXT
  5
BD5
330
811
100
AcDbEntity
  8
AM_5
 62
   140
100
AcDbMText
 10
64.89766647800057
 20
46.15778701837991
 30
0.0
 40
3.5
 41
0.0
 71
     5
 72
     1
  1
%%c2
 11
0.0000000000000001
 21
1.0
 31
0.0
 73
     1
 44
1.0
1001
ACAD
1000
MTEXTBEGIN
1070
    73
1070
     1
1070
    44
1040
1.0
1070
    74
1070
     0
1000
MTEXTEND
  0
POINT
  5
BD6
330
811
100
AcDbEntity
  8
Defpoints
 62
     0
100
AcDbPoint
 10
77.28410032622111
 20
35.74959359997831
 30
0.0
  0
POINT
  5
BD7
330
811
100
AcDbEntity
  8
Defpoints
 62
     0
100
AcDbPoint
 10
77.28410032622111
 20
37.74959359997831
 30
0.0
  0
POINT
  5
BD8
330
811
100
AcDbEntity
  8
Defpoints
 62
     0
100
AcDbPoint
 10
67.48410032622087
 20
37.74959359997831
 30
0.0
  0
ENDBLK
  5
813
330
811
100
AcDbEntity
  8
0
100
AcDbBlockEnd
  0
BLOCK
  5
820
330
81F
100
AcDbEntity
  8
0
100
AcDbBlockBegin
  2
*D5
 70
     1
 10
0.0
 20
0.0
 30
0.0
  3
*D5
  1

  0
LINE
  5
BD9
330
81F
100
AcDbEntity
  8
AM_5
  6
ByBlock
100
AcDbLine
 10
81.68410032622096
 20
31.74959359997831
 30
0.0
 11
58.48410032622087
 21
31.74959359997832
 31
0.0
  0
LINE
  5
BDA
330
81F
100
AcDbEntity
  8
AM_5
  6
ByBlock
100
AcDbLine
 10
81.68410032622096
 20
41.7495935999783
 30
0.0
 11
58.48410032622087
 21
41.7495935999783
 31
0.0
  0
LINE
  5
BDB
330
81F
100
AcDbEntity
  8
AM_5
  6
ByBlock
100
AcDbLine
 10
59.48410032622087
 20
34.24959359997831
 30
0.0
 11
59.48410032622087
 21
39.24959359997832
 31
0.0
  0
INSERT
  5
BDC
330
81F
100
AcDbEntity
  8
AM_5
100
AcDbBlockReference
  2
_Open
 10
59.48410032622087
 20
31.74959359997832
 30
0.0
 41
2.5
 42
2.5
 43
2.5
 50
270.0
  0
INSERT
  5
BDD
330
81F
100
AcDbEntity
  8
AM_5
100
AcDbBlockReference
  2
_Open
 10
59.48410032622087
 20
41.7495935999783
 30
0.0
 41
2.5
 42
2.5
 43
2.5
 50
90.0
  0
MTEXT
  5
BDE
330
81F
100
AcDbEntity
  8
AM_5
 62
   140
100
AcDbMText
 10
56.86240791520676
 20
36.74959359997833
 30
0.0
 40
3.5
 41
0.0
 71
     5
 72
     1
  1
%%c10
 11
0.0000000000000001
 21
1.0
 31
0.0
 73
     1
 44
1.0
1001
ACAD
1000
MTEXTBEGIN
1070
    73
1070
     1
1070
    44
1040
1.0
1070
    74
1070
     0
1000
MTEXTEND
  0
POINT
  5
BDF
330
81F
100
AcDbEntity
  8
Defpoints
 62
     0
100
AcDbPoint
 10
82.18410032622097
 20
31.74959359997831
 30
0.0
  0
POINT
  5
BE0
330
81F
100
AcDbEntity
  8
Defpoints
 62
     0
100
AcDbPoint
 10
82.18410032622097
 20
41.7495935999783
 30
0.0
  0
POINT
  5
BE1
330
81F
100
AcDbEntity
  8
Defpoints
 62
     0
100
AcDbPoint
 10
59.48410032622087
 20
41.7495935999783
 30
0.0
  0
ENDBLK
  5
821
330
81F
100
AcDbEntity
  8
0
100
AcDbBlockEnd
  0
BLOCK
  5
82C
330
82B
100
AcDbEntity
  8
0
100
AcDbBlockBegin
  2
*D6
 70
     1
 10
0.0
 20
0.0
 30
0.0
  3
*D6
  1

  0
LINE
  5
BE2
330
82B
100
AcDbEntity
  8
AM_5
  6
ByBlock
100
AcDbLine
 10
84.78410032622106
 20
51.04959359997757
 30
0.0
 11
84.78410032622106
 21
58.87579547803285
 31
0.0
  0
LINE
  5
BE3
330
82B
100
AcDbEntity
  8
AM_5
  6
ByBlock
100
AcDbLine
 10
81.98410032622104
 20
41.54959359997757
 30
0.0
 11
81.98410032622104
 21
58.87579547803285
 31
0.0
  0
LINE
  5
BE4
330
82B
100
AcDbEntity
  8
AM_5
  6
ByBlock
100
AcDbLine
 10
87.28410032622106
 20
57.87579547803285
 30
0.0
 11
89.78410032622106
 21
57.87579547803285
 31
0.0
  0
LINE
  5
BE5
330
82B
100
AcDbEntity
  8
AM_5
  6
ByBlock
100
AcDbLine
 10
79.48410032622105
 20
57.87579547803285
 30
0.0
 11
69.10102443636208
 21
57.87579547803285
 31
0.0
  0
LINE
  5
BE6
330
82B
100
AcDbEntity
  8
AM_5
  6
ByBlock
100
AcDbLine
 10
84.78410032622106
 20
57.87579547803285
 30
0.0
 11
81.98410032622104
 21
57.87579547803285
 31
0.0
  0
INSERT
  5
BE7
330
82B
100
AcDbEntity
  8
AM_5
100
AcDbBlockReference
  2
_Open
 10
84.78410032622106
 20
57.87579547803285
 30
0.0
 41
2.5
 42
2.5
 43
2.5
 50
180.0
  0
INSERT
  5
BE8
330
82B
100
AcDbEntity
  8
AM_5
100
AcDbBlockReference
  2
_Open
 10
81.98410032622104
 20
57.87579547803285
 30
0.0
 41
2.5
 42
2.5
 43
2.5
  0
MTEXT
  5
BE9
330
82B
100
AcDbEntity
  8
AM_5
 62
   140
100
AcDbMText
 10
73.04256238129156
 20
60.50571488703218
 30
0.0
 40
3.5
 41
0.0
 71
     5
 72
     1
  1
2.8
 73
     1
 44
1.0
1001
ACAD
1000
MTEXTBEGIN
1070
    73
1070
     1
1070
    44
1040
1.0
1070
    74
1070
     0
1000
MTEXTEND
  0
POINT
  5
BEA
330
82B
100
AcDbEntity
  8
Defpoints
 62
     0
100
AcDbPoint
 10
84.78410032622106
 20
50.54959359997758
 30
0.0
  0
POINT
  5
BEB
330
82B
100
AcDbEntity
  8
Defpoints
 62
     0
100
AcDbPoint
 10
81.98410032622104
 20
41.04959359997757
 30
0.0
  0
POINT
  5
BEC
330
82B
100
AcDbEntity
  8
Defpoints
 62
     0
100
AcDbPoint
 10
81.98410032622104
 20
57.87579547803285
 30
0.0
  0
ENDBLK
  5
82D
330
82B
100
AcDbEntity
  8
0
100
AcDbBlockEnd
  0
BLOCK
  5
83A
330
839
100
AcDbEntity
  8
0
100
AcDbBlockBegin
  2
*D7
 70
     1
 10
0.0
 20
0.0
 30
0.0
  3
*D7
  1

  0
LINE
  5
BED
330
839
100
AcDbEntity
  8
AM_5
  6
ByBlock
100
AcDbLine
 10
84.78410032622111
 20
42.24959359997831
 30
0.0
 11
84.78410032622111
 21
67.79885525205168
 31
0.0
  0
LINE
  5
BEE
330
839
100
AcDbEntity
  8
AM_5
  6
ByBlock
100
AcDbLine
 10
77.08410032622106
 20
38.04959359997758
 30
0.0
 11
77.08410032622106
 21
67.79885525205168
 31
0.0
  0
LINE
  5
BEF
330
839
100
AcDbEntity
  8
AM_5
  6
ByBlock
100
AcDbLine
 10
82.28410032622111
 20
66.79885525205168
 30
0.0
 11
79.58410032622106
 21
66.79885525205168
 31
0.0
  0
LINE
  5
BF0
330
839
100
AcDbEntity
  8
AM_5
  6
ByBlock
100
AcDbLine
 10
77.08410032622106
 20
66.79885525205168
 30
0.0
 11
66.67751872783288
 21
66.79885525205168
 31
0.0
  0
INSERT
  5
BF1
330
839
100
AcDbEntity
  8
AM_5
100
AcDbBlockReference
  2
_Open
 10
84.78410032622111
 20
66.79885525205168
 30
0.0
 41
2.5
 42
2.5
 43
2.5
  0
INSERT
  5
BF2
330
839
100
AcDbEntity
  8
AM_5
100
AcDbBlockReference
  2
_Open
 10
77.08410032622106
 20
66.79885525205168
 30
0.0
 41
2.5
 42
2.5
 43
2.5
 50
180.0
  0
MTEXT
  5
BF3
330
839
100
AcDbEntity
  8
AM_5
 62
   140
100
AcDbMText
 10
70.63080952702697
 20
69.34885525205166
 30
0.0
 40
3.5
 41
0.0
 71
     5
 72
     1
  1
7.7
 73
     1
 44
1.0
1001
ACAD
1000
MTEXTBEGIN
1070
    73
1070
     1
1070
    44
1040
1.0
1070
    74
1070
     0
1000
MTEXTEND
  0
POINT
  5
BF4
330
839
100
AcDbEntity
  8
Defpoints
 62
     0
100
AcDbPoint
 10
84.78410032622111
 20
41.7495935999783
 30
0.0
  0
POINT
  5
BF5
330
839
100
AcDbEntity
  8
Defpoints
 62
     0
100
AcDbPoint
 10
77.08410032622106
 20
37.54959359997759
 30
0.0
  0
POINT
  5
BF6
330
839
100
AcDbEntity
  8
Defpoints
 62
     0
100
AcDbPoint
 10
77.08410032622106
 20
66.79885525205168
 30
0.0
  0
ENDBLK
  5
83B
330
839
100
AcDbEntity
  8
0
100
AcDbBlockEnd
  0
BLOCK
  5
847
330
846
100
AcDbEntity
  8
0
100
AcDbBlockBegin
  2
*D8
 70
     1
 10
0.0
 20
0.0
 30
0.0
  3
*D8
  1

  0
LINE
  5
BF7
330
846
100
AcDbEntity
  8
AM_5
  6
ByBlock
100
AcDbLine
 10
84.78410032622111
 20
51.74959359997831
 30
0.0
 11
84.78410032622111
 21
67.79885525205168
 31
0.0
  0
LINE
  5
BF8
330
846
100
AcDbEntity
  8
AM_5
  6
ByBlock
100
AcDbLine
 10
106.284100326221
 20
52.04959359997758
 30
0.0
 11
106.284100326221
 21
67.79885525205168
 31
0.0
  0
LINE
  5
BF9
330
846
100
AcDbEntity
  8
AM_5
  6
ByBlock
100
AcDbLine
 10
87.28410032622111
 20
66.79885525205168
 30
0.0
 11
103.784100326221
 21
66.79885525205168
 31
0.0
  0
INSERT
  5
BFA
330
846
100
AcDbEntity
  8
AM_5
100
AcDbBlockReference
  2
_Open
 10
84.78410032622111
 20
66.79885525205168
 30
0.0
 41
2.5
 42
2.5
 43
2.5
 50
180.0
  0
INSERT
  5
BFB
330
846
100
AcDbEntity
  8
AM_5
100
AcDbBlockReference
  2
_Open
 10
106.284100326221
 20
66.79885525205168
 30
0.0
 41
2.5
 42
2.5
 43
2.5
  0
MTEXT
  5
BFC
330
846
100
AcDbEntity
  8
AM_5
 62
   140
100
AcDbMText
 10
95.53410032622105
 20
69.42172294849225
 30
0.0
 40
3.5
 41
0.0
 71
     5
 72
     1
  1
21.5
 73
     1
 44
1.0
1001
ACAD
1000
MTEXTBEGIN
1070
    73
1070
     1
1070
    44
1040
1.0
1070
    74
1070
     0
1000
MTEXTEND
  0
POINT
  5
BFD
330
846
100
AcDbEntity
  8
Defpoints
 62
     0
100
AcDbPoint
 10
84.78410032622111
 20
51.24959359997831
 30
0.0
  0
POINT
  5
BFE
330
846
100
AcDbEntity
  8
Defpoints
 62
     0
100
AcDbPoint
 10
106.284100326221
 20
51.54959359997757
 30
0.0
  0
POINT
  5
BFF
330
846
100
AcDbEntity
  8
Defpoints
 62
     0
100
AcDbPoint
 10
106.284100326221
 20
66.79885525205168
 30
0.0
  0
ENDBLK
  5
848
330
846
100
AcDbEntity
  8
0
100
AcDbBlockEnd
  0
BLOCK
  5
853
330
852
100
AcDbEntity
  8
0
100
AcDbBlockBegin
  2
*D9
 70
     1
 10
0.0
 20
0.0
 30
0.0
  3
*D9
  1

  0
LINE
  5
C00
330
852
100
AcDbEntity
  8
AM_5
  6
ByBlock
100
AcDbLine
 10
106.284100326221
 20
52.04959359997758
 30
0.0
 11
106.284100326221
 21
67.79885525205168
 31
0.0
  0
LINE
  5
C01
330
852
100
AcDbEntity
  8
AM_5
  6
ByBlock
100
AcDbLine
 10
110.2841003262211
 20
42.24959359997831
 30
0.0
 11
110.2841003262211
 21
67.79885525205168
 31
0.0
  0
LINE
  5
C02
330
852
100
AcDbEntity
  8
AM_5
  6
ByBlock
100
AcDbLine
 10
103.784100326221
 20
66.79885525205168
 30
0.0
 11
101.284100326221
 21
66.79885525205168
 31
0.0
  0
LINE
  5
C03
330
852
100
AcDbEntity
  8
AM_5
  6
ByBlock
100
AcDbLine
 10
112.7841003262211
 20
66.79885525205168
 30
0.0
 11
119.2981365921714
 21
66.79885525205168
 31
0.0
  0
LINE
  5
C04
330
852
100
AcDbEntity
  8
AM_5
  6
ByBlock
100
AcDbLine
 10
106.284100326221
 20
66.79885525205168
 30
0.0
 11
110.2841003262211
 21
66.79885525205168
 31
0.0
  0
INSERT
  5
C05
330
852
100
AcDbEntity
  8
AM_5
100
AcDbBlockReference
  2
_Open
 10
106.284100326221
 20
66.79885525205168
 30
0.0
 41
2.5
 42
2.5
 43
2.5
  0
INSERT
  5
C06
330
852
100
AcDbEntity
  8
AM_5
100
AcDbBlockReference
  2
_Open
 10
110.2841003262211
 20
66.79885525205168
 30
0.0
 41
2.5
 42
2.5
 43
2.5
 50
180.0
  0
MTEXT
  5
C07
330
852
100
AcDbEntity
  8
AM_5
 62
   140
100
AcDbMText
 10
117.2911184591962
 20
69.34885525205166
 30
0.0
 40
3.5
 41
0.0
 71
     5
 72
     1
  1
4
 73
     1
 44
1.0
1001
ACAD
1000
MTEXTBEGIN
1070
    73
1070
     1
1070
    44
1040
1.0
1070
    74
1070
     0
1000
MTEXTEND
  0
POINT
  5
C08
330
852
100
AcDbEntity
  8
Defpoints
 62
     0
100
AcDbPoint
 10
106.284100326221
 20
51.54959359997757
 30
0.0
  0
POINT
  5
C09
330
852
100
AcDbEntity
  8
Defpoints
 62
     0
100
AcDbPoint
 10
110.2841003262211
 20
41.7495935999783
 30
0.0
  0
POINT
  5
C0A
330
852
100
AcDbEntity
  8
Defpoints
 62
     0
100
AcDbPoint
 10
110.2841003262211
 20
66.79885525205168
 30
0.0
  0
ENDBLK
  5
854
330
852
100
AcDbEntity
  8
0
100
AcDbBlockEnd
  0
BLOCK
  5
89E
330
89D
100
AcDbEntity
  8
0
100
AcDbBlockBegin
  2
*D10
 70
     1
 10
0.0
 20
0.0
 30
0.0
  3
*D10
  1

  0
LINE
  5
C0B
330
89D
100
AcDbEntity
  8
AM_5
  6
ByBlock
100
AcDbLine
 10
110.2841003262211
 20
31.24959359997831
 30
0.0
 11
120.7841003262209
 21
31.24959359997831
 31
0.0
  0
LINE
  5
C0C
330
89D
100
AcDbEntity
  8
AM_5
  6
ByBlock
100
AcDbLine
 10
110.2841003262211
 20
42.24959359997831
 30
0.0
 11
120.784100326221
 21
42.24959359997829
 31
0.0
  0
LINE
  5
C0D
330
89D
100
AcDbEntity
  8
AM_5
  6
ByBlock
100
AcDbLine
 10
119.7841003262209
 20
33.74959359997831
 30
0.0
 11
119.7841003262209
 21
39.74959359997831
 31
0.0
  0
INSERT
  5
C0E
330
89D
100
AcDbEntity
  8
AM_5
100
AcDbBlockReference
  2
_Open
 10
119.7841003262209
 20
31.24959359997831
 30
0.0
 41
2.5
 42
2.5
 43
2.5
 50
270.0
  0
INSERT
  5
C0F
330
89D
100
AcDbEntity
  8
AM_5
100
AcDbBlockReference
  2
_Open
 10
119.7841003262209
 20
42.24959359997829
 30
0.0
 41
2.5
 42
2.5
 43
2.5
 50
90.0
  0
MTEXT
  5
C10
330
89D
100
AcDbEntity
  8
AM_5
 62
   140
100
AcDbMText
 10
117.2282238990886
 20
36.74959359997834
 30
0.0
 40
3.5
 41
0.0
 71
     5
 72
     1
  1
%%c11
 11
0.0000000000000001
 21
1.0
 31
0.0
 73
     1
 44
1.0
1001
ACAD
1000
MTEXTBEGIN
1070
    73
1070
     1
1070
    44
1040
1.0
1070
    74
1070
     0
1000
MTEXTEND
  0
POINT
  5
C11
330
89D
100
AcDbEntity
  8
Defpoints
 62
     0
100
AcDbPoint
 10
109.7841003262211
 20
31.24959359997831
 30
0.0
  0
POINT
  5
C12
330
89D
100
AcDbEntity
  8
Defpoints
 62
     0
100
AcDbPoint
 10
109.7841003262211
 20
42.24959359997831
 30
0.0
  0
POINT
  5
C13
330
89D
100
AcDbEntity
  8
Defpoints
 62
     0
100
AcDbPoint
 10
119.7841003262209
 20
42.24959359997829
 30
0.0
  0
ENDBLK
  5
89F
330
89D
100
AcDbEntity
  8
0
100
AcDbBlockEnd
  0
BLOCK
  5
8AA
330
8A9
100
AcDbEntity
  8
0
100
AcDbBlockBegin
  2
*D11
 70
     1
 10
0.0
 20
0.0
 30
0.0
  3
*D11
  1

  0
LINE
  5
C14
330
8A9
100
AcDbEntity
  8
AM_5
  6
ByBlock
100
AcDbLine
 10
105.084100326221
 20
54.42459359997759
 30
0.0
 11
128.7841003262209
 21
54.42459359997758
 31
0.0
  0
LINE
  5
C15
330
8A9
100
AcDbEntity
  8
AM_5
  6
ByBlock
100
AcDbLine
 10
105.084100326221
 20
19.07459359997722
 30
0.0
 11
128.7841003262209
 21
19.07459359997721
 31
0.0
  0
LINE
  5
C16
330
8A9
100
AcDbEntity
  8
AM_5
  6
ByBlock
100
AcDbLine
 10
127.784100326221
 20
51.92459359997758
 30
0.0
 11
127.7841003262209
 21
21.57459359997722
 31
0.0
  0
INSERT
  5
C17
330
8A9
100
AcDbEntity
  8
AM_5
100
AcDbBlockReference
  2
_Open
 10
127.784100326221
 20
54.42459359997758
 30
0.0
 41
2.5
 42
2.5
 43
2.5
 50
90.0
  0
INSERT
  5
C18
330
8A9
100
AcDbEntity
  8
AM_5
100
AcDbBlockReference
  2
_Open
 10
127.7841003262209
 20
19.07459359997721
 30
0.0
 41
2.5
 42
2.5
 43
2.5
 50
270.0
  0
MTEXT
  5
C19
330
8A9
100
AcDbEntity
  8
AM_5
 62
   140
100
AcDbMText
 10
125.1612326297804
 20
36.74959359997743
 30
0.0
 40
3.5
 41
0.0
 71
     5
 72
     1
  1
%%c35.4
 11
0.0000000000000001
 21
1.0
 31
0.0
 73
     1
 44
1.0
1001
ACAD
1000
MTEXTBEGIN
1070
    73
1070
     1
1070
    44
1040
1.0
1070
    74
1070
     0
1000
MTEXTEND
  0
POINT
  5
C1A
330
8A9
100
AcDbEntity
  8
Defpoints
 62
     0
100
AcDbPoint
 10
104.584100326221
 20
54.42459359997759
 30
0.0
  0
POINT
  5
C1B
330
8A9
100
AcDbEntity
  8
Defpoints
 62
     0
100
AcDbPoint
 10
104.584100326221
 20
19.07459359997722
 30
0.0
  0
POINT
  5
C1C
330
8A9
100
AcDbEntity
  8
Defpoints
 62
     0
100
AcDbPoint
 10
127.7841003262209
 20
19.07459359997721
 30
0.0
  0
ENDBLK
  5
8AB
330
8A9
100
AcDbEntity
  8
0
100
AcDbBlockEnd
  0
BLOCK
  5
8B6
330
8B5
100
AcDbEntity
  8
0
100
AcDbBlockBegin
  2
*D12
 70
     1
 10
0.0
 20
0.0
 30
0.0
  3
*D12
  1

  0
LINE
  5
C1D
330
8B5
100
AcDbEntity
  8
AM_5
  6
ByBlock
100
AcDbLine
 10
109.7841003262209
 20
36.24959359997831
 30
0.0
 11
109.7841003262209
 21
10.04959259997849
 31
0.0
  0
LINE
  5
C1E
330
8B5
100
AcDbEntity
  8
AM_5
  6
ByBlock
100
AcDbLine
 10
106.284100326221
 20
21.44959359997722
 30
0.0
 11
106.284100326221
 21
10.04959259997849
 31
0.0
  0
LINE
  5
C1F
330
8B5
100
AcDbEntity
  8
AM_5
  6
ByBlock
100
AcDbLine
 10
112.2841003262209
 20
11.04959259997849
 30
0.0
 11
114.7841003262209
 21
11.04959259997849
 31
0.0
  0
LINE
  5
C20
330
8B5
100
AcDbEntity
  8
AM_5
  6
ByBlock
100
AcDbLine
 10
103.784100326221
 20
11.04959259997849
 30
0.0
 11
93.87819031950508
 21
11.04959259997849
 31
0.0
  0
LINE
  5
C21
330
8B5
100
AcDbEntity
  8
AM_5
  6
ByBlock
100
AcDbLine
 10
109.7841003262209
 20
11.04959259997849
 30
0.0
 11
106.284100326221
 21
11.04959259997849
 31
0.0
  0
INSERT
  5
C22
330
8B5
100
AcDbEntity
  8
AM_5
100
AcDbBlockReference
  2
_Open
 10
109.7841003262209
 20
11.04959259997849
 30
0.0
 41
2.5
 42
2.5
 43
2.5
 50
180.0
  0
INSERT
  5
C23
330
8B5
100
AcDbEntity
  8
AM_5
100
AcDbBlockReference
  2
_Open
 10
106.284100326221
 20
11.04959259997849
 30
0.0
 41
2.5
 42
2.5
 43
2.5
  0
MTEXT
  5
C24
330
8B5
100
AcDbEntity
  8
AM_5
 62
   140
100
AcDbMText
 10
97.58114532286306
 20
14.16255431925318
 30
0.0
 40
3.5
 41
0.0
 71
     5
 72
     1
  1
(4)
 73
     1
 44
1.0
1001
ACAD
1000
MTEXTBEGIN
1070
    73
1070
     1
1070
    44
1040
1.0
1070
    74
1070
     0
1000
MTEXTEND
  0
POINT
  5
C25
330
8B5
100
AcDbEntity
  8
Defpoints
 62
     0
100
AcDbPoint
 10
109.7841003262209
 20
36.74959359997831
 30
0.0
  0
POINT
  5
C26
330
8B5
100
AcDbEntity
  8
Defpoints
 62
     0
100
AcDbPoint
 10
106.284100326221
 20
21.94959359997722
 30
0.0
  0
POINT
  5
C27
330
8B5
100
AcDbEntity
  8
Defpoints
 62
     0
100
AcDbPoint
 10
106.284100326221
 20
11.04959259997849
 30
0.0
  0
ENDBLK
  5
8B7
330
8B5
100
AcDbEntity
  8
0
100
AcDbBlockEnd
  0
BLOCK
  5
A3F
330
A3E
100
AcDbEntity
  8
0
100
AcDbBlockBegin
  2
*D13
 70
     1
 10
0.0
 20
0.0
 30
0.0
  3
*D13
  1

  0
LINE
  5
BBC
330
A3E
100
AcDbEntity
  8
AM_5
  6
ByBlock
100
AcDbLine
 10
58.94790839431657
 20
70.19529650090865
 30
0.0
 11
42.04998721259827
 21
48.89298031526337
 31
0.0
  0
LINE
  5
BBD
330
A3E
100
AcDbEntity
  8
AM_5
  6
ByBlock
100
AcDbLine
 10
22.78466509403112
 20
24.60620688469328
 30
0.0
 11
21.23101008446925
 21
22.64759612416343
 31
0.0
  0
MTEXT
  5
BBE
102
{ACAD_XDICTIONARY
360
1429
102
}
330
A3E
100
AcDbEntity
  8
AM_5
 62
   140
100
AcDbMText
 10
49.59550825704054
 20
62.72550151713137
 30
0.0
 40
3.5
 41
0.0
 71
     5
 72
     1
  1
P.C.D.\U+220526
 11
0.6214620038247478
 21
0.7834443042119391
 31
0.0
 73
     1
 44
1.0
1001
ACAD
1000
MTEXTBEGIN
1070
    73
1070
     1
1070
    44
1040
1.0
1070
    74
1070
     0
1000
MTEXTEND
  0
LINE
  5
BBF
330
A3E
100
AcDbEntity
  8
AM_5
  6
ByBlock
100
AcDbLine
 10
24.33832010359299
 20
26.56481764522313
 30
0.0
 11
40.49633220303641
 21
46.93436955473353
 31
0.0
  0
INSERT
  5
BC0
330
A3E
100
AcDbEntity
  8
AM_5
100
AcDbBlockReference
  2
_Open
 10
24.33832010359299
 20
26.56481764522313
 30
0.0
 41
2.5
 42
2.5
 43
2.5
 50
51.57702348416957
  0
INSERT
  5
BC1
330
A3E
100
AcDbEntity
  8
AM_5
100
AcDbBlockReference
  2
_Open
 10
40.49633220303641
 20
46.93436955473353
 30
0.0
 41
2.5
 42
2.5
 43
2.5
 50
231.5770234841696
  0
POINT
  5
BC2
330
A3E
100
AcDbEntity
  8
Defpoints
 62
     0
100
AcDbPoint
 10
40.49633220303641
 20
46.93436955473353
 30
0.0
  0
POINT
  5
BC3
330
A3E
100
AcDbEntity
  8
Defpoints
 62
     0
100
AcDbPoint
 10
24.33832010359299
 20
26.56481764522313
 30
0.0
  0
ENDBLK
  5
A40
330
A3E
100
AcDbEntity
  8
0
100
AcDbBlockEnd
  0
BLOCK
  5
A60
330
A5F
100
AcDbEntity
  8
0
100
AcDbBlockBegin
  2
*D14
 70
     1
 10
0.0
 20
0.0
 30
0.0
  3
*D14
  1

  0
LINE
  5
BC4
330
A5F
100
AcDbEntity
  8
AM_5
  6
ByBlock
100
AcDbLine
 10
15.2095051846626
 20
26.81465353156091
 30
0.0
 11
12.0785611830896
 21
25.0070021694362
 31
0.0
  0
ARC
  5
BC5
330
A5F
100
AcDbEntity
  8
AM_5
  6
ByBlock
100
AcDbCircle
 10
32.41732615331456
 20
36.7495935999732
 30
0.0
 40
22.48518286108436
100
AcDbArc
 50
96.37367872214607
 51
203.6263212778393
  0
INSERT
  5
BC6
330
A5F
100
AcDbEntity
  8
AM_5
100
AcDbBlockReference
  2
_Open
 10
32.41732615331456
 20
59.23477646105755
 30
0.0
 41
2.5
 42
2.5
 43
2.5
 50
3.186839361073041
  0
INSERT
  5
BC7
330
A5F
100
AcDbEntity
  8
AM_5
100
AcDbBlockReference
  2
_Open
 10
12.94458658687418
 20
25.50700216943597
 30
0.0
 41
2.5
 42
2.5
 43
2.5
 50
296.8131606389124
  0
MTEXT
  5
BC8
102
{ACAD_XDICTIONARY
360
142B
102
}
330
A5F
100
AcDbEntity
  8
AM_5
 62
   140
100
AcDbMText
 10
10.67311653099553
 20
49.30361887873843
 30
0.0
 40
3.5
 41
0.0
 71
     5
 72
     1
  1
3-120\U+00B0
 11
0.5000000000001095
 21
0.8660254037843754
 31
0.0
 73
     1
 44
1.0
1001
ACAD
1000
MTEXTBEGIN
1070
    73
1070
     1
1070
    44
1040
1.0
1070
    74
1070
     0
1000
MTEXTEND
  0
POINT
  5
BC9
330
A5F
100
AcDbEntity
  8
Defpoints
 62
     0
100
AcDbPoint
 10
17.96412920867486
 20
53.97424298322217
 30
0.0
  0
POINT
  5
BCA
330
A5F
100
AcDbEntity
  8
Defpoints
 62
     0
100
AcDbPoint
 10
32.41732615331456
 20
36.7495935999783
 30
0.0
  0
POINT
  5
BCB
330
A5F
100
AcDbEntity
  8
Defpoints
 62
     0
100
AcDbPoint
 10
15.64251788655489
 20
27.0646535315608
 30
0.0
  0
POINT
  5
BCC
330
A5F
100
AcDbEntity
  8
Defpoints
 62
     0
100
AcDbPoint
 10
32.41732615332342
 20
36.74959359997831
 30
0.0
  0
POINT
  5
BCD
330
A5F
100
AcDbEntity
  8
Defpoints
 62
     0
100
AcDbPoint
 10
32.41732615331456
 20
59.74819637363218
 30
0.0
  0
ENDBLK
  5
A61
330
A5F
100
AcDbEntity
  8
0
100
AcDbBlockEnd
  0
BLOCK
  5
CBA
330
CB9
100
AcDbEntity
  8
0
100
AcDbBlockBegin
  2
_Open30
 70
     0
 10
0.0
 20
0.0
 30
0.0
  3
_Open30
  1

  0
LINE
  5
CBB
330
CB9
100
AcDbEntity
  8
0
  6
ByBlock
 62
     0
370
    -2
100
AcDbLine
 10
-1.0
 20
0.26794919
 30
0.0
 11
0.0
 21
0.0
 31
0.0
  0
LINE
  5
CBC
330
CB9
100
AcDbEntity
  8
0
  6
ByBlock
 62
     0
370
    -2
100
AcDbLine
 10
0.0
 20
0.0
 30
0.0
 11
-1.0
 21
-0.26794919
 31
0.0
  0
LINE
  5
CBD
330
CB9
100
AcDbEntity
  8
0
  6
ByBlock
 62
     0
370
    -2
100
AcDbLine
 10
0.0
 20
0.0
 30
0.0
 11
-1.0
 21
0.0
 31
0.0
  0
ENDBLK
  5
CBE
330
CB9
100
AcDbEntity
  8
0
100
AcDbBlockEnd
  0
BLOCK
  5
DB0
330
DAF
100
AcDbEntity
  8
0
100
AcDbBlockBegin
  2
*D16
 70
     1
 10
0.0
 20
0.0
 30
0.0
  3
*D16
  1

  0
LINE
  5
106F
330
DAF
100
AcDbEntity
  8
AM_5
  6
ByBlock
100
AcDbLine
 10
77.98410032621376
 20
35.74959359995971
 30
0.0
 11
71.71100676002281
 21
35.74959359995971
 31
0.0
  0
LINE
  5
1070
330
DAF
100
AcDbEntity
  8
AM_5
  6
ByBlock
100
AcDbLine
 10
77.98410032621376
 20
37.7495935999608
 30
0.0
 11
71.71100676002281
 21
37.7495935999608
 31
0.0
  0
LINE
  5
1071
330
DAF
100
AcDbEntity
  8
AM_5
  6
ByBlock
100
AcDbLine
 10
72.71100676002283
 20
33.24959359995971
 30
0.0
 11
72.71100676002281
 21
30.74959359995971
 31
0.0
  0
LINE
  5
1072
330
DAF
100
AcDbEntity
  8
AM_5
  6
ByBlock
100
AcDbLine
 10
72.71100676002283
 20
40.2495935999608
 30
0.0
 11
72.71100676002283
 21
49.56598043676403
 31
0.0
  0
LINE
  5
1073
330
DAF
100
AcDbEntity
  8
AM_5
  6
ByBlock
100
AcDbLine
 10
72.71100676002283
 20
35.74959359995971
 30
0.0
 11
72.71100676002283
 21
37.7495935999608
 31
0.0
  0
INSERT
  5
1074
330
DAF
100
AcDbEntity
  8
AM_5
100
AcDbBlockReference
  2
_Open
 10
72.71100676002283
 20
35.74959359995971
 30
0.0
 41
2.5
 42
2.5
 43
2.5
 50
90.0
  0
INSERT
  5
1075
330
DAF
100
AcDbEntity
  8
AM_5
100
AcDbBlockReference
  2
_Open
 10
72.71100676002283
 20
37.7495935999608
 30
0.0
 41
2.5
 42
2.5
 43
2.5
 50
270.0
  0
MTEXT
  5
1076
330
DAF
100
AcDbEntity
  8
AM_5
 62
   140
100
AcDbMText
 10
70.12457291180253
 20
46.15778701836242
 30
0.0
 40
3.5
 41
0.0
 71
     5
 72
     1
  1
%%c2
 11
0.0000000000000001
 21
1.0
 31
0.0
 73
     1
 44
1.0
1001
ACAD
1000
MTEXTBEGIN
1070
    73
1070
     1
1070
    44
1040
1.0
1070
    74
1070
     0
1000
MTEXTEND
  0
POINT
  5
1077
330
DAF
100
AcDbEntity
  8
Defpoints
 62
     0
100
AcDbPoint
 10
78.48410032621377
 20
35.74959359995971
 30
0.0
  0
POINT
  5
1078
330
DAF
100
AcDbEntity
  8
Defpoints
 62
     0
100
AcDbPoint
 10
78.48410032621377
 20
37.7495935999608
 30
0.0
  0
POINT
  5
1079
330
DAF
100
AcDbEntity
  8
Defpoints
 62
     0
100
AcDbPoint
 10
72.71100676002283
 20
37.7495935999608
 30
0.0
  0
ENDBLK
  5
DB1
330
DAF
100
AcDbEntity
  8
0
100
AcDbBlockEnd
  0
BLOCK
  5
DBE
330
DBD
100
AcDbEntity
  8
0
100
AcDbBlockBegin
  2
*D17
 70
     1
 10
0.0
 20
0.0
 30
0.0
  3
*D17
  1

  0
LINE
  5
107A
330
DBD
100
AcDbEntity
  8
AM_5
  6
ByBlock
100
AcDbLine
 10
81.68410032621371
 20
31.74959359996901
 30
0.0
 11
65.60509957010565
 21
31.74959359996901
 31
0.0
  0
LINE
  5
107B
330
DBD
100
AcDbEntity
  8
AM_5
  6
ByBlock
100
AcDbLine
 10
81.68410032621371
 20
41.749593599969
 30
0.0
 11
65.60509957010565
 21
41.749593599969
 31
0.0
  0
LINE
  5
107C
330
DBD
100
AcDbEntity
  8
AM_5
  6
ByBlock
100
AcDbLine
 10
66.60509957010567
 20
34.24959359996902
 30
0.0
 11
66.60509957010567
 21
39.24959359996903
 31
0.0
  0
INSERT
  5
107D
330
DBD
100
AcDbEntity
  8
AM_5
100
AcDbBlockReference
  2
_Open
 10
66.60509957010565
 20
31.74959359996901
 30
0.0
 41
2.5
 42
2.5
 43
2.5
 50
270.0
  0
INSERT
  5
107E
330
DBD
100
AcDbEntity
  8
AM_5
100
AcDbBlockReference
  2
_Open
 10
66.60509957010567
 20
41.749593599969
 30
0.0
 41
2.5
 42
2.5
 43
2.5
 50
90.0
  0
MTEXT
  5
107F
330
DBD
100
AcDbEntity
  8
AM_5
 62
   140
100
AcDbMText
 10
63.98340715909155
 20
36.74959359996903
 30
0.0
 40
3.5
 41
0.0
 71
     5
 72
     1
  1
%%c10
 11
0.0000000000000001
 21
1.0
 31
0.0
 73
     1
 44
1.0
1001
ACAD
1000
MTEXTBEGIN
1070
    73
1070
     1
1070
    44
1040
1.0
1070
    74
1070
     0
1000
MTEXTEND
  0
POINT
  5
1080
330
DBD
100
AcDbEntity
  8
Defpoints
 62
     0
100
AcDbPoint
 10
82.18410032621369
 20
31.74959359996901
 30
0.0
  0
POINT
  5
1081
330
DBD
100
AcDbEntity
  8
Defpoints
 62
     0
100
AcDbPoint
 10
82.18410032621369
 20
41.749593599969
 30
0.0
  0
POINT
  5
1082
330
DBD
100
AcDbEntity
  8
Defpoints
 62
     0
100
AcDbPoint
 10
66.60509957010567
 20
41.749593599969
 30
0.0
  0
ENDBLK
  5
DBF
330
DBD
100
AcDbEntity
  8
0
100
AcDbBlockEnd
  0
BLOCK
  5
DCA
330
DC9
100
AcDbEntity
  8
0
100
AcDbBlockBegin
  2
*D18
 70
     1
 10
0.0
 20
0.0
 30
0.0
  3
*D18
  1

  0
LINE
  5
1083
330
DC9
100
AcDbEntity
  8
AM_5
  6
ByBlock
100
AcDbLine
 10
84.78410032621383
 20
51.04959359996828
 30
0.0
 11
84.78410032621383
 21
56.02422442600569
 31
0.0
  0
LINE
  5
1084
330
DC9
100
AcDbEntity
  8
AM_5
  6
ByBlock
100
AcDbLine
 10
81.98410032621376
 20
41.54959359996828
 30
0.0
 11
81.98410032621376
 21
56.02422442600569
 31
0.0
  0
LINE
  5
1085
330
DC9
100
AcDbEntity
  8
AM_5
  6
ByBlock
100
AcDbLine
 10
87.28410032621383
 20
55.02422442600568
 30
0.0
 11
89.78410032621383
 21
55.02422442600568
 31
0.0
  0
LINE
  5
1086
330
DC9
100
AcDbEntity
  8
AM_5
  6
ByBlock
100
AcDbLine
 10
79.48410032621376
 20
55.02422442600568
 30
0.0
 11
69.1010244363548
 21
55.02422442600568
 31
0.0
  0
LINE
  5
1087
330
DC9
100
AcDbEntity
  8
AM_5
  6
ByBlock
100
AcDbLine
 10
84.78410032621383
 20
55.02422442600568
 30
0.0
 11
81.98410032621376
 21
55.02422442600568
 31
0.0
  0
INSERT
  5
1088
330
DC9
100
AcDbEntity
  8
AM_5
100
AcDbBlockReference
  2
_Open
 10
84.78410032621383
 20
55.02422442600568
 30
0.0
 41
2.5
 42
2.5
 43
2.5
 50
180.0
  0
INSERT
  5
1089
330
DC9
100
AcDbEntity
  8
AM_5
100
AcDbBlockReference
  2
_Open
 10
81.98410032621376
 20
55.02422442600568
 30
0.0
 41
2.5
 42
2.5
 43
2.5
  0
MTEXT
  5
108A
330
DC9
100
AcDbEntity
  8
AM_5
 62
   140
100
AcDbMText
 10
73.04256238128428
 20
57.65414383500502
 30
0.0
 40
3.5
 41
0.0
 71
     5
 72
     1
  1
2.8
 73
     1
 44
1.0
1001
ACAD
1000
MTEXTBEGIN
1070
    73
1070
     1
1070
    44
1040
1.0
1070
    74
1070
     0
1000
MTEXTEND
  0
POINT
  5
108B
330
DC9
100
AcDbEntity
  8
Defpoints
 62
     0
100
AcDbPoint
 10
84.78410032621383
 20
50.54959359996828
 30
0.0
  0
POINT
  5
108C
330
DC9
100
AcDbEntity
  8
Defpoints
 62
     0
100
AcDbPoint
 10
81.98410032621376
 20
41.04959359996828
 30
0.0
  0
POINT
  5
108D
330
DC9
100
AcDbEntity
  8
Defpoints
 62
     0
100
AcDbPoint
 10
81.98410032621376
 20
55.02422442600568
 30
0.0
  0
ENDBLK
  5
DCB
330
DC9
100
AcDbEntity
  8
0
100
AcDbBlockEnd
  0
BLOCK
  5
DD8
330
DD7
100
AcDbEntity
  8
0
100
AcDbBlockBegin
  2
*D19
 70
     1
 10
0.0
 20
0.0
 30
0.0
  3
*D19
  1

  0
LINE
  5
133E
330
DD7
100
AcDbEntity
  8
AM_5
  6
ByBlock
100
AcDbLine
 10
84.78410032621383
 20
42.249593599969
 30
0.0
 11
84.78410032621383
 21
67.66045711814484
 31
0.0
  0
LINE
  5
133F
330
DD7
100
AcDbEntity
  8
AM_5
  6
ByBlock
100
AcDbLine
 10
78.28410032621372
 20
38.04959359996828
 30
0.0
 11
78.28410032621372
 21
67.66045711814484
 31
0.0
  0
LINE
  5
1340
330
DD7
100
AcDbEntity
  8
AM_5
  6
ByBlock
100
AcDbLine
 10
87.28410032621383
 20
66.66045711814485
 30
0.0
 11
89.78410032621383
 21
66.66045711814485
 31
0.0
  0
LINE
  5
1341
330
DD7
100
AcDbEntity
  8
AM_5
  6
ByBlock
100
AcDbLine
 10
75.78410032621372
 20
66.66045711814485
 30
0.0
 11
65.42217957403105
 21
66.66045711814485
 31
0.0
  0
LINE
  5
1342
330
DD7
100
AcDbEntity
  8
AM_5
  6
ByBlock
100
AcDbLine
 10
84.78410032621383
 20
66.66045711814485
 30
0.0
 11
78.28410032621372
 21
66.66045711814485
 31
0.0
  0
INSERT
  5
1343
330
DD7
100
AcDbEntity
  8
AM_5
100
AcDbBlockReference
  2
_Open
 10
84.78410032621383
 20
66.66045711814485
 30
0.0
 41
2.5
 42
2.5
 43
2.5
 50
180.0
  0
INSERT
  5
1344
330
DD7
100
AcDbEntity
  8
AM_5
100
AcDbBlockReference
  2
_Open
 10
78.28410032621372
 20
66.66045711814485
 30
0.0
 41
2.5
 42
2.5
 43
2.5
  0
MTEXT
  5
1345
330
DD7
100
AcDbEntity
  8
AM_5
 62
   140
100
AcDbMText
 10
69.35313995012238
 20
69.27979895830603
 30
0.0
 40
3.5
 41
0.0
 71
     5
 72
     1
  1
6.5
 73
     1
 44
1.0
1001
ACAD
1000
MTEXTBEGIN
1070
    73
1070
     1
1070
    44
1040
1.0
1070
    74
1070
     0
1000
MTEXTEND
  0
POINT
  5
1346
330
DD7
100
AcDbEntity
  8
Defpoints
 62
     0
100
AcDbPoint
 10
84.78410032621383
 20
41.749593599969
 30
0.0
  0
POINT
  5
1347
330
DD7
100
AcDbEntity
  8
Defpoints
 62
     0
100
AcDbPoint
 10
78.28410032621372
 20
37.54959359996828
 30
0.0
  0
POINT
  5
1348
330
DD7
100
AcDbEntity
  8
Defpoints
 62
     0
100
AcDbPoint
 10
78.28410032621372
 20
66.66045711814485
 30
0.0
  0
ENDBLK
  5
DD9
330
DD7
100
AcDbEntity
  8
0
100
AcDbBlockEnd
  0
BLOCK
  5
DE5
330
DE4
100
AcDbEntity
  8
0
100
AcDbBlockBegin
  2
*D20
 70
     1
 10
0.0
 20
0.0
 30
0.0
  3
*D20
  1

  0
LINE
  5
1349
330
DE4
100
AcDbEntity
  8
AM_5
  6
ByBlock
100
AcDbLine
 10
84.78410032621383
 20
51.74959359996901
 30
0.0
 11
84.78410032621383
 21
67.66045711814484
 31
0.0
  0
LINE
  5
134A
330
DE4
100
AcDbEntity
  8
AM_5
  6
ByBlock
100
AcDbLine
 10
107.0841003262136
 20
51.74959359995971
 30
0.0
 11
107.0841003262136
 21
67.66045711814484
 31
0.0
  0
LINE
  5
134B
330
DE4
100
AcDbEntity
  8
AM_5
  6
ByBlock
100
AcDbLine
 10
87.28410032621383
 20
66.66045711814485
 30
0.0
 11
104.5841003262136
 21
66.66045711814485
 31
0.0
  0
INSERT
  5
134C
330
DE4
100
AcDbEntity
  8
AM_5
100
AcDbBlockReference
  2
_Open
 10
84.78410032621383
 20
66.66045711814485
 30
0.0
 41
2.5
 42
2.5
 43
2.5
 50
180.0
  0
INSERT
  5
134D
330
DE4
100
AcDbEntity
  8
AM_5
100
AcDbBlockReference
  2
_Open
 10
107.0841003262136
 20
66.66045711814485
 30
0.0
 41
2.5
 42
2.5
 43
2.5
  0
MTEXT
  5
134E
330
DE4
100
AcDbEntity
  8
AM_5
 62
   140
100
AcDbMText
 10
95.9341003262137
 20
69.28332481458541
 30
0.0
 40
3.5
 41
0.0
 71
     5
 72
     1
  1
22.3
 73
     1
 44
1.0
1001
ACAD
1000
MTEXTBEGIN
1070
    73
1070
     1
1070
    44
1040
1.0
1070
    74
1070
     0
1000
MTEXTEND
  0
POINT
  5
134F
330
DE4
100
AcDbEntity
  8
Defpoints
 62
     0
100
AcDbPoint
 10
84.78410032621383
 20
51.249593599969
 30
0.0
  0
POINT
  5
1350
330
DE4
100
AcDbEntity
  8
Defpoints
 62
     0
100
AcDbPoint
 10
107.0841003262136
 20
51.24959359995971
 30
0.0
  0
POINT
  5
1351
330
DE4
100
AcDbEntity
  8
Defpoints
 62
     0
100
AcDbPoint
 10
107.0841003262136
 20
66.66045711814485
 30
0.0
  0
ENDBLK
  5
DE6
330
DE4
100
AcDbEntity
  8
0
100
AcDbBlockEnd
  0
BLOCK
  5
DF1
330
DF0
100
AcDbEntity
  8
0
100
AcDbBlockBegin
  2
*D21
 70
     1
 10
0.0
 20
0.0
 30
0.0
  3
*D21
  1

  0
LINE
  5
1352
330
DF0
100
AcDbEntity
  8
AM_5
  6
ByBlock
100
AcDbLine
 10
107.0841003262136
 20
51.74959359995971
 30
0.0
 11
107.0841003262136
 21
67.66045711814484
 31
0.0
  0
LINE
  5
1353
330
DF0
100
AcDbEntity
  8
AM_5
  6
ByBlock
100
AcDbLine
 10
110.0841003262136
 20
40.74959359995989
 30
0.0
 11
110.0841003262136
 21
67.66045711814484
 31
0.0
  0
LINE
  5
1354
330
DF0
100
AcDbEntity
  8
AM_5
  6
ByBlock
100
AcDbLine
 10
104.5841003262136
 20
66.66045711814485
 30
0.0
 11
102.0841003262136
 21
66.66045711814485
 31
0.0
  0
LINE
  5
1355
330
DF0
100
AcDbEntity
  8
AM_5
  6
ByBlock
100
AcDbLine
 10
112.5841003262136
 20
66.66045711814485
 30
0.0
 11
118.8113669481074
 21
66.66045711814485
 31
0.0
  0
LINE
  5
1356
330
DF0
100
AcDbEntity
  8
AM_5
  6
ByBlock
100
AcDbLine
 10
107.0841003262136
 20
66.66045711814485
 30
0.0
 11
110.0841003262136
 21
66.66045711814485
 31
0.0
  0
INSERT
  5
1357
330
DF0
100
AcDbEntity
  8
AM_5
100
AcDbBlockReference
  2
_Open
 10
107.0841003262136
 20
66.66045711814485
 30
0.0
 41
2.5
 42
2.5
 43
2.5
  0
INSERT
  5
1358
330
DF0
100
AcDbEntity
  8
AM_5
100
AcDbBlockReference
  2
_Open
 10
110.0841003262136
 20
66.66045711814485
 30
0.0
 41
2.5
 42
2.5
 43
2.5
 50
180.0
  0
MTEXT
  5
1359
330
DF0
100
AcDbEntity
  8
AM_5
 62
   140
100
AcDbMText
 10
116.9477336371605
 20
69.28332481458541
 30
0.0
 40
3.5
 41
0.0
 71
     5
 72
     1
  1
3
 73
     1
 44
1.0
1001
ACAD
1000
MTEXTBEGIN
1070
    73
1070
     1
1070
    44
1040
1.0
1070
    74
1070
     0
1000
MTEXTEND
  0
POINT
  5
135A
330
DF0
100
AcDbEntity
  8
Defpoints
 62
     0
100
AcDbPoint
 10
107.0841003262136
 20
51.24959359995971
 30
0.0
  0
POINT
  5
135B
330
DF0
100
AcDbEntity
  8
Defpoints
 62
     0
100
AcDbPoint
 10
110.0841003262136
 20
40.24959359995988
 30
0.0
  0
POINT
  5
135C
330
DF0
100
AcDbEntity
  8
Defpoints
 62
     0
100
AcDbPoint
 10
110.0841003262136
 20
66.66045711814485
 30
0.0
  0
ENDBLK
  5
DF2
330
DF0
100
AcDbEntity
  8
0
100
AcDbBlockEnd
  0
BLOCK
  5
DFF
330
DFE
100
AcDbEntity
  8
0
100
AcDbBlockBegin
  2
*D22
 70
     1
 10
0.0
 20
0.0
 30
0.0
  3
*D22
  1

  0
LINE
  5
10AD
330
DFE
100
AcDbEntity
  8
AM_5
  6
ByBlock
100
AcDbLine
 10
110.2841003262138
 20
32.74959359995971
 30
0.0
 11
120.7841003262137
 21
32.7495935999597
 31
0.0
  0
LINE
  5
10AE
330
DFE
100
AcDbEntity
  8
AM_5
  6
ByBlock
100
AcDbLine
 10
110.2841003262138
 20
40.74959359995971
 30
0.0
 11
120.7841003262137
 21
40.7495935999597
 31
0.0
  0
LINE
  5
10AF
330
DFE
100
AcDbEntity
  8
AM_5
  6
ByBlock
100
AcDbLine
 10
119.7841003262137
 20
35.2495935999597
 30
0.0
 11
119.7841003262137
 21
38.2495935999597
 31
0.0
  0
INSERT
  5
10B0
330
DFE
100
AcDbEntity
  8
AM_5
100
AcDbBlockReference
  2
_Open
 10
119.7841003262137
 20
32.7495935999597
 30
0.0
 41
2.5
 42
2.5
 43
2.5
 50
270.0
  0
INSERT
  5
10B1
330
DFE
100
AcDbEntity
  8
AM_5
100
AcDbBlockReference
  2
_Open
 10
119.7841003262137
 20
40.7495935999597
 30
0.0
 41
2.5
 42
2.5
 43
2.5
 50
90.0
  0
MTEXT
  5
10B2
330
DFE
100
AcDbEntity
  8
AM_5
 62
   140
100
AcDbMText
 10
117.1541809172143
 20
36.74959359995972
 30
0.0
 40
3.5
 41
0.0
 71
     5
 72
     1
  1
%%c8
 11
0.0000000000000001
 21
1.0
 31
0.0
 73
     1
 44
1.0
1001
ACAD
1000
MTEXTBEGIN
1070
    73
1070
     1
1070
    44
1040
1.0
1070
    74
1070
     0
1000
MTEXTEND
  0
POINT
  5
10B3
330
DFE
100
AcDbEntity
  8
Defpoints
 62
     0
100
AcDbPoint
 10
109.7841003262138
 20
32.74959359995971
 30
0.0
  0
POINT
  5
10B4
330
DFE
100
AcDbEntity
  8
Defpoints
 62
     0
100
AcDbPoint
 10
109.7841003262138
 20
40.74959359995971
 30
0.0
  0
POINT
  5
10B5
330
DFE
100
AcDbEntity
  8
Defpoints
 62
     0
100
AcDbPoint
 10
119.7841003262137
 20
40.7495935999597
 30
0.0
  0
ENDBLK
  5
E00
330
DFE
100
AcDbEntity
  8
0
100
AcDbBlockEnd
  0
BLOCK
  5
E0B
330
E0A
100
AcDbEntity
  8
0
100
AcDbBlockBegin
  2
*D23
 70
     1
 10
0.0
 20
0.0
 30
0.0
  3
*D23
  1

  0
LINE
  5
10B6
330
E0A
100
AcDbEntity
  8
AM_5
  6
ByBlock
100
AcDbLine
 10
105.0841003262138
 20
54.42459359996828
 30
0.0
 11
128.7841003262137
 21
54.42459359996828
 31
0.0
  0
LINE
  5
10B7
330
E0A
100
AcDbEntity
  8
AM_5
  6
ByBlock
100
AcDbLine
 10
105.0841003262138
 20
19.07459359996792
 30
0.0
 11
128.7841003262137
 21
19.07459359996791
 31
0.0
  0
LINE
  5
10B8
330
E0A
100
AcDbEntity
  8
AM_5
  6
ByBlock
100
AcDbLine
 10
127.7841003262137
 20
51.92459359996828
 30
0.0
 11
127.7841003262137
 21
21.57459359996792
 31
0.0
  0
INSERT
  5
10B9
330
E0A
100
AcDbEntity
  8
AM_5
100
AcDbBlockReference
  2
_Open
 10
127.7841003262137
 20
54.42459359996828
 30
0.0
 41
2.5
 42
2.5
 43
2.5
 50
90.0
  0
INSERT
  5
10BA
330
E0A
100
AcDbEntity
  8
AM_5
100
AcDbBlockReference
  2
_Open
 10
127.7841003262137
 20
19.07459359996791
 30
0.0
 41
2.5
 42
2.5
 43
2.5
 50
270.0
  0
MTEXT
  5
10BB
330
E0A
100
AcDbEntity
  8
AM_5
 62
   140
100
AcDbMText
 10
125.1612326297731
 20
36.74959359996812
 30
0.0
 40
3.5
 41
0.0
 71
     5
 72
     1
  1
%%c35.4
 11
0.0000000000000001
 21
1.0
 31
0.0
 73
     1
 44
1.0
1001
ACAD
1000
MTEXTBEGIN
1070
    73
1070
     1
1070
    44
1040
1.0
1070
    74
1070
     0
1000
MTEXTEND
  0
POINT
  5
10BC
330
E0A
100
AcDbEntity
  8
Defpoints
 62
     0
100
AcDbPoint
 10
104.5841003262138
 20
54.42459359996828
 30
0.0
  0
POINT
  5
10BD
330
E0A
100
AcDbEntity
  8
Defpoints
 62
     0
100
AcDbPoint
 10
104.5841003262138
 20
19.07459359996792
 30
0.0
  0
POINT
  5
10BE
330
E0A
100
AcDbEntity
  8
Defpoints
 62
     0
100
AcDbPoint
 10
127.7841003262137
 20
19.07459359996791
 30
0.0
  0
ENDBLK
  5
E0C
330
E0A
100
AcDbEntity
  8
0
100
AcDbBlockEnd
  0
BLOCK
  5
E17
330
E16
100
AcDbEntity
  8
0
100
AcDbBlockBegin
  2
*D24
 70
     1
 10
0.0
 20
0.0
 30
0.0
  3
*D24
  1

  0
LINE
  5
10BF
330
E16
100
AcDbEntity
  8
AM_5
  6
ByBlock
100
AcDbLine
 10
111.0841003262173
 20
35.99959359995971
 30
0.0
 11
111.0841003262173
 21
10.04959259996919
 31
0.0
  0
LINE
  5
10C0
330
E16
100
AcDbEntity
  8
AM_5
  6
ByBlock
100
AcDbLine
 10
107.0841003262169
 20
31.74959359995987
 30
0.0
 11
107.0841003262169
 21
10.04959259996919
 31
0.0
  0
LINE
  5
10C1
330
E16
100
AcDbEntity
  8
AM_5
  6
ByBlock
100
AcDbLine
 10
113.5841003262173
 20
11.04959259996919
 30
0.0
 11
116.0841003262172
 21
11.04959259996919
 31
0.0
  0
LINE
  5
10C2
330
E16
100
AcDbEntity
  8
AM_5
  6
ByBlock
100
AcDbLine
 10
104.5841003262169
 20
11.04959259996919
 30
0.0
 11
94.67819031950099
 21
11.04959259996919
 31
0.0
  0
LINE
  5
10C3
330
E16
100
AcDbEntity
  8
AM_5
  6
ByBlock
100
AcDbLine
 10
111.0841003262173
 20
11.04959259996919
 30
0.0
 11
107.0841003262169
 21
11.04959259996919
 31
0.0
  0
INSERT
  5
10C4
330
E16
100
AcDbEntity
  8
AM_5
100
AcDbBlockReference
  2
_Open
 10
111.0841003262173
 20
11.04959259996919
 30
0.0
 41
2.5
 42
2.5
 43
2.5
 50
180.0
  0
INSERT
  5
10C5
330
E16
100
AcDbEntity
  8
AM_5
100
AcDbBlockReference
  2
_Open
 10
107.0841003262169
 20
11.04959259996919
 30
0.0
 41
2.5
 42
2.5
 43
2.5
  0
MTEXT
  5
10C6
330
E16
100
AcDbEntity
  8
AM_5
 62
   140
100
AcDbMText
 10
98.38114532285894
 20
14.16255431924387
 30
0.0
 40
3.5
 41
0.0
 71
     5
 72
     1
  1
(4)
 73
     1
 44
1.0
1001
ACAD
1000
MTEXTBEGIN
1070
    73
1070
     1
1070
    44
1040
1.0
1070
    74
1070
     0
1000
MTEXTEND
  0
POINT
  5
10C7
330
E16
100
AcDbEntity
  8
Defpoints
 62
     0
100
AcDbPoint
 10
111.0841003262173
 20
36.49959359995971
 30
0.0
  0
POINT
  5
10C8
330
E16
100
AcDbEntity
  8
Defpoints
 62
     0
100
AcDbPoint
 10
107.0841003262169
 20
32.24959359995987
 30
0.0
  0
POINT
  5
10C9
330
E16
100
AcDbEntity
  8
Defpoints
 62
     0
100
AcDbPoint
 10
107.0841003262169
 20
11.04959259996919
 30
0.0
  0
ENDBLK
  5
E18
330
E16
100
AcDbEntity
  8
0
100
AcDbBlockEnd
  0
BLOCK
  5
E25
330
E24
100
AcDbEntity
  8
0
100
AcDbBlockBegin
  2
*D25
 70
     1
 10
0.0
 20
0.0
 30
0.0
  3
*D25
  1

  0
LINE
  5
E89
330
E24
100
AcDbEntity
  8
AM_5
  6
ByBlock
100
AcDbLine
 10
255.3409981152721
 20
74.07141439628969
 30
0.0
 11
238.4430769335538
 21
52.7690982106444
 31
0.0
  0
LINE
  5
E8A
330
E24
100
AcDbEntity
  8
AM_5
  6
ByBlock
100
AcDbLine
 10
219.1777548149866
 20
28.48232478007434
 30
0.0
 11
217.6240998054248
 21
26.52371401954449
 31
0.0
  0
MTEXT
  5
E8B
102
{ACAD_XDICTIONARY
360
142D
102
}
330
E24
100
AcDbEntity
  8
AM_5
 62
   140
100
AcDbMText
 10
245.9885979779961
 20
66.60161941251245
 30
0.0
 40
3.5
 41
0.0
 71
     5
 72
     1
  1
P.C.D.\U+220526
 11
0.6214620038247478
 21
0.7834443042119391
 31
0.0
 73
     1
 44
1.0
1001
ACAD
1000
MTEXTBEGIN
1070
    73
1070
     1
1070
    44
1040
1.0
1070
    74
1070
     0
1000
MTEXTEND
  0
LINE
  5
E8C
330
E24
100
AcDbEntity
  8
AM_5
  6
ByBlock
100
AcDbLine
 10
220.7314098245485
 20
30.44093554060417
 30
0.0
 11
236.889421923992
 21
50.81048745011456
 31
0.0
  0
INSERT
  5
E8D
330
E24
100
AcDbEntity
  8
AM_5
100
AcDbBlockReference
  2
_Open
 10
220.7314098245485
 20
30.44093554060417
 30
0.0
 41
2.5
 42
2.5
 43
2.5
 50
51.57702348416957
  0
INSERT
  5
E8E
330
E24
100
AcDbEntity
  8
AM_5
100
AcDbBlockReference
  2
_Open
 10
236.889421923992
 20
50.81048745011456
 30
0.0
 41
2.5
 42
2.5
 43
2.5
 50
231.5770234841696
  0
POINT
  5
E8F
330
E24
100
AcDbEntity
  8
Defpoints
 62
     0
100
AcDbPoint
 10
236.889421923992
 20
50.81048745011456
 30
0.0
  0
POINT
  5
E90
330
E24
100
AcDbEntity
  8
Defpoints
 62
     0
100
AcDbPoint
 10
220.7314098245485
 20
30.44093554060417
 30
0.0
  0
ENDBLK
  5
E26
330
E24
100
AcDbEntity
  8
0
100
AcDbBlockEnd
  0
BLOCK
  5
E92
330
E91
100
AcDbEntity
  8
0
100
AcDbBlockBegin
  2
*D26
 70
     1
 10
0.0
 20
0.0
 30
0.0
  3
*D26
  1

  0
LINE
  5
E9E
330
E91
100
AcDbEntity
  8
AM_5
  6
ByBlock
100
AcDbLine
 10
211.6025949056182
 20
30.69077142694195
 30
0.0
 11
208.4716509040451
 21
28.88312006481724
 31
0.0
  0
ARC
  5
E9F
330
E91
100
AcDbEntity
  8
AM_5
  6
ByBlock
100
AcDbCircle
 10
228.8104158742701
 20
40.62571149535421
 30
0.0
 40
22.48518286108436
100
AcDbArc
 50
96.373678722146
 51
203.6263212778393
  0
INSERT
  5
EA0
330
E91
100
AcDbEntity
  8
AM_5
100
AcDbBlockReference
  2
_Open
 10
228.8104158742701
 20
63.11089435643857
 30
0.0
 41
2.5
 42
2.5
 43
2.5
 50
3.186839361072966
  0
INSERT
  5
EA1
330
E91
100
AcDbEntity
  8
AM_5
100
AcDbBlockReference
  2
_Open
 10
209.3376763078297
 20
29.38312006481702
 30
0.0
 41
2.5
 42
2.5
 43
2.5
 50
296.8131606389124
  0
MTEXT
  5
EA2
102
{ACAD_XDICTIONARY
360
142F
102
}
330
E91
100
AcDbEntity
  8
AM_5
 62
   140
100
AcDbMText
 10
207.066206251951
 20
53.17973677411943
 30
0.0
 40
3.5
 41
0.0
 71
     5
 72
     1
  1
3-120\U+00B0
 11
0.5000000000001095
 21
0.8660254037843754
 31
0.0
 73
     1
 44
1.0
1001
ACAD
1000
MTEXTBEGIN
1070
    73
1070
     1
1070
    44
1040
1.0
1070
    74
1070
     0
1000
MTEXTEND
  0
POINT
  5
EA3
330
E91
100
AcDbEntity
  8
Defpoints
 62
     0
100
AcDbPoint
 10
214.3572189296304
 20
57.85036087860323
 30
0.0
  0
POINT
  5
EA4
330
E91
100
AcDbEntity
  8
Defpoints
 62
     0
100
AcDbPoint
 10
228.8104158742701
 20
40.62571149535934
 30
0.0
  0
POINT
  5
EA5
330
E91
100
AcDbEntity
  8
Defpoints
 62
     0
100
AcDbPoint
 10
212.0356076075104
 20
30.94077142694184
 30
0.0
  0
POINT
  5
EA6
330
E91
100
AcDbEntity
  8
Defpoints
 62
     0
100
AcDbPoint
 10
228.810415874279
 20
40.62571149535934
 30
0.0
  0
POINT
  5
EA7
330
E91
100
AcDbEntity
  8
Defpoints
 62
     0
100
AcDbPoint
 10
228.8104158742701
 20
63.62431426901324
 30
0.0
  0
ENDBLK
  5
E93
330
E91
100
AcDbEntity
  8
0
100
AcDbBlockEnd
  0
BLOCK
  5
EAA
330
EA9
100
AcDbEntity
  8
0
100
AcDbBlockBegin
  2
*D27
 70
     1
 10
0.0
 20
0.0
 30
0.0
  3
*D27
  1

  0
LINE
  5
10CA
330
EA9
100
AcDbEntity
  8
AM_5
  6
ByBlock
100
AcDbLine
 10
44.41732615330004
 20
33.24959359995971
 30
0.0
 11
44.41732615330004
 21
7.756957321031947
 31
0.0
  0
LINE
  5
10CB
330
EA9
100
AcDbEntity
  8
AM_5
  6
ByBlock
100
AcDbLine
 10
20.41732615330005
 20
33.24959359995971
 30
0.0
 11
20.41732615330005
 21
7.756957321031947
 31
0.0
  0
LINE
  5
10CC
330
EA9
100
AcDbEntity
  8
AM_5
  6
ByBlock
100
AcDbLine
 10
41.91732615330004
 20
8.756957321031947
 30
0.0
 11
22.91732615330005
 21
8.756957321031947
 31
0.0
  0
INSERT
  5
10CD
330
EA9
100
AcDbEntity
  8
AM_5
100
AcDbBlockReference
  2
_Open
 10
44.41732615330004
 20
8.756957321031947
 30
0.0
 41
2.5
 42
2.5
 43
2.5
  0
INSERT
  5
10CE
330
EA9
100
AcDbEntity
  8
AM_5
100
AcDbBlockReference
  2
_Open
 10
20.41732615330005
 20
8.756957321031947
 30
0.0
 41
2.5
 42
2.5
 43
2.5
 50
180.0
  0
MTEXT
  5
10CF
330
EA9
100
AcDbEntity
  8
AM_5
 62
   140
100
AcDbMText
 10
32.41732615330005
 20
11.34339116925223
 30
0.0
 40
3.5
 41
0.0
 71
     5
 72
     1
  1
24
 73
     1
 44
1.0
1001
ACAD
1000
MTEXTBEGIN
1070
    73
1070
     1
1070
    44
1040
1.0
1070
    74
1070
     0
1000
MTEXTEND
  0
POINT
  5
10D0
330
EA9
100
AcDbEntity
  8
Defpoints
 62
     0
100
AcDbPoint
 10
44.41732615330004
 20
33.74959359995971
 30
0.0
  0
POINT
  5
10D1
330
EA9
100
AcDbEntity
  8
Defpoints
 62
     0
100
AcDbPoint
 10
20.41732615330005
 20
33.74959359995971
 30
0.0
  0
POINT
  5
10D2
330
EA9
100
AcDbEntity
  8
Defpoints
 62
     0
100
AcDbPoint
 10
20.41732615330005
 20
8.756957321031947
 30
0.0
  0
ENDBLK
  5
EAB
330
EA9
100
AcDbEntity
  8
0
100
AcDbBlockEnd
  0
BLOCK
  5
1143
330
113C
100
AcDbEntity
  8
0
100
AcDbBlockBegin
  2
*S4728
 70
     1
 10
0.0
 20
0.0
 30
0.0
  3
*S4728
  1

  0
LINE
  5
113D
330
113C
100
AcDbEntity
  8
AM_5
  6
Continuous
 62
    92
100
AcDbLine
 10
150.7857345971449
 20
58.16104453801928
 30
0.0
 11
133.0272118698722
 21
58.16104453801928
 31
0.0
  0
LINE
  5
113E
330
113C
100
AcDbEntity
  8
AM_5
  6
Continuous
 62
    92
100
AcDbLine
 10
133.0272118698722
 20
58.16104453801928
 30
0.0
 11
142.8822020921593
 21
40.04566265619048
 31
0.0
  0
LINE
  5
113F
330
113C
100
AcDbEntity
  8
AM_5
  6
Continuous
 62
    92
100
AcDbLine
 10
142.8822020921593
 20
40.04566265619048
 30
0.0
 11
144.0768906291011
 21
37.84959359996757
 31
0.0
  0
LINE
  5
1140
330
113C
100
AcDbEntity
  8
AM_5
  6
Continuous
 62
    92
100
AcDbLine
 10
142.5161905974293
 20
39.8465479079981
 30
0.0
 11
144.0768906291011
 21
37.84959359996757
 31
0.0
  0
LINE
  5
1141
330
113C
100
AcDbEntity
  8
AM_5
  6
Continuous
 62
    92
100
AcDbLine
 10
144.0768906291011
 20
37.84959359996757
 30
0.0
 11
143.2482135868893
 21
40.24477740438284
 31
0.0
  0
MTEXT
  5
1142
102
{ACAD_XDICTIONARY
360
1431
102
}
330
113C
100
AcDbEntity
  8
AM_5
 62
   140
100
AcDbMText
 10
136.5272118698722
 20
59.91104453801928
 30
0.0
 40
3.5
 41
0.0
 71
     7
 72
     5
  1
\U+FF0B\U+7AEF\U+5B50
 73
     1
 44
1.0
1001
ACAD
1000
MTEXTBEGIN
1070
    73
1070
     1
1070
    44
1040
1.0
1070
    74
1070
     0
1000
MTEXTEND
  0
ENDBLK
  5
1144
330
113C
100
AcDbEntity
  8
0
100
AcDbBlockEnd
  0
BLOCK
  5
114D
330
1146
100
AcDbEntity
  8
0
100
AcDbBlockBegin
  2
*S4829
 70
     1
 10
0.0
 20
0.0
 30
0.0
  3
*S4829
  1

  0
LINE
  5
1147
330
1146
100
AcDbEntity
  8
AM_5
  6
Continuous
 62
    92
100
AcDbLine
 10
144.137667528091
 20
11.04959259996919
 30
0.0
 11
120.8905084371819
 21
11.04959259996919
 31
0.0
  0
LINE
  5
1148
330
1146
100
AcDbEntity
  8
AM_5
  6
Continuous
 62
    92
100
AcDbLine
 10
120.8905084371819
 20
11.04959259996919
 30
0.0
 11
109.7652374304754
 21
34.24545461538298
 31
0.0
  0
LINE
  5
1149
330
1146
100
AcDbEntity
  8
AM_5
  6
Continuous
 62
    92
100
AcDbLine
 10
109.7652374304754
 20
34.24545461538297
 30
0.0
 11
108.6841003262137
 21
36.49959359995971
 31
0.0
  0
LINE
  5
114A
330
1146
100
AcDbEntity
  8
AM_5
  6
Continuous
 62
    92
100
AcDbLine
 10
110.1409272462106
 20
34.42564412555235
 30
0.0
 11
108.6841003262137
 21
36.49959359995971
 31
0.0
  0
LINE
  5
114B
330
1146
100
AcDbEntity
  8
AM_5
  6
Continuous
 62
    92
100
AcDbLine
 10
108.6841003262137
 20
36.49959359995971
 30
0.0
 11
109.3895476147402
 21
34.06526510521362
 31
0.0
  0
MTEXT
  5
114C
102
{ACAD_XDICTIONARY
360
1433
102
}
330
1146
100
AcDbEntity
  8
AM_5
 62
   140
100
AcDbMText
 10
124.3905084371819
 20
12.79959259996919
 30
0.0
 40
3.5
 41
0.0
 71
     7
 72
     5
  1
\U+5165\U+529B\U+7AEF\U+5B50
 73
     1
 44
1.0
1001
ACAD
1000
MTEXTBEGIN
1070
    73
1070
     1
1070
    44
1040
1.0
1070
    74
1070
     0
1000
MTEXTEND
  0
ENDBLK
  5
114E
330
1146
100
AcDbEntity
  8
0
100
AcDbBlockEnd
  0
BLOCK
  5
1157
330
1150
100
AcDbEntity
  8
0
100
AcDbBlockBegin
  2
*S4930
 70
     1
 10
0.0
 20
0.0
 30
0.0
  3
*S4930
  1

  0
LINE
  5
1151
330
1150
100
AcDbEntity
  8
AM_5
  6
Continuous
 62
    92
100
AcDbLine
 10
40.32309700547708
 20
66.56453582623672
 30
0.0
 11
12.63379485981358
 21
66.56453582623672
 31
0.0
  0
LINE
  5
1152
330
1150
100
AcDbEntity
  8
AM_5
  6
Continuous
 62
    92
100
AcDbLine
 10
12.63379485981358
 20
66.56453582623672
 30
0.0
 11
19.11776236101653
 21
40.24136800082924
 31
0.0
  0
LINE
  5
1153
330
1150
100
AcDbEntity
  8
AM_5
  6
Continuous
 62
    92
100
AcDbLine
 10
19.11776236101653
 20
40.24136800082924
 30
0.0
 11
19.71569415354989
 21
37.81392540182144
 31
0.0
  0
LINE
  5
1154
330
1150
100
AcDbEntity
  8
AM_5
  6
Continuous
 62
    92
100
AcDbLine
 10
18.71318861069818
 20
40.14171270605991
 30
0.0
 11
19.71569415354989
 21
37.81392540182144
 31
0.0
  0
LINE
  5
1155
330
1150
100
AcDbEntity
  8
AM_5
  6
Continuous
 62
    92
100
AcDbLine
 10
19.71569415354989
 20
37.81392540182144
 30
0.0
 11
19.52233611133488
 21
40.3410232955986
 31
0.0
  0
MTEXT
  5
1156
102
{ACAD_XDICTIONARY
360
1435
102
}
330
1150
100
AcDbEntity
  8
AM_5
 62
   140
100
AcDbMText
 10
19.0146647141284
 20
61.52814168854846
 30
0.0
 40
3.5
 41
0.0
 71
     7
 72
     5
  1
2-M2.6\P\U+6709\U+52B9\U+6DF1\U+30552
 73
     1
 44
1.0
1001
ACAD
1000
MTEXTBEGIN
1070
    73
1070
     1
1070
    44
1040
1.0
1070
    74
1070
     0
1000
MTEXTEND
  0
ENDBLK
  5
1158
330
1150
100
AcDbEntity
  8
0
100
AcDbBlockEnd
  0
BLOCK
  5
13D3
330
13CC
100
AcDbEntity
  8
0
100
AcDbBlockBegin
  2
*S36
 70
     1
 10
0.0
 20
0.0
 30
0.0
  3
*S36
  1

  0
LINE
  5
13CD
330
13CC
100
AcDbEntity
  8
AM_5
  6
Continuous
100
AcDbLine
 10
158.7069470888034
 20
62.5902156327865
 30
0.0
 11
131.3044469881502
 21
62.5902156327865
 31
0.0
  0
LINE
  5
13CE
330
13CC
100
AcDbEntity
  8
AM_5
  6
Continuous
100
AcDbLine
 10
131.3044469881502
 20
62.5902156327865
 30
0.0
 11
142.8763471184785
 21
40.22009128045691
 31
0.0
  0
LINE
  5
13CF
330
13CC
100
AcDbEntity
  8
AM_5
  6
Continuous
100
AcDbLine
 10
142.8763471184785
 20
40.22009128045691
 30
0.0
 11
144.0249941708434
 21
37.99959359995971
 31
0.0
  0
LINE
  5
13D0
330
13CC
100
AcDbEntity
  8
AM_5
  6
Continuous
100
AcDbLine
 10
142.5062641865323
 20
40.02865011272041
 30
0.0
 11
144.0249941708434
 21
37.99959359995971
 31
0.0
  0
LINE
  5
13D1
330
13CC
100
AcDbEntity
  8
AM_5
  6
Continuous
100
AcDbLine
 10
144.0249941708434
 20
37.99959359995971
 30
0.0
 11
143.2464300504247
 21
40.41153244819341
 31
0.0
  0
MTEXT
  5
13D2
102
{ACAD_XDICTIONARY
360
1437
102
}
330
13CC
100
AcDbEntity
  8
AM_5
 62
   140
100
AcDbMText
 10
131.8440357389041
 20
64.34021563278649
 30
0.0
 40
3.5
 41
0.0
 71
     7
 72
     5
  1
\U+FF0BTERMINAL
 73
     1
 44
1.0
1001
ACAD
1000
MTEXTBEGIN
1070
    73
1070
     1
1070
    44
1040
1.0
1070
    74
1070
     0
1000
MTEXTEND
  0
ENDBLK
  5
13D4
330
13CC
100
AcDbEntity
  8
0
100
AcDbBlockEnd
  0
BLOCK
  5
13DD
330
13D6
100
AcDbEntity
  8
0
100
AcDbBlockBegin
  2
*S37
 70
     1
 10
0.0
 20
0.0
 30
0.0
  3
*S37
  1

  0
LINE
  5
13D7
330
13D6
100
AcDbEntity
  8
AM_5
  6
Continuous
100
AcDbLine
 10
61.25660719843046
 20
64.16206024027151
 30
0.0
 11
-3.713820558127963
 21
64.16206024027151
 31
0.0
  0
LINE
  5
13D8
330
13D6
100
AcDbEntity
  8
AM_5
  6
Continuous
100
AcDbLine
 10
-3.713820558127963
 20
64.16206024027151
 30
0.0
 11
18.76544101531189
 21
38.62609979257639
 31
0.0
  0
LINE
  5
13D9
330
13D6
100
AcDbEntity
  8
AM_5
  6
Continuous
100
AcDbLine
 10
18.76544101531189
 20
38.62609979257639
 30
0.0
 11
20.41732615330005
 21
36.74959359996901
 31
0.0
  0
LINE
  5
13DA
330
13D6
100
AcDbEntity
  8
AM_5
  6
Continuous
100
AcDbLine
 10
18.45268999572071
 20
38.35078561392426
 30
0.0
 11
20.41732615330005
 21
36.74959359996901
 31
0.0
  0
LINE
  5
13DB
330
13D6
100
AcDbEntity
  8
AM_5
  6
Continuous
100
AcDbLine
 10
20.41732615330005
 20
36.74959359996901
 30
0.0
 11
19.07819203490308
 21
38.90141397122851
 31
0.0
  0
MTEXT
  5
13DC
102
{ACAD_XDICTIONARY
360
1439
102
}
330
13D6
100
AcDbEntity
  8
AM_5
 62
   140
100
AcDbMText
 10
2.294887923749456
 20
59.1452757041627
 30
0.0
 40
3.5
 41
0.0
 71
     7
 72
     5
  1
2-M2.6\U+00D70.45 TAPPED HOLE\P(2mmMAX)
 73
     1
 44
1.0
1001
ACAD
1000
MTEXTBEGIN
1070
    73
1070
     1
1070
    44
1040
1.0
1070
    74
1070
     0
1000
MTEXTEND
  0
ENDBLK
  5
13DE
330
13D6
100
AcDbEntity
  8
0
100
AcDbBlockEnd
  0
BLOCK
  5
13E7
330
13E0
100
AcDbEntity
  8
0
100
AcDbBlockBegin
  2
*S38
 70
     1
 10
0.0
 20
0.0
 30
0.0
  3
*S38
  1

  0
LINE
  5
13E1
330
13E0
100
AcDbEntity
  8
AM_5
  6
Continuous
100
AcDbLine
 10
146.8784197870811
 20
11.04959259996919
 30
0.0
 11
120.8905084371819
 21
11.04959259996919
 31
0.0
  0
LINE
  5
13E2
330
13E0
100
AcDbEntity
  8
AM_5
  6
Continuous
100
AcDbLine
 10
120.8905084371819
 20
11.04959259996919
 30
0.0
 11
109.7652374304754
 21
34.24545461538297
 31
0.0
  0
LINE
  5
13E3
330
13E0
100
AcDbEntity
  8
AM_5
  6
Continuous
100
AcDbLine
 10
109.7652374304754
 20
34.24545461538297
 30
0.0
 11
108.6841003262137
 21
36.49959359995971
 31
0.0
  0
LINE
  5
13E4
330
13E0
100
AcDbEntity
  8
AM_5
  6
Continuous
100
AcDbLine
 10
110.1409272462106
 20
34.42564412555235
 30
0.0
 11
108.6841003262137
 21
36.49959359995971
 31
0.0
  0
LINE
  5
13E5
330
13E0
100
AcDbEntity
  8
AM_5
  6
Continuous
100
AcDbLine
 10
108.6841003262137
 20
36.49959359995971
 30
0.0
 11
109.3895476147402
 21
34.06526510521361
 31
0.0
  0
MTEXT
  5
13E6
330
13E0
100
AcDbEntity
  8
AM_5
 62
   140
100
AcDbMText
 10
124.3905084371819
 20
12.79959259996919
 30
0.0
 40
3.5
 41
0.0
 71
     7
 72
     5
  1
TERMINAL
 73
     1
 44
1.0
1001
ACAD
1000
MTEXTBEGIN
1070
    73
1070
     1
1070
    44
1040
1.0
1070
    74
1070
     0
1000
MTEXTEND
  0
ENDBLK
  5
13E8
330
13E0
100
AcDbEntity
  8
0
100
AcDbBlockEnd
  0
BLOCK
  5
13F1
330
13EA
100
AcDbEntity
  8
0
100
AcDbBlockBegin
  2
*S39
 70
     1
 10
0.0
 20
0.0
 30
0.0
  3
*S39
  1

  0
LINE
  5
13EB
330
13EA
100
AcDbEntity
  8
AM_5
  6
Continuous
100
AcDbLine
 10
104.4791111147544
 20
58.21035948325031
 30
0.0
 11
89.54063271490303
 21
58.21035948325031
 31
0.0
  0
LINE
  5
13EC
330
13EA
100
AcDbEntity
  8
AM_5
  6
Continuous
100
AcDbLine
 10
89.54063271490303
 20
58.21035948325031
 30
0.0
 11
93.23929827660114
 21
54.19481596804178
 31
0.0
  0
LINE
  5
13ED
330
13EA
100
AcDbEntity
  8
AM_5
  6
Continuous
100
AcDbLine
 10
93.23929827660114
 20
54.19481596804178
 30
0.0
 11
94.93302201138954
 21
52.35598484196891
 31
0.0
  0
LINE
  5
13EE
330
13EA
100
AcDbEntity
  8
AM_5
  6
Continuous
100
AcDbLine
 10
92.93282643451453
 20
53.91252869020187
 30
0.0
 11
94.93302201138954
 21
52.35598484196891
 31
0.0
  0
LINE
  5
13EF
330
13EA
100
AcDbEntity
  8
AM_5
  6
Continuous
100
AcDbLine
 10
94.93302201138954
 20
52.35598484196891
 30
0.0
 11
93.54577011868775
 21
54.47710324588169
 31
0.0
  0
MTEXT
  5
13F0
330
13EA
100
AcDbEntity
  8
AM_5
 62
   140
100
AcDbMText
 10
91.63089083268591
 20
59.9603594832503
 30
0.0
 40
3.5
 41
0.0
 71
     7
 72
     5
  1
LABEL
 73
     1
 44
1.0
1001
ACAD
1000
MTEXTBEGIN
1070
    73
1070
     1
1070
    44
1040
1.0
1070
    74
1070
     0
1000
MTEXTEND
  0
ENDBLK
  5
13F2
330
13EA
100
AcDbEntity
  8
0
100
AcDbBlockEnd
  0
ENDSEC
  0
SECTION
  2
ENTITIES
  0
LWPOLYLINE
  5
C8
330
67
100
AcDbEntity
  8
AM_VIEWS
  6
Continuous
100
AcDbPolyline
 90
        4
 70
     1
 43
0.0
 10
-6.361719322187123
 20
0.0
 10
180.0
 20
0.0
 10
180.0
 20
80.0
 10
-6.361719322187123
 20
80.0
  0
LWPOLYLINE
  5
2D7
330
67
100
AcDbEntity
  8
AM_VIEWS
100
AcDbPolyline
 90
        2
 70
     0
 43
0.0
 10
180.0
 20
-0.0000000000000071
 10
180.0
 20
80.0
1001
GENIUS_GENSCREG_15
1040
1.0
1040
1.0
1011
0.0
1021
0.0
1031
0.0
1011
180.0
1021
80.0
1031
0.0
1070
     2
1001
GENIUS_GENODEF_13
1002
{
1000
HIER
1070
     0
1002
}
1002
{
1000
MANEDIT
1070
     0
1002
}
1002
{
1000
NOSEL
1070
     0
1002
}
1002
{
1000
BEHIND
1070
     0
1002
}
1002
{
1000
OTHER
1070
     0
1002
}
1002
{
1000
REACTOR
1002
}
1001
GENIUS_GENOBJ-N-SDF_13
1002
{
1000
OWNER
1000
GEN
1002
}
  0
LWPOLYLINE
  5
2D8
330
67
100
AcDbEntity
  8
AM_VIEWS
100
AcDbPolyline
 90
        2
 70
     0
 43
0.0
 10
180.0
 20
80.0
 10
-0.0000000000000044
 20
80.0
1001
GENIUS_GENSCREG_15
1040
1.0
1040
1.0
1011
0.0
1021
0.0
1031
0.0
1011
180.0
1021
80.0
1031
0.0
1070
     2
1001
GENIUS_GENODEF_13
1002
{
1000
HIER
1070
     0
1002
}
1002
{
1000
MANEDIT
1070
     0
1002
}
1002
{
1000
NOSEL
1070
     0
1002
}
1002
{
1000
BEHIND
1070
     0
1002
}
1002
{
1000
OTHER
1070
     0
1002
}
1002
{
1000
REACTOR
1002
}
1001
GENIUS_GENOBJ-N-SDF_13
1002
{
1000
OWNER
1000
GEN
1002
}
  0
LWPOLYLINE
  5
2D9
330
67
100
AcDbEntity
  8
AM_VIEWS
100
AcDbPolyline
 90
        3
 70
     0
 43
0.0
 10
-6.361719322187127
 20
80.0
 10
-6.361719322187123
 20
0.0
 10
180.0
 20
-0.0000000000000071
1001
GENIUS_GENSCREG_15
1040
1.0
1040
1.0
1011
-6.361719322187123
1021
0.0
1031
0.0
1011
180.0
1021
80.0
1031
0.0
1070
     2
1001
GENIUS_GENODEF_13
1002
{
1000
HIER
1070
     0
1002
}
1002
{
1000
MANEDIT
1070
     0
1002
}
1002
{
1000
NOSEL
1070
     0
1002
}
1002
{
1000
BEHIND
1070
     0
1002
}
1002
{
1000
OTHER
1070
     0
1002
}
1002
{
1000
REACTOR
1002
}
1001
GENIUS_GENOBJ-N-SDF_13
1002
{
1000
OWNER
1000
GEN
1002
}
  0
LWPOLYLINE
  5
2DA
330
67
100
AcDbEntity
  8
AM_VIEWS
100
AcDbPolyline
 90
        2
 70
     0
 43
0.0
 10
-6.361719322187123
 20
0.0
 10
62.5
 20
0.0
1001
GENIUS_GENSCREG_15
1040
1.0
1040
1.0
1011
0.0
1021
-45.0
1031
0.0
1011
62.5
1021
0.0
1031
0.0
1070
     2
1001
GENIUS_GENOBJ-N-SDF_13
1002
{
1000
OWNER
1000
GEN
1002
}
1001
GENIUS_GENODEF_13
1002
{
1000
HIER
1070
     0
1002
}
1002
{
1000
MANEDIT
1070
     0
1002
}
1002
{
1000
NOSEL
1070
     0
1002
}
1002
{
1000
BEHIND
1070
     0
1002
}
1002
{
1000
OTHER
1070
     0
1002
}
1002
{
1000
REACTOR
1002
}
  0
LWPOLYLINE
  5
2DB
330
67
100
AcDbEntity
  8
AM_VIEWS
100
AcDbPolyline
 90
        2
 70
     0
 43
0.0
 10
73.7313392340485
 20
-0.0000000000000069
 10
161.7661319176011
 20
-0.0000000000000069
1001
GENIUS_GENSCREG_15
1040
1.0
1040
1.0
1011
73.7313392340485
1021
-48.8577448430018
1031
0.0
1011
161.7661319176011
1021
-0.0000000000000069
1031
0.0
1070
     2
1001
GENIUS_GENODEF_13
1002
{
1000
HIER
1070
     0
1002
}
1002
{
1000
MANEDIT
1070
     0
1002
}
1002
{
1000
NOSEL
1070
     0
1002
}
1002
{
1000
BEHIND
1070
     0
1002
}
1002
{
1000
OTHER
1070
     0
1002
}
1002
{
1000
REACTOR
1002
}
1001
GENIUS_GENOBJ-N-SDF_13
1002
{
1000
OWNER
1000
GEN
1002
}
  0
CIRCLE
  5
D2D
330
67
100
AcDbEntity
  8
AM_0
100
AcDbCircle
 10
32.41732615330005
 20
36.74959359995971
 30
0.0
 40
17.7
  0
CIRCLE
  5
D2E
330
67
100
AcDbEntity
  8
AM_0
100
AcDbCircle
 10
36.86358801653381
 20
24.5335895297432
 30
0.0
 40
1.5
  0
CIRCLE
  5
D2F
330
67
100
AcDbEntity
  8
AM_0
100
AcDbCircle
 10
44.41732615330004
 20
36.74959359995971
 30
0.0
 40
1.056499999999998
  0
CIRCLE
  5
D30
330
67
100
AcDbEntity
  8
AM_0
100
AcDbCircle
 10
20.41732615330005
 20
36.74959359995971
 30
0.0
 40
1.056499999999998
  0
CIRCLE
  5
D31
330
67
100
AcDbEntity
  8
AM_0
100
AcDbCircle
 10
44.41732615330004
 20
36.74959359995971
 30
0.0
 40
1.3
  0
CIRCLE
  5
D32
330
67
100
AcDbEntity
  8
AM_0
100
AcDbCircle
 10
20.41732615330005
 20
36.74959359995971
 30
0.0
 40
1.3
  0
CIRCLE
  5
D33
330
67
100
AcDbEntity
  8
AM_0
100
AcDbCircle
 10
32.41732615330005
 20
36.74959359995971
 30
0.0
 40
1.0
  0
CIRCLE
  5
D34
330
67
100
AcDbEntity
  8
AM_0
100
AcDbCircle
 10
32.41732615330005
 20
36.74959359995971
 30
0.0
 40
5.0
  0
CIRCLE
  5
D35
330
67
100
AcDbEntity
  8
AM_0
100
AcDbCircle
 10
32.41732615330005
 20
36.74959359995971
 30
0.0
 40
16.5
  0
LINE
  5
D36
330
67
100
AcDbEntity
  8
AM_0
100
AcDbLine
 10
103.5841003262137
 20
19.0495935999608
 30
0.0
 11
103.5841003262137
 21
54.44959359996044
 31
0.0
  0
LINE
  5
D37
330
67
100
AcDbEntity
  8
AM_0
100
AcDbLine
 10
103.3841003262136
 20
54.44959359996044
 30
0.0
 11
103.3841003262136
 21
19.0495935999608
 31
0.0
  0
LINE
  5
D38
330
67
100
AcDbEntity
  8
AM_0
100
AcDbLine
 10
103.5841003262137
 20
19.24959359995971
 30
0.0
 11
103.3841003262136
 21
19.24959359995971
 31
0.0
  0
LINE
  5
D39
330
67
100
AcDbEntity
  8
AM_0
100
AcDbLine
 10
103.5841003262137
 20
54.24959359995971
 30
0.0
 11
103.3841003262136
 21
54.24959359995971
 31
0.0
  0
LINE
  5
D3A
330
67
100
AcDbEntity
  8
AM_0
100
AcDbLine
 10
111.0841003262173
 20
36.99959359995971
 30
0.0
 11
109.8341003262177
 21
36.99959359995971
 31
0.0
  0
LINE
  5
D3B
330
67
100
AcDbEntity
  8
AM_0
100
AcDbLine
 10
106.5841003262177
 20
36.99959359995971
 30
0.0
 11
109.8341003262177
 21
36.99959359995971
 31
0.0
  0
LINE
  5
D3C
330
67
100
AcDbEntity
  8
AM_0
100
AcDbLine
 10
109.8341003262177
 20
36.49959359995971
 30
0.0
 11
111.0841003262173
 21
36.49959359995971
 31
0.0
  0
LINE
  5
D3D
330
67
100
AcDbEntity
  8
AM_0
100
AcDbLine
 10
106.5841003262177
 20
36.49959359995971
 30
0.0
 11
109.8341003262177
 21
36.49959359995971
 31
0.0
  0
LINE
  5
D3E
330
67
100
AcDbEntity
  8
AM_0
100
AcDbLine
 10
111.0841003262173
 20
36.49959359995971
 30
0.0
 11
111.0841003262173
 21
36.99959359995971
 31
0.0
  0
LINE
  5
D3F
330
67
100
AcDbEntity
  8
AM_0
100
AcDbLine
 10
106.5841003262182
 20
35.49959359995971
 30
0.0
 11
106.5841003262182
 21
37.99959359995971
 31
0.0
  0
SPLINE
  5
D40
330
67
100
AcDbEntity
  8
AM_0
100
AcDbSpline
210
0.0
220
0.0
230
1.0
 70
    24
 71
     3
 72
    14
 73
    10
 74
     0
 42
0.0000000001
 43
0.0000000001
 40
0.0
 40
0.0
 40
0.0
 40
0.0
 40
0.0184909991678205
 40
0.0184909991678205
 40
0.0370149788516684
 40
0.0370149788516684
 40
0.0555803753133635
 40
0.0555803753133635
 40
0.0741825811415732
 40
0.0741825811415732
 40
0.0741825811415732
 40
0.0741825811415732
 10
106.5841003262182
 20
37.99959359995971
 30
0.0
 10
106.6457369901108
 20
37.99959359995971
 30
0.0
 10
106.7182727361384
 20
37.99959359995971
 30
0.0
 10
106.832230171469
 20
37.99959359995971
 30
0.0
 10
106.8937886314208
 20
37.99959359995971
 30
0.0
 10
106.9811156332968
 20
37.99959359995971
 30
0.0
 10
107.0222962635375
 20
37.99959359995971
 30
0.0
 10
107.0696228461176
 20
37.99959359995971
 30
0.0
 10
107.084100326218
 20
37.99959359995971
 30
0.0
 10
107.084100326218
 20
37.99959359995971
 30
0.0
  0
SPLINE
  5
D41
330
67
100
AcDbEntity
  8
AM_0
100
AcDbSpline
210
0.0
220
0.0
230
1.0
 70
    24
 71
     3
 72
    14
 73
    10
 74
     0
 42
0.0000000001
 43
0.0000000001
 40
-0.0741825811415732
 40
-0.0741825811415732
 40
-0.0741825811415732
 40
-0.0741825811415732
 40
-0.0555803753133635
 40
-0.0555803753133635
 40
-0.0370149788516684
 40
-0.0370149788516684
 40
-0.0184909991678205
 40
-0.0184909991678205
 40
0.0
 40
0.0
 40
0.0
 40
0.0
 10
107.084100326218
 20
35.49959359995971
 30
0.0
 10
107.084100326218
 20
35.49959359995971
 30
0.0
 10
107.0696228461176
 20
35.49959359995971
 30
0.0
 10
107.0222962635375
 20
35.49959359995971
 30
0.0
 10
106.9811156332968
 20
35.49959359995971
 30
0.0
 10
106.8937886314208
 20
35.49959359995971
 30
0.0
 10
106.832230171469
 20
35.49959359995971
 30
0.0
 10
106.7182727361384
 20
35.49959359995971
 30
0.0
 10
106.6457369901108
 20
35.49959359995971
 30
0.0
 10
106.5841003262182
 20
35.49959359995971
 30
0.0
  0
LINE
  5
D42
330
67
100
AcDbEntity
  8
AM_0
100
AcDbLine
 10
107.0841003262164
 20
37.99959359995971
 30
0.0
 11
107.0841003262164
 21
36.99959359995971
 31
0.0
  0
LINE
  5
D43
330
67
100
AcDbEntity
  8
AM_0
100
AcDbLine
 10
107.0841003262164
 20
36.49959359995971
 30
0.0
 11
107.0841003262164
 21
35.49959359995971
 31
0.0
  0
LINE
  5
D44
330
67
100
AcDbEntity
  8
AM_0
100
AcDbLine
 10
107.0841003262136
 20
51.24959359995971
 30
0.0
 11
107.084100326218
 21
37.99959359995971
 31
0.0
  0
LINE
  5
D45
330
67
100
AcDbEntity
  8
AM_0
100
AcDbLine
 10
107.084100326218
 20
35.49959359995971
 30
0.0
 11
107.0841003262136
 21
22.24959359995971
 31
0.0
  0
LINE
  5
D46
330
67
100
AcDbEntity
  8
AM_0
100
AcDbLine
 10
110.0841003262148
 20
36.49959359995971
 30
0.0
 11
110.0841003262136
 21
33.24959359995971
 31
0.0
  0
LINE
  5
D47
330
67
100
AcDbEntity
  8
AM_0
100
AcDbLine
 10
110.0841003262136
 20
40.2495935999597
 30
0.0
 11
110.0841003262148
 21
36.99959359995971
 31
0.0
  0
LINE
  5
D48
330
67
100
AcDbEntity
  8
AM_0
100
AcDbLine
 10
105.5841003262137
 20
53.94959359996043
 30
0.0
 11
105.5841003262137
 21
19.5495935999608
 31
0.0
  0
ARC
  5
D49
330
67
100
AcDbEntity
  8
AM_0
100
AcDbCircle
 10
106.5841003262137
 20
51.24959359995971
 30
0.0
 40
0.5
100
AcDbArc
 50
0.0
 51
90.0
  0
ARC
  5
D4A
330
67
100
AcDbEntity
  8
AM_0
100
AcDbCircle
 10
106.5841003262137
 20
22.24959359995971
 30
0.0
 40
0.5
100
AcDbArc
 50
270.0
 51
0.0
  0
ARC
  5
D4B
330
67
100
AcDbEntity
  8
AM_0
100
AcDbCircle
 10
107.5841003262137
 20
41.24959359995971
 30
0.0
 40
0.5
100
AcDbArc
 50
180.0
 51
270.0
  0
ARC
  5
D4C
330
67
100
AcDbEntity
  8
AM_0
100
AcDbCircle
 10
107.5841003262137
 20
32.24959359995971
 30
0.0
 40
0.5
100
AcDbArc
 50
90.0
 51
180.0
  0
ARC
  5
D4D
330
67
100
AcDbEntity
  8
AM_0
100
AcDbCircle
 10
109.5841003262137
 20
40.2495935999597
 30
0.0
 40
0.5
100
AcDbArc
 50
0.0
 51
90.0
  0
ARC
  5
D4E
330
67
100
AcDbEntity
  8
AM_0
100
AcDbCircle
 10
109.5841003262137
 20
33.24959359995971
 30
0.0
 40
0.5
100
AcDbArc
 50
270.0
 51
0.0
  0
ARC
  5
D4F
330
67
100
AcDbEntity
  8
AM_0
100
AcDbCircle
 10
105.0841003262136
 20
53.94959359996043
 30
0.0
 40
0.5
100
AcDbArc
 50
0.0
 51
90.0
  0
ARC
  5
D50
330
67
100
AcDbEntity
  8
AM_0
100
AcDbCircle
 10
105.0841003262136
 20
19.5495935999608
 30
0.0
 40
0.5
100
AcDbArc
 50
270.0
 51
0.0
  0
LINE
  5
D51
330
67
100
AcDbEntity
  8
AM_0
100
AcDbLine
 10
78.28410032621372
 20
35.94959359996044
 30
0.0
 11
78.28410032621372
 21
37.5495935999608
 31
0.0
  0
ARC
  5
D52
330
67
100
AcDbEntity
  8
AM_0
100
AcDbCircle
 10
78.48410032621377
 20
35.94959359996044
 30
0.0
 40
0.2
100
AcDbArc
 50
180.0
 51
270.0
  0
ARC
  5
D53
330
67
100
AcDbEntity
  8
AM_0
100
AcDbCircle
 10
78.48410032621377
 20
37.5495935999608
 30
0.0
 40
0.2
100
AcDbArc
 50
90.0
 51
180.0
  0
LINE
  5
D54
330
67
100
AcDbEntity
  8
AM_0
100
AcDbLine
 10
81.98410032621376
 20
31.74959359995972
 30
0.0
 11
81.98410032621376
 21
41.74959359995971
 31
0.0
  0
LINE
  5
D55
330
67
100
AcDbEntity
  8
AM_0
100
AcDbLine
 10
84.78410032621372
 20
31.74959359995972
 30
0.0
 11
81.98410032621376
 21
31.74959359995972
 31
0.0
  0
LINE
  5
D56
330
67
100
AcDbEntity
  8
AM_0
100
AcDbLine
 10
84.78410032621372
 20
41.74959359995971
 30
0.0
 11
81.98410032621376
 21
41.74959359995971
 31
0.0
  0
LINE
  5
D57
330
67
100
AcDbEntity
  8
AM_0
100
AcDbLine
 10
88.78410032621372
 20
19.5495935999608
 30
0.0
 11
88.78410032621372
 21
53.94959359996043
 31
0.0
  0
ARC
  5
D58
330
67
100
AcDbEntity
  8
AM_0
100
AcDbCircle
 10
89.2841003262137
 20
53.94959359996043
 30
0.0
 40
0.5
100
AcDbArc
 50
90.0
 51
180.0
  0
ARC
  5
D59
330
67
100
AcDbEntity
  8
AM_0
100
AcDbCircle
 10
89.2841003262137
 20
19.5495935999608
 30
0.0
 40
0.5
100
AcDbArc
 50
180.0
 51
270.0
  0
LINE
  5
D5A
330
67
100
AcDbEntity
  8
AM_0
100
AcDbLine
 10
84.78410032621372
 20
21.24959359995971
 30
0.0
 11
84.78410032621372
 21
52.2495935999597
 31
0.0
  0
ARC
  5
D5B
330
67
100
AcDbEntity
  8
AM_0
100
AcDbCircle
 10
85.78410032621372
 20
52.2495935999597
 30
0.0
 40
1.0
100
AcDbArc
 50
90.0
 51
180.0
  0
ARC
  5
D5C
330
67
100
AcDbEntity
  8
AM_0
100
AcDbCircle
 10
85.78410032621372
 20
21.24959359995971
 30
0.0
 40
1.0
100
AcDbArc
 50
180.0
 51
270.0
  0
LINE
  5
D5D
330
67
100
AcDbEntity
  8
AM_0
100
AcDbLine
 10
89.2841003262137
 20
54.44959359996044
 30
0.0
 11
103.3841003262136
 21
54.44959359996044
 31
0.0
  0
LINE
  5
D5E
330
67
100
AcDbEntity
  8
AM_0
100
AcDbLine
 10
89.2841003262137
 20
19.0495935999608
 30
0.0
 11
103.3841003262136
 21
19.0495935999608
 31
0.0
  0
LINE
  5
D5F
330
67
100
AcDbEntity
  8
AM_0
100
AcDbLine
 10
103.5841003262137
 20
54.44959359996044
 30
0.0
 11
105.0841003262136
 21
54.44959359996044
 31
0.0
  0
LINE
  5
D60
330
67
100
AcDbEntity
  8
AM_0
100
AcDbLine
 10
103.5841003262137
 20
19.0495935999608
 30
0.0
 11
105.0841003262136
 21
19.0495935999608
 31
0.0
  0
LINE
  5
D61
330
67
100
AcDbEntity
  8
AM_0
100
AcDbLine
 10
81.98410032621376
 20
35.74959359995971
 30
0.0
 11
78.48410032621377
 21
35.74959359995971
 31
0.0
  0
LINE
  5
D62
330
67
100
AcDbEntity
  8
AM_0
100
AcDbLine
 10
81.98410032621376
 20
37.74959359995971
 30
0.0
 11
78.48410032621377
 21
37.74959359995971
 31
0.0
  0
LINE
  5
D63
330
67
100
AcDbEntity
  8
AM_0
100
AcDbLine
 10
107.5841003262137
 20
40.74959359995971
 30
0.0
 11
109.5841003262137
 21
40.74959359995971
 31
0.0
  0
LINE
  5
D64
330
67
100
AcDbEntity
  8
AM_0
100
AcDbLine
 10
107.5841003262137
 20
32.74959359995971
 30
0.0
 11
109.5841003262137
 21
32.74959359995971
 31
0.0
  0
LINE
  5
D65
330
67
100
AcDbEntity
  8
AM_0
100
AcDbLine
 10
105.5841003262137
 20
51.74959359995971
 30
0.0
 11
106.5841003262137
 21
51.74959359995971
 31
0.0
  0
LINE
  5
D66
330
67
100
AcDbEntity
  8
AM_0
100
AcDbLine
 10
105.5841003262137
 20
21.74959359995972
 30
0.0
 11
106.5841003262137
 21
21.74959359995972
 31
0.0
  0
ARC
  5
D67
330
67
100
AcDbEntity
  8
AM_0
100
AcDbCircle
 10
88.28410032621372
 20
53.74959359995971
 30
0.0
 40
0.5
100
AcDbArc
 50
270.0
 51
0.0
  0
ARC
  5
D68
330
67
100
AcDbEntity
  8
AM_0
100
AcDbCircle
 10
88.28410032621372
 20
19.74959359995971
 30
0.0
 40
0.5
100
AcDbArc
 50
0.0
 51
90.0
  0
LINE
  5
D69
330
67
100
AcDbEntity
  8
AM_0
100
AcDbLine
 10
85.78410032621372
 20
53.24959359995971
 30
0.0
 11
88.28410032621372
 21
53.24959359995971
 31
0.0
  0
LINE
  5
D6A
330
67
100
AcDbEntity
  8
AM_0
100
AcDbLine
 10
85.78410032621372
 20
20.24959359995971
 30
0.0
 11
88.28410032621372
 21
20.24959359995971
 31
0.0
  0
LINE
  5
D6B
330
67
100
AcDbEntity
  8
AM_0
100
AcDbLine
 10
145.5018906291
 20
43.72130859162114
 30
0.0
 11
145.5018906291
 21
41.6245935999597
 31
0.0
  0
LINE
  5
D6C
330
67
100
AcDbEntity
  8
AM_0
100
AcDbLine
 10
145.5018906291
 20
41.6245935999597
 30
0.0
 11
143.4051756374395
 21
41.6245935999597
 31
0.0
  0
LINE
  5
D6D
330
67
100
AcDbEntity
  8
AM_0
100
AcDbLine
 10
148.3486056207605
 20
41.6245935999597
 30
0.0
 11
146.2518906291
 21
41.6245935999597
 31
0.0
  0
LINE
  5
D6E
330
67
100
AcDbEntity
  8
AM_0
100
AcDbLine
 10
146.2518906291
 20
41.6245935999597
 30
0.0
 11
146.2518906291
 21
43.72130859162114
 31
0.0
  0
LINE
  5
D6F
330
67
100
AcDbEntity
  8
AM_0
100
AcDbLine
 10
146.2518906291
 20
38.7778786083001
 30
0.0
 11
146.2518906291
 21
40.8745935999597
 31
0.0
  0
LINE
  5
D70
330
67
100
AcDbEntity
  8
AM_0
100
AcDbLine
 10
146.2518906291
 20
40.8745935999597
 30
0.0
 11
148.3486056207605
 21
40.8745935999597
 31
0.0
  0
LINE
  5
D71
330
67
100
AcDbEntity
  8
AM_0
100
AcDbLine
 10
143.4051756374395
 20
40.8745935999597
 30
0.0
 11
145.5018906291
 21
40.8745935999597
 31
0.0
  0
LINE
  5
D72
330
67
100
AcDbEntity
  8
AM_0
100
AcDbLine
 10
145.5018906291
 20
40.8745935999597
 30
0.0
 11
145.5018906291
 21
38.7778786083001
 31
0.0
  0
CIRCLE
  5
D73
330
67
100
AcDbEntity
  8
AM_0
100
AcDbCircle
 10
145.8768906291
 20
41.24959359995971
 30
0.0
 40
2.5
  0
CIRCLE
  5
D74
330
67
100
AcDbEntity
  8
AM_0
100
AcDbCircle
 10
161.8768906291
 20
26.35728875454713
 30
0.0
 40
1.25
  0
CIRCLE
  5
D75
330
67
100
AcDbEntity
  8
AM_0
100
AcDbCircle
 10
149.8768906291
 20
47.14189844537409
 30
0.0
 40
1.25
  0
LINE
  5
D76
330
67
100
AcDbEntity
  8
AM_0
100
AcDbLine
 10
144.6268906291016
 20
36.99959359995971
 30
0.0
 11
142.1268906291016
 21
36.99959359995971
 31
0.0
  0
LINE
  5
D77
330
67
100
AcDbEntity
  8
AM_0
100
AcDbLine
 10
142.1268906291016
 20
36.49959359995971
 30
0.0
 11
144.6268906291016
 21
36.49959359995971
 31
0.0
  0
LINE
  5
D78
330
67
100
AcDbEntity
  8
AM_0
100
AcDbLine
 10
144.6268906291016
 20
36.99959359995971
 30
0.0
 11
144.6268906291016
 21
36.49959359995971
 31
0.0
  0
LINE
  5
D79
330
67
100
AcDbEntity
  8
AM_0
100
AcDbLine
 10
142.1268906291016
 20
36.49959359995971
 30
0.0
 11
142.1268906291016
 21
36.99959359995971
 31
0.0
  0
LINE
  5
D7A
330
67
100
AcDbEntity
  8
AM_0
100
AcDbLine
 10
167.1268906291016
 20
36.99959359995971
 30
0.0
 11
169.6268906291016
 21
36.99959359995971
 31
0.0
  0
LINE
  5
D7B
330
67
100
AcDbEntity
  8
AM_0
100
AcDbLine
 10
169.6268906291016
 20
36.49959359995971
 30
0.0
 11
167.1268906291016
 21
36.49959359995971
 31
0.0
  0
LINE
  5
D7C
330
67
100
AcDbEntity
  8
AM_0
100
AcDbLine
 10
169.6268906291016
 20
36.49959359995971
 30
0.0
 11
169.6268906291016
 21
36.99959359995971
 31
0.0
  0
LINE
  5
D7D
330
67
100
AcDbEntity
  8
AM_0
100
AcDbLine
 10
167.1268906291016
 20
36.99959359995971
 30
0.0
 11
167.1268906291016
 21
36.49959359995971
 31
0.0
  0
ARC
  5
D7E
330
67
100
AcDbEntity
  8
AM_0
100
AcDbCircle
 10
155.8768906290996
 20
36.74959359995971
 30
0.0
 40
15.00000000000007
100
AcDbArc
 50
355.2198081527661
 51
4.780191847233961
  0
SPLINE
  5
D7F
330
67
100
AcDbEntity
  8
AM_0
100
AcDbSpline
210
0.0
220
0.0
230
1.0
 70
    24
 71
     3
 72
    14
 73
    10
 74
     0
 42
0.0000000001
 43
0.0000000001
 40
0.0
 40
0.0
 40
0.0
 40
0.0
 40
0.0184909991678205
 40
0.0184909991678205
 40
0.0370149788516684
 40
0.0370149788516684
 40
0.0555803753133635
 40
0.0555803753133635
 40
0.0741825811415732
 40
0.0741825811415732
 40
0.0741825811415732
 40
0.0741825811415732
 10
170.8247165579765
 20
35.49959359995971
 30
0.0
 10
170.8247165579765
 20
35.49959359995971
 30
0.0
 10
170.8102514844618
 20
35.49959359995971
 30
0.0
 10
170.7629531495893
 20
35.49959359995971
 30
0.0
 10
170.7217128636834
 20
35.49959359995971
 30
0.0
 10
170.6341989695635
 20
35.49959359995971
 30
0.0
 10
170.572401406299
 20
35.49959359995971
 30
0.0
 10
170.4579050127461
 20
35.49959359995971
 30
0.0
 10
170.3849181950543
 20
35.49959359995971
 30
0.0
 10
170.3229108422936
 20
35.49959359995971
 30
0.0
  0
LINE
  5
D80
330
67
100
AcDbEntity
  8
AM_0
100
AcDbLine
 10
170.3229108422936
 20
35.49959359995971
 30
0.0
 11
164.6268906291
 21
35.49959359995971
 31
0.0
  0
SPLINE
  5
D81
330
67
100
AcDbEntity
  8
AM_0
100
AcDbSpline
210
0.0
220
0.0
230
1.0
 70
    24
 71
     3
 72
    14
 73
    10
 74
     0
 42
0.0000000001
 43
0.0000000001
 40
-0.0741825811415732
 40
-0.0741825811415732
 40
-0.0741825811415732
 40
-0.0741825811415732
 40
-0.0555803753133635
 40
-0.0555803753133635
 40
-0.0370149788516684
 40
-0.0370149788516684
 40
-0.0184909991678205
 40
-0.0184909991678205
 40
0.0
 40
0.0
 40
0.0
 40
0.0
 10
170.3229108422936
 20
37.99959359995971
 30
0.0
 10
170.3849181950543
 20
37.99959359995971
 30
0.0
 10
170.4579050127461
 20
37.99959359995971
 30
0.0
 10
170.572401406299
 20
37.99959359995971
 30
0.0
 10
170.6341989695635
 20
37.99959359995971
 30
0.0
 10
170.7217128636834
 20
37.99959359995971
 30
0.0
 10
170.7629531495893
 20
37.99959359995971
 30
0.0
 10
170.8102514844618
 20
37.99959359995971
 30
0.0
 10
170.8247165579765
 20
37.99959359995971
 30
0.0
 10
170.8247165579765
 20
37.99959359995971
 30
0.0
  0
LINE
  5
D82
330
67
100
AcDbEntity
  8
AM_0
100
AcDbLine
 10
164.6268906291
 20
37.99959359995971
 30
0.0
 11
170.3229108422936
 21
37.99959359995971
 31
0.0
  0
LINE
  5
D83
330
67
100
AcDbEntity
  8
AM_0
100
AcDbLine
 10
164.6268906291
 20
35.49959359995971
 30
0.0
 11
164.6268906291
 21
37.99959359995971
 31
0.0
  0
ARC
  5
D84
330
67
100
AcDbEntity
  8
AM_0
100
AcDbCircle
 10
155.8768906290998
 20
36.74959359995971
 30
0.0
 40
15.00000000000006
100
AcDbArc
 50
175.219808152766
 51
184.780191847234
  0
SPLINE
  5
D85
330
67
100
AcDbEntity
  8
AM_0
100
AcDbSpline
210
0.0
220
0.0
230
1.0
 70
    24
 71
     3
 72
    14
 73
    10
 74
     0
 42
0.0000000001
 43
0.0000000001
 40
0.0
 40
0.0
 40
0.0
 40
0.0
 40
0.0184909991678205
 40
0.0184909991678205
 40
0.0370149788516684
 40
0.0370149788516684
 40
0.0555803753133635
 40
0.0555803753133635
 40
0.0741825811415732
 40
0.0741825811415732
 40
0.0741825811415732
 40
0.0741825811415732
 10
140.9290647002229
 20
37.99959359995971
 30
0.0
 10
140.9290647002231
 20
37.99959359995971
 30
0.0
 10
140.943529773738
 20
37.99959359995971
 30
0.0
 10
140.9908281086105
 20
37.99959359995971
 30
0.0
 10
141.0320683945163
 20
37.99959359995971
 30
0.0
 10
141.1195822886364
 20
37.99959359995971
 30
0.0
 10
141.1813798519011
 20
37.99959359995971
 30
0.0
 10
141.2958762454541
 20
37.99959359995971
 30
0.0
 10
141.3688630631457
 20
37.99959359995971
 30
0.0
 10
141.4308704159064
 20
37.99959359995971
 30
0.0
  0
LINE
  5
D86
330
67
100
AcDbEntity
  8
AM_0
100
AcDbLine
 10
141.4308704159064
 20
37.99959359995971
 30
0.0
 11
147.1268906291
 21
37.99959359995971
 31
0.0
  0
SPLINE
  5
D87
330
67
100
AcDbEntity
  8
AM_0
100
AcDbSpline
210
0.0
220
0.0
230
1.0
 70
    24
 71
     3
 72
    14
 73
    10
 74
     0
 42
0.0000000001
 43
0.0000000001
 40
-0.0741825811415732
 40
-0.0741825811415732
 40
-0.0741825811415732
 40
-0.0741825811415732
 40
-0.0555803753133635
 40
-0.0555803753133635
 40
-0.0370149788516684
 40
-0.0370149788516684
 40
-0.0184909991678205
 40
-0.0184909991678205
 40
0.0
 40
0.0
 40
0.0
 40
0.0
 10
141.4308704159064
 20
35.49959359995971
 30
0.0
 10
141.3688630631457
 20
35.49959359995971
 30
0.0
 10
141.2958762454541
 20
35.49959359995971
 30
0.0
 10
141.1813798519011
 20
35.49959359995971
 30
0.0
 10
141.1195822886364
 20
35.49959359995971
 30
0.0
 10
141.0320683945163
 20
35.49959359995971
 30
0.0
 10
140.9908281086105
 20
35.49959359995971
 30
0.0
 10
140.943529773738
 20
35.49959359995971
 30
0.0
 10
140.9290647002231
 20
35.49959359995971
 30
0.0
 10
140.9290647002229
 20
35.49959359995971
 30
0.0
  0
LINE
  5
D88
330
67
100
AcDbEntity
  8
AM_0
100
AcDbLine
 10
147.1268906291
 20
35.49959359995971
 30
0.0
 11
141.4308704159064
 21
35.49959359995971
 31
0.0
  0
LINE
  5
D89
330
67
100
AcDbEntity
  8
AM_0
100
AcDbLine
 10
147.1268906291
 20
37.99959359995971
 30
0.0
 11
147.1268906291
 21
35.49959359995971
 31
0.0
  0
ARC
  5
D8A
330
67
100
AcDbEntity
  8
AM_0
100
AcDbCircle
 10
155.8768906290998
 20
36.74959359995971
 30
0.0
 40
15.0
100
AcDbArc
 50
4.780191847233961
 51
175.219808152766
  0
ARC
  5
D8B
330
67
100
AcDbEntity
  8
AM_0
100
AcDbCircle
 10
155.8768906290998
 20
36.74959359995971
 30
0.0
 40
15.0
100
AcDbArc
 50
184.780191847234
 51
355.2198081527661
  0
CIRCLE
  5
D8C
330
67
100
AcDbEntity
  8
AM_0
100
AcDbCircle
 10
155.8768906291016
 20
36.74959359995971
 30
0.0
 40
4.0
  0
CIRCLE
  5
D8D
330
67
100
AcDbEntity
  8
AM_0
100
AcDbCircle
 10
155.8768906290989
 20
36.74959359995971
 30
0.0
 40
17.7
  0
LINE
  5
D8F
330
67
100
AcDbEntity
  8
AM_7
100
AcDbLine
 10
32.4173261533073
 20
36.74959359996901
 30
0.0
 11
53.59693049664993
 21
36.74959359996901
 31
0.0
1001
GENIUS_GENOREF_13
1005
D97
  0
LINE
  5
D90
330
67
100
AcDbEntity
  8
AM_7
100
AcDbLine
 10
32.4173261533073
 20
36.74959359996901
 30
0.0
 11
32.4173261533073
 21
59.74819637362287
 31
0.0
1001
GENIUS_GENOREF_13
1005
D97
  0
LINE
  5
D91
330
67
100
AcDbEntity
  8
AM_7
100
AcDbLine
 10
32.4173261533073
 20
36.74959359996901
 30
0.0
 11
11.99174355575454
 21
36.74959359996901
 31
0.0
1001
GENIUS_GENOREF_13
1005
D97
  0
LINE
  5
D92
330
67
100
AcDbEntity
  8
AM_7
100
AcDbLine
 10
32.4173261533073
 20
36.74959359996901
 30
0.0
 11
32.41732615330727
 21
15.406358955524
 31
0.0
1001
GENIUS_GENOREF_13
1005
D97
  0
LINE
  5
D93
330
67
100
AcDbEntity
  8
AM_7
100
AcDbLine
 10
76.2460050818849
 20
36.74959359996901
 30
0.0
 11
113.3610068027109
 21
36.74959359996901
 31
0.0
1001
GENIUS_GENODEF_13
1002
{
1000
HIER
1070
     0
1002
}
1002
{
1000
MANEDIT
1070
     0
1002
}
1002
{
1000
NOSEL
1070
     0
1002
}
1002
{
1000
BEHIND
1070
     0
1002
}
1002
{
1000
OTHER
1070
     0
1002
}
1002
{
1000
REACTOR
1002
}
1001
GENIUS_GENOBJ-N-CEN_13
1002
{
1000
OWNER
1000
GEN
1002
}
1001
GENIUS_GENCEN_19
1002
{
1040
3.0
1002
}
  0
POINT
  5
D97
330
67
100
AcDbEntity
  8
0
 60
     1
100
AcDbPoint
 10
201.721165943703
 20
-7.707222954590712
 30
0.0
1001
GENIUS_GENOBJ-N-CRS_13
1002
{
1000
OWNER
1000
GEN
1002
}
1001
GENIUS_GENOENT_13
1002
{
1000
MYREF
1005
D97
1002
}
1002
{
1000
GRP
1005
0
1002
}
1001
GENIUS_GENODEF_13
1002
{
1000
HIER
1070
    10
1002
}
1002
{
1000
MANEDIT
1070
     0
1002
}
1002
{
1000
NOSEL
1070
     0
1002
}
1002
{
1000
BEHIND
1070
     0
1002
}
1002
{
1000
OTHER
1070
     0
1002
}
1002
{
1000
REACTOR
1002
}
1001
GENIUS_GENOLIS_13
1002
{
1000
ENT
1005
D92
1005
D91
1005
D90
1005
D8F
1002
}
  0
LINE
  5
D9A
330
67
100
AcDbEntity
  8
AM_7
100
AcDbLine
 10
155.8768906291016
 20
36.74959359995971
 30
0.0
 11
177.5970845461764
 21
36.74959359995971
 31
0.0
1001
GENIUS_GENOREF_13
1005
D9E
  0
LINE
  5
D9B
330
67
100
AcDbEntity
  8
AM_7
100
AcDbLine
 10
155.8768906291016
 20
36.74959359995971
 30
0.0
 11
133.675710845289
 21
36.74959359995971
 31
0.0
1001
GENIUS_GENOREF_13
1005
D9E
  0
LINE
  5
D9C
330
67
100
AcDbEntity
  8
AM_7
100
AcDbLine
 10
155.8768906291016
 20
36.74959359995971
 30
0.0
 11
155.8768906291016
 21
14.09730188096646
 31
0.0
1001
GENIUS_GENOREF_13
1005
D9E
  0
LINE
  5
D9D
330
67
100
AcDbEntity
  8
AM_7
100
AcDbLine
 10
155.8768906291016
 20
36.74959359995971
 30
0.0
 11
155.8768906291016
 21
58.82780445897582
 31
0.0
  0
POINT
  5
D9E
330
67
100
AcDbEntity
  8
0
 60
     1
100
AcDbPoint
 10
201.7211659437028
 20
-7.707222954600012
 30
0.0
1001
GENIUS_GENOLIS_13
1002
{
1000
ENT
1005
D9C
1005
D9B
1005
0
1005
D9A
1002
}
1001
GENIUS_GENOENT_13
1002
{
1000
MYREF
1005
D9E
1002
}
1002
{
1000
GRP
1005
0
1002
}
1001
GENIUS_GENOBJ-N-CRS_13
1002
{
1000
OWNER
1000
GEN
1002
}
1001
GENIUS_GENODEF_13
1002
{
1000
HIER
1070
    10
1002
}
1002
{
1000
MANEDIT
1070
     1
1002
}
1002
{
1000
NOSEL
1070
     0
1002
}
1002
{
1000
BEHIND
1070
     0
1002
}
1002
{
1000
OTHER
1070
     0
1002
}
1002
{
1000
REACTOR
1002
}
  0
DIMENSION
  5
D9F
330
67
100
AcDbEntity
  8
AM_5
100
AcDbDimension
  2
*D16
 10
72.71100676002283
 20
37.7495935999608
 30
0.0
 11
70.12457291180253
 21
46.15778701836242
 31
0.0
 70
    32
  1
%%c<>
 71
     5
 42
2.000000000001094
  3
AM_JIS$0
100
AcDbAlignedDimension
 13
78.48410032621377
 23
35.74959359995971
 33
0.0
 14
78.48410032621377
 24
37.7495935999608
 34
0.0
 50
90.0
100
AcDbRotatedDimension
1001
ACAD_DSTYLE_DIMINSPECT
1070
   396
1000
100%
1070
   395
1000

1070
   394
1070
    33
1070
   393
1070
     0
1001
ACAD
1000
DSTYLE
1002
{
1070
   144
1040
1.0
1070
    40
1040
1.0
1002
}
  0
DIMENSION
  5
DA0
330
67
100
AcDbEntity
  8
AM_5
100
AcDbDimension
  2
*D17
 10
66.60509957010567
 20
41.749593599969
 30
0.0
 11
63.98340715909155
 21
36.74959359996903
 31
0.0
 70
    32
  1
%%c<>
 71
     5
 42
10.0
  3
AM_JIS$0
100
AcDbAlignedDimension
 13
82.18410032621369
 23
31.74959359996901
 33
0.0
 14
82.18410032621369
 24
41.749593599969
 34
0.0
 50
90.0
100
AcDbRotatedDimension
1001
ACAD_DSTYLE_DIMINSPECT
1070
   396
1000
100%
1070
   395
1000

1070
   394
1070
    33
1070
   393
1070
     0
1001
ACAD
1000
DSTYLE
1002
{
1070
   144
1040
1.0
1070
    40
1040
1.0
1002
}
  0
DIMENSION
  5
DA1
330
67
100
AcDbEntity
  8
AM_5
100
AcDbDimension
  2
*D18
 10
81.98410032621376
 20
55.02422442600568
 30
0.0
 11
73.04256238128428
 21
57.65414383500502
 31
0.0
 70
    32
 71
     5
 42
2.800000000000068
  3
AM_JIS$0
100
AcDbAlignedDimension
 13
84.78410032621383
 23
50.54959359996828
 33
0.0
 14
81.98410032621376
 24
41.04959359996828
 34
0.0
100
AcDbRotatedDimension
1001
ACAD_DSTYLE_DIMINSPECT
1070
   396
1000
100%
1070
   395
1000

1070
   394
1070
    33
1070
   393
1070
     0
1001
ACAD
1000
DSTYLE
1002
{
1070
   144
1040
1.0
1070
    40
1040
1.0
1002
}
  0
DIMENSION
  5
DA2
330
67
100
AcDbEntity
  8
AM_5
100
AcDbDimension
  2
*D19
 10
78.28410032621372
 20
66.66045711814485
 30
0.0
 11
69.35313995012238
 21
69.27979895830603
 31
0.0
 70
    32
 71
     5
 42
6.500000000000113
  3
AM_JIS$0
100
AcDbAlignedDimension
 13
84.78410032621383
 23
41.749593599969
 33
0.0
 14
78.28410032621372
 24
37.54959359996828
 34
0.0
100
AcDbRotatedDimension
1001
ACAD_DSTYLE_DIMINSPECT
1070
   396
1000
100%
1070
   395
1000

1070
   394
1070
    33
1070
   393
1070
     0
1001
ACAD
1000
DSTYLE
1002
{
1070
   144
1040
1.0
1070
    40
1040
1.0
1002
}
  0
DIMENSION
  5
DA3
330
67
100
AcDbEntity
  8
AM_5
100
AcDbDimension
  2
*D20
 10
107.0841003262136
 20
66.66045711814485
 30
0.0
 11
95.9341003262137
 21
69.28332481458541
 31
0.0
 70
    32
 71
     5
 42
22.29999999999976
  3
AM_JIS$0
100
AcDbAlignedDimension
 13
84.78410032621383
 23
51.249593599969
 33
0.0
 14
107.0841003262136
 24
51.24959359995971
 34
0.0
100
AcDbRotatedDimension
1001
ACAD_DSTYLE_DIMINSPECT
1070
   396
1000
100%
1070
   395
1000

1070
   394
1070
    33
1070
   393
1070
     0
1001
ACAD
1000
DSTYLE
1002
{
1070
   144
1040
1.0
1070
    40
1040
1.0
1002
}
  0
DIMENSION
  5
DA4
330
67
100
AcDbEntity
  8
AM_5
100
AcDbDimension
  2
*D21
 10
110.0841003262136
 20
66.66045711814485
 30
0.0
 11
116.9477336371605
 21
69.28332481458541
 31
0.0
 70
    32
 71
     5
 42
3.0
  3
AM_JIS$0
100
AcDbAlignedDimension
 13
107.0841003262136
 23
51.24959359995971
 33
0.0
 14
110.0841003262136
 24
40.24959359995988
 34
0.0
100
AcDbRotatedDimension
1001
ACAD_DSTYLE_DIMINSPECT
1070
   396
1000
100%
1070
   395
1000

1070
   394
1070
    33
1070
   393
1070
     0
1001
ACAD
1000
DSTYLE
1002
{
1070
   144
1040
1.0
1070
    40
1040
1.0
1002
}
  0
DIMENSION
  5
DA5
330
67
100
AcDbEntity
  8
AM_5
100
AcDbDimension
  2
*D22
 10
119.7841003262137
 20
40.7495935999597
 30
0.0
 11
117.1541809172143
 21
36.74959359995972
 31
0.0
 70
    32
  1
%%c<>
 71
     5
 42
8.0
  3
AM_JIS$0
100
AcDbAlignedDimension
 13
109.7841003262138
 23
32.74959359995971
 33
0.0
 14
109.7841003262138
 24
40.74959359995971
 34
0.0
 50
90.0
100
AcDbRotatedDimension
1001
ACAD_DSTYLE_DIMINSPECT
1070
   396
1000
100%
1070
   395
1000

1070
   394
1070
    33
1070
   393
1070
     0
1001
ACAD
1000
DSTYLE
1002
{
1070
   144
1040
1.0
1070
    40
1040
1.0
1002
}
  0
DIMENSION
  5
DA6
330
67
100
AcDbEntity
  8
AM_5
100
AcDbDimension
  2
*D23
 10
127.7841003262137
 20
19.07459359996791
 30
0.0
 11
125.1612326297731
 21
36.74959359996812
 31
0.0
 70
    32
  1
%%c<>
 71
     5
 42
35.35000000000037
  3
AM_JIS$0
100
AcDbAlignedDimension
 13
104.5841003262138
 23
54.42459359996828
 33
0.0
 14
104.5841003262138
 24
19.07459359996792
 34
0.0
 50
90.0
100
AcDbRotatedDimension
1001
ACAD_DSTYLE_DIMINSPECT
1070
   396
1000
100%
1070
   395
1000

1070
   394
1070
    33
1070
   393
1070
     0
1001
ACAD
1000
DSTYLE
1002
{
1070
   271
1070
     1
1002
}
  0
DIMENSION
  5
DA7
330
67
100
AcDbEntity
  8
AM_5
100
AcDbDimension
  2
*D24
 10
107.0841003262169
 20
11.04959259996919
 30
0.0
 11
98.38114532285894
 21
14.16255431924387
 31
0.0
 70
    32
  1
(<>)
 71
     5
 42
4.000000000000397
  3
AM_JIS$0
100
AcDbAlignedDimension
 13
111.0841003262173
 23
36.49959359995971
 33
0.0
 14
107.0841003262169
 24
32.24959359995987
 34
0.0
100
AcDbRotatedDimension
1001
ACAD
1000
DSTYLE
1002
{
1070
   144
1040
1.0
1070
    40
1040
1.0
1002
}
1001
ACAD_DSTYLE_DIMINSPECT
1070
   396
1000
100%
1070
   395
1000

1070
   394
1070
    33
1070
   393
1070
     0
  0
DIMENSION
  5
EA8
330
67
100
AcDbEntity
  8
AM_5
100
AcDbDimension
  2
*D27
 10
20.41732615330005
 20
8.756957321031947
 30
0.0
 11
32.41732615330005
 21
11.34339116925223
 31
0.0
 70
    32
  1
<>
 71
     5
 42
24.0
  3
AM_JIS$0
100
AcDbAlignedDimension
 13
44.41732615330004
 23
33.74959359995971
 33
0.0
 14
20.41732615330005
 24
33.74959359995971
 34
0.0
100
AcDbRotatedDimension
1001
ACAD
1000
DSTYLE
1002
{
1070
   144
1040
1.0
1070
    40
1040
1.0
1002
}
1001
ACAD_DSTYLE_DIMINSPECT
1070
   396
1000
100%
1070
   395
1000

1070
   394
1070
    33
1070
   393
1070
     0
  0
LINE
  5
EC2
330
67
100
AcDbEntity
  8
AM_7
100
AcDbLine
 10
20.41732615330005
 20
33.74959359995971
 30
0.0
 11
20.41732615330005
 21
39.51417773968096
 31
0.0
1001
GENIUS_GENODEF_13
1002
{
1000
HIER
1070
     0
1002
}
1002
{
1000
MANEDIT
1070
     0
1002
}
1002
{
1000
NOSEL
1070
     0
1002
}
1002
{
1000
BEHIND
1070
     0
1002
}
1002
{
1000
OTHER
1070
     0
1002
}
1002
{
1000
REACTOR
1002
}
1001
GENIUS_GENOBJ-N-CEN_13
1002
{
1000
OWNER
1000
GEN
1002
}
1001
GENIUS_GENCEN_19
1002
{
1040
3.0
1002
}
  0
LINE
  5
EC3
330
67
100
AcDbEntity
  8
AM_7
100
AcDbLine
 10
44.41732615330004
 20
33.74959359995971
 30
0.0
 11
44.41732615330004
 21
39.63643875208564
 31
0.0
1001
GENIUS_GENOBJ-N-CEN_13
1002
{
1000
OWNER
1000
GEN
1002
}
1001
GENIUS_GENODEF_13
1002
{
1000
HIER
1070
     0
1002
}
1002
{
1000
MANEDIT
1070
     0
1002
}
1002
{
1000
NOSEL
1070
     0
1002
}
1002
{
1000
BEHIND
1070
     0
1002
}
1002
{
1000
OTHER
1070
     0
1002
}
1002
{
1000
REACTOR
1002
}
1001
GENIUS_GENCEN_19
1002
{
1040
3.0
1002
}
  0
INSERT
  5
1290
330
67
100
AcDbEntity
  8
AM_5
100
AcDbBlockReference
  2
*S36
 10
0.0
 20
0.0
 30
0.0
  0
TEXT
  5
1291
102
{ACAD_XDICTIONARY
360
1292
102
}
330
67
100
AcDbEntity
  8
AM_6KM
100
AcDbText
 10
161.662060353353
 20
2.992624738797104
 30
0.0
 40
3.0
  1
Unit(mm)
  7
Note Text (JIS)
100
AcDbText
1001
AcadAnnotative
1000
AnnotativeData
1002
{
1070
     1
1070
     0
1002
}
  0
INSERT
  5
1295
330
67
100
AcDbEntity
  8
AM_5
100
AcDbBlockReference
  2
*S37
 10
0.0
 20
0.0
 30
0.0
  0
INSERT
  5
1296
330
67
100
AcDbEntity
  8
AM_5
100
AcDbBlockReference
  2
*S38
 10
0.0
 20
0.0
 30
0.0
  0
LWPOLYLINE
  5
130C
330
67
100
AcDbEntity
  8
0
100
AcDbPolyline
 90
        4
 70
     1
 43
0.0
 10
92.12519020512983
 20
54.44959359996044
 10
100.5430104472974
 20
54.44959359996044
 10
100.5430104472974
 20
42.24713762104554
 10
92.12519020512983
 20
42.24713762104554
1001
GENIUS_GENREC_14
1002
{
1000
PYDIR
1011
92.12519020512983
1021
42.24713762104554
1031
0.0
1002
}
1002
{
1000
PXDIR
1011
100.5430104472974
1021
54.44959359996044
1031
0.0
1002
}
1002
{
1000
PORI
1011
92.12519020512983
1021
54.44959359996044
1031
0.0
1002
}
1002
{
1000
PINS
1011
92.12519020512983
1021
54.44959359996044
1031
0.0
1002
}
1002
{
1000
PINS2
1011
100.5430104472974
1021
42.24713762104554
1031
0.0
1002
}
1002
{
1000
C
1070
     1
1002
}
1001
GENIUS_GENODEF_13
1002
{
1000
HIER
1070
     0
1002
}
1002
{
1000
MANEDIT
1070
     0
1002
}
1002
{
1000
NOSEL
1070
     0
1002
}
1002
{
1000
BEHIND
1070
     0
1002
}
1002
{
1000
OTHER
1070
     0
1002
}
1002
{
1000
REACTOR
1002
}
1001
GENIUS_GENOBJ-N-REC_13
1002
{
1000
OWNER
1000
GEN
1002
}
  0
INSERT
  5
1315
330
67
100
AcDbEntity
  8
AM_5
100
AcDbBlockReference
  2
*S39
 10
0.0
 20
0.0
 30
0.0
  0
ENDSEC
  0
SECTION
  2
OBJECTS
  0
DICTIONARY
  5
C
330
0
100
AcDbDictionary
281
     1
  3
ACAD_2007HEADERVARS_RT
350
13F8
  3
ACAD_COLOR
350
5E
  3
ACAD_GROUP
350
D
  3
ACAD_LAYOUT
350
5D
  3
ACAD_MATERIAL
350
10
  3
ACAD_MLEADERSTYLE
350
61
  3
ACAD_MLINESTYLE
350
5A
  3
ACAD_PLOTSETTINGS
350
5C
  3
ACAD_PLOTSTYLENAME
350
E
  3
ACAD_SCALELIST
350
3D
  3
ACAD_TABLESTYLE
350
5F
  3
ACAD_VISUALSTYLE
350
29
  3
ACDB_RECOMPOSE_DATA
350
13F6
  3
AcDbVariableDictionary
350
4EC
  3
AcmDictionary
350
54A
  3
AMG
350
503
  3
AMGSNAPSETTINGS
350
5B5
  3
DWGPROPS
350
13F7
  0
DICTIONARY
  5
68D
330
2
100
AcDbDictionary
280
     1
281
     1
  3
ACAD_LAYERSTATES
360
68E
  0
DICTIONARY
  5
5B1
330
4F
100
AcDbDictionary
280
     1
281
     1
  3
ADSK_XREC_LAYER_RECONCILED
360
5B2
  0
DICTIONARY
  5
CA
330
C9
100
AcDbDictionary
280
     1
281
     1
  3
ADSK_XREC_LAYER_RECONCILED
360
CB
  0
DICTIONARY
  5
D3
330
D2
100
AcDbDictionary
280
     1
281
     1
  3
ADSK_XREC_LAYER_RECONCILED
360
D4
  0
DICTIONARY
  5
F2
330
F1
100
AcDbDictionary
280
     1
281
     1
  3
ADSK_XREC_LAYER_RECONCILED
360
F3
  0
DICTIONARY
  5
137
330
136
100
AcDbDictionary
280
     1
281
     1
  3
ADSK_XREC_LAYER_RECONCILED
360
138
  0
DICTIONARY
  5
5B3
330
200
100
AcDbDictionary
280
     1
281
     1
  3
ADSK_XREC_LAYER_RECONCILED
360
5B4
  0
DICTIONARY
  5
AAF
330
AAE
100
AcDbDictionary
280
     1
281
     1
  0
DICTIONARY
  5
CC0
330
CBF
100
AcDbDictionary
280
     1
281
     1
  0
DICTIONARY
  5
CC2
330
CC1
100
AcDbDictionary
280
     1
281
     1
  0
DICTIONARY
  5
CC4
330
CC3
100
AcDbDictionary
280
     1
281
     1
  0
DICTIONARY
  5
470
330
67
100
AcDbDictionary
280
     1
281
     1
  3
ACAD_SORTENTS
360
471
  0
DICTIONARY
  5
1429
330
BBE
100
AcDbDictionary
280
     1
281
     1
  3
ACAD_MTEXT_RT
360
142A
  0
DICTIONARY
  5
142B
330
BC8
100
AcDbDictionary
280
     1
281
     1
  3
ACAD_MTEXT_RT
360
142C
  0
DICTIONARY
  5
142D
330
E8B
100
AcDbDictionary
280
     1
281
     1
  3
ACAD_MTEXT_RT
360
142E
  0
DICTIONARY
  5
142F
330
EA2
100
AcDbDictionary
280
     1
281
     1
  3
ACAD_MTEXT_RT
360
1430
  0
DICTIONARY
  5
1431
330
1142
100
AcDbDictionary
280
     1
281
     1
  3
ACAD_MTEXT_RT
360
1432
  0
DICTIONARY
  5
1433
330
114C
100
AcDbDictionary
280
     1
281
     1
  3
ACAD_MTEXT_RT
360
1434
  0
DICTIONARY
  5
1435
330
1156
100
AcDbDictionary
280
     1
281
     1
  3
ACAD_MTEXT_RT
360
1436
  0
DICTIONARY
  5
1437
330
13D2
100
AcDbDictionary
280
     1
281
     1
  3
ACAD_MTEXT_RT
360
1438
  0
DICTIONARY
  5
1439
330
13DC
100
AcDbDictionary
280
     1
281
     1
  3
ACAD_MTEXT_RT
360
143A
  0
DICTIONARY
  5
1292
330
1291
100
AcDbDictionary
280
     1
281
     1
  3
AcDbContextDataManager
360
1293
  0
DICTIONARY
  5
13F8
102
{ACAD_REACTORS
330
C
102
}
330
C
100
AcDbDictionary
281
     1
  3
DIMARCSYM
350
13F9
  3
DIMLTEX1
350
13FB
  3
DIMLTEX2
350
13FC
  3
DIMLTYPE
350
13FA
  0
DICTIONARY
  5
5E
102
{ACAD_REACTORS
330
C
102
}
330
C
100
AcDbDictionary
281
     1
  0
DICTIONARY
  5
D
102
{ACAD_REACTORS
330
C
102
}
330
C
100
AcDbDictionary
281
     1
  0
DICTIONARY
  5
5D
102
{ACAD_REACTORS
330
C
102
}
330
C
100
AcDbDictionary
281
     1
  3
Model
350
6A
  3
レイアウト1
350
66
  3
レイアウト2
350
6E
  0
DICTIONARY
  5
10
102
{ACAD_REACTORS
330
C
102
}
330
C
100
AcDbDictionary
281
     1
  3
ByBlock
350
19
  3
ByLayer
350
11
  3
Global
350
21
  0
DICTIONARY
  5
61
102
{ACAD_REACTORS
330
C
102
}
330
C
100
AcDbDictionary
281
     1
  3
Standard
350
62
  0
DICTIONARY
  5
5A
102
{ACAD_REACTORS
330
C
102
}
330
C
100
AcDbDictionary
281
     1
  3
Standard
350
5B
  0
DICTIONARY
  5
5C
102
{ACAD_REACTORS
330
C
102
}
330
C
100
AcDbDictionary
281
     1
  0
ACDBDICTIONARYWDFLT
  5
E
102
{ACAD_REACTORS
330
C
102
}
330
C
100
AcDbDictionary
281
     1
  3
Normal
350
F
100
AcDbDictionaryWithDefault
340
F
  0
DICTIONARY
  5
3D
102
{ACAD_REACTORS
330
C
102
}
330
C
100
AcDbDictionary
281
     1
  3
*A1
350
B6
  3
*A10
350
BD
  3
*A11
350
BE
  3
*A12
350
BF
  3
*A13
350
C0
  3
*A14
350
C1
  3
*A15
350
C2
  3
*A16
350
C3
  3
*A17
350
C4
  3
*A18
350
C5
  3
*A2
350
C6
  3
*A3
350
C7
  3
*A4
350
B7
  3
*A5
350
B8
  3
*A6
350
B9
  3
*A7
350
BA
  3
*A8
350
BB
  3
*A9
350
BC
  3
A0
350
3E
  3
A1
350
3F
  3
A2
350
40
  3
A3
350
41
  3
A4
350
42
  3
A5
350
43
  3
A6
350
44
  3
A7
350
45
  3
A8
350
46
  3
A9
350
47
  3
B0
350
48
  3
B1
350
49
  3
B2
350
4A
  3
B3
350
4B
  3
B4
350
4C
  3
B5
350
4D
  3
B6
350
4E
  0
DICTIONARY
  5
5F
102
{ACAD_REACTORS
330
C
102
}
330
C
100
AcDbDictionary
281
     1
  3
Standard
350
60
  0
DICTIONARY
  5
29
102
{ACAD_REACTORS
330
C
102
}
330
C
100
AcDbDictionary
281
     1
  3
2dWireframe
350
2F
  3
3D Hidden
350
31
  3
3dWireframe
350
30
  3
Basic
350
2E
  3
Brighten
350
35
  3
ColorChange
350
39
  3
Conceptual
350
32
  3
Dim
350
34
  3
EdgeColorOff
350
3C
  3
Facepattern
350
38
  3
Flat
350
2A
  3
FlatWithEdges
350
2B
  3
Gouraud
350
2C
  3
GouraudWithEdges
350
2D
  3
JitterOff
350
3A
  3
Linepattern
350
37
  3
OverhangOff
350
3B
  3
Realistic
350
33
  3
Thicken
350
36
  0
XRECORD
  5
13F6
102
{ACAD_REACTORS
330
C
102
}
330
C
100
AcDbXrecord
280
     1
 90
        1
330
60
  0
DICTIONARY
  5
4EC
102
{ACAD_REACTORS
330
C
102
}
330
C
100
AcDbDictionary
281
     1
  3
ANNOALLVISIBLE
350
4F0
  3
CANNOSCALE
350
4F1
  3
CMLEADERSTYLE
350
4EE
  3
CTABLESTYLE
350
4ED
  3
DIMASSOC
350
5C0
  3
HIDETEXT
350
5BE
  3
INDEXCTL
350
5BD
  3
LAYEREVAL
350
4F3
  3
LAYERNOTIFY
350
4F4
  3
LIGHTINGUNITS
350
4F2
  3
MSLTSCALE
350
4EF
  3
SORTENTS
350
5BC
  3
XCLIPFRAME
350
13F4
  0
DICTIONARY
  5
54A
102
{ACAD_REACTORS
330
C
102
}
330
C
100
AcDbDictionary
281
     1
  3
AcmStdDictionary
350
557
  0
DICTIONARY
  5
503
102
{ACAD_REACTORS
330
C
102
}
330
C
100
AcDbDictionary
281
     1
  0
DICTIONARY
  5
5B5
102
{ACAD_REACTORS
330
C
102
}
330
C
100
AcDbDictionary
281
     1
  0
XRECORD
  5
13F7
102
{ACAD_REACTORS
330
C
102
}
330
C
100
AcDbXrecord
280
     1
  1
DWGPROPS COOKIE
  2

  3

  4

  6

  7

  8
Administrator
  9

300
AmdtFileType=84
301
=
302
=
303
=
304
=
305
=
306
=
307
=
308
=
309
=
 40
0.0430678240740741
 41
2456512.499609827
 42
2457948.56481676
  1

 90
        1
  0
DICTIONARY
  5
68E
102
{ACAD_REACTORS
330
68D
102
}
330
68D
100
AcDbDictionary
281
     1
  0
XRECORD
  5
5B2
102
{ACAD_REACTORS
330
5B1
102
}
330
5B1
100
AcDbXrecord
280
     1
290
     1
  0
XRECORD
  5
CB
102
{ACAD_REACTORS
330
CA
102
}
330
CA
100
AcDbXrecord
280
     1
290
     1
  0
XRECORD
  5
D4
102
{ACAD_REACTORS
330
D3
102
}
330
D3
100
AcDbXrecord
280
     1
290
     1
  0
XRECORD
  5
F3
102
{ACAD_REACTORS
330
F2
102
}
330
F2
100
AcDbXrecord
280
     1
290
     1
  0
XRECORD
  5
138
102
{ACAD_REACTORS
330
137
102
}
330
137
100
AcDbXrecord
280
     1
290
     1
  0
XRECORD
  5
5B4
102
{ACAD_REACTORS
330
5B3
102
}
330
5B3
100
AcDbXrecord
280
     1
290
     1
  0
SORTENTSTABLE
  5
471
102
{ACAD_REACTORS
330
470
102
}
330
470
100
AcDbSortentsTable
330
67
  0
XRECORD
  5
142A
102
{ACAD_REACTORS
330
1429
102
}
330
1429
100
AcDbXrecord
280
     1
 40
6709.0
  1
P.C.D.\U+220526
  0
XRECORD
  5
142C
102
{ACAD_REACTORS
330
142B
102
}
330
142B
100
AcDbXrecord
280
     1
 40
4433.0
  1
3-120\U+00B0
  0
XRECORD
  5
142E
102
{ACAD_REACTORS
330
142D
102
}
330
142D
100
AcDbXrecord
280
     1
 40
6709.0
  1
P.C.D.\U+220526
  0
XRECORD
  5
1430
102
{ACAD_REACTORS
330
142F
102
}
330
142F
100
AcDbXrecord
280
     1
 40
4433.0
  1
3-120\U+00B0
  0
XRECORD
  5
1432
102
{ACAD_REACTORS
330
1431
102
}
330
1431
100
AcDbXrecord
280
     1
 40
14711.0
  1
＋端子
  0
XRECORD
  5
1434
102
{ACAD_REACTORS
330
1433
102
}
330
1433
100
AcDbXrecord
280
     1
 40
25695.0
  1
入力端子
  0
XRECORD
  5
1436
102
{ACAD_REACTORS
330
1435
102
}
330
1435
100
AcDbXrecord
280
     1
 40
43339.0
  1
2-M2.6\P有効深さ2
  0
XRECORD
  5
1438
102
{ACAD_REACTORS
330
1437
102
}
330
1437
100
AcDbXrecord
280
     1
 40
8671.0
  1
＋TERMINAL
  0
XRECORD
  5
143A
102
{ACAD_REACTORS
330
1439
102
}
330
1439
100
AcDbXrecord
280
     1
 40
53346.0
  1
2-M2.6\U+00D70.45 TAPPED HOLE\P(2mmMAX)
  0
DICTIONARY
  5
1293
102
{ACAD_REACTORS
330
1292
102
}
330
1292
100
AcDbDictionary
281
     1
  3
ACDB_ANNOTATIONSCALES
350
1294
  0
XRECORD
  5
13F9
102
{ACAD_REACTORS
330
13F8
102
}
330
13F8
100
AcDbXrecord
280
     1
 70
     1
  0
XRECORD
  5
13FB
102
{ACAD_REACTORS
330
13F8
102
}
330
13F8
100
AcDbXrecord
280
     1
340
56
  0
XRECORD
  5
13FC
102
{ACAD_REACTORS
330
13F8
102
}
330
13F8
100
AcDbXrecord
280
     1
340
56
  0
XRECORD
  5
13FA
102
{ACAD_REACTORS
330
13F8
102
}
330
13F8
100
AcDbXrecord
280
     1
340
56
  0
LAYOUT
  5
6A
102
{ACAD_XDICTIONARY
360
C2F
102
}
102
{ACAD_REACTORS
330
5D
102
}
330
5D
100
AcDbPlotSettings
  1

  2
KONICA MINOLTA 350_250_200 PCL.pc3
  4
A4
  6

 40
5.027082920074462
 41
5.027085781097412
 42
5.027069091796875
 43
5.027069091796875
 44
209.9733276367186
 45
296.9259948730469
 46
0.0
 47
0.0
 48
0.0
 49
0.0
140
0.0
141
0.0
142
1.0
143
0.6299745284921736
 70
 11952
 72
     1
 73
     1
 74
     0
  7

 75
     0
147
1.587365766031004
148
0.3536938643061944
149
7.555586801406112
100
AcDbLayout
  1
Model
 70
     1
 71
     0
 10
0.0
 20
0.0
 11
12.0
 21
9.0
 12
0.0
 22
0.0
 32
0.0
 14
0.0
 24
0.0
 34
0.0
 15
0.0
 25
0.0
 35
0.0
146
0.0
 13
0.0
 23
0.0
 33
0.0
 16
1.0
 26
0.0
 36
0.0
 17
0.0
 27
1.0
 37
0.0
 76
     0
330
67
331
52
1001
ACAD_PSEXT
1000
KONICA MINOLTA 350_250_200 PCL.pc3
1000
KONICA MINOLTA 350/250/200 PCL
1000
IP_192.168.3.100
1000

1070
     0
  0
LAYOUT
  5
66
102
{ACAD_XDICTIONARY
360
1424
102
}
102
{ACAD_REACTORS
330
5D
102
}
330
5D
100
AcDbPlotSettings
  1

  2
KONICA MINOLTA 350/250/200 PCL
  4

  6

 40
0.0
 41
0.0
 42
0.0
 43
0.0
 44
0.0
 45
0.0
 46
0.0
 47
0.0
 48
0.0
 49
0.0
140
0.0
141
0.0
142
1.0
143
1.0
 70
   688
 72
     0
 73
     0
 74
     5
  7

 75
    16
147
1.0
148
0.0
149
0.0
100
AcDbLayout
  1
レイアウト1
 70
     1
 71
     1
 10
0.0
 20
0.0
 11
12.0
 21
9.0
 12
0.0
 22
0.0
 32
0.0
 14
1.000000000000000E+20
 24
1.000000000000000E+20
 34
1.000000000000000E+20
 15
-1.000000000000000E+20
 25
-1.000000000000000E+20
 35
-1.000000000000000E+20
146
0.0
 13
0.0
 23
0.0
 33
0.0
 16
1.0
 26
0.0
 36
0.0
 17
0.0
 27
1.0
 37
0.0
 76
     0
330
63
  0
LAYOUT
  5
6E
102
{ACAD_XDICTIONARY
360
1427
102
}
102
{ACAD_REACTORS
330
5D
102
}
330
5D
100
AcDbPlotSettings
  1

  2
KONICA MINOLTA 350/250/200 PCL
  4

  6

 40
0.0
 41
0.0
 42
0.0
 43
0.0
 44
0.0
 45
0.0
 46
0.0
 47
0.0
 48
0.0
 49
0.0
140
0.0
141
0.0
142
1.0
143
1.0
 70
   688
 72
     0
 73
     0
 74
     5
  7

 75
    16
147
1.0
148
0.0
149
0.0
100
AcDbLayout
  1
レイアウト2
 70
     1
 71
     2
 10
0.0
 20
0.0
 11
12.0
 21
9.0
 12
0.0
 22
0.0
 32
0.0
 14
0.0
 24
0.0
 34
0.0
 15
0.0
 25
0.0
 35
0.0
146
0.0
 13
0.0
 23
0.0
 33
0.0
 16
1.0
 26
0.0
 36
0.0
 17
0.0
 27
1.0
 37
0.0
 76
     0
330
6B
  0
MATERIAL
  5
19
102
{ACAD_XDICTIONARY
360
1A
102
}
102
{ACAD_REACTORS
330
10
102
}
330
10
100
AcDbMaterial
  1
ByBlock
 72
     0
 43
0.0208333333333333
 43
0.0
 43
0.0
 43
0.0
 43
0.0
 43
0.0208333333333333
 43
0.0
 43
0.0
 43
0.0
 43
0.0
 43
1.0
 43
0.0
 43
0.0
 43
0.0
 43
0.0
 43
1.0
 77
     0
 47
0.0208333333333333
 47
0.0
 47
0.0
 47
0.0
 47
0.0
 47
0.0208333333333333
 47
0.0
 47
0.0
 47
0.0
 47
0.0
 47
1.0
 47
0.0
 47
0.0
 47
0.0
 47
0.0
 47
1.0
171
     0
 49
0.0208333333333333
 49
0.0
 49
0.0
 49
0.0
 49
0.0
 49
0.0208333333333333
 49
0.0
 49
0.0
 49
0.0
 49
0.0
 49
1.0
 49
0.0
 49
0.0
 49
0.0
 49
0.0
 49
1.0
175
     0
142
0.0208333333333333
142
0.0
142
0.0
142
0.0
142
0.0
142
0.0208333333333333
142
0.0
142
0.0
142
0.0
142
0.0
142
1.0
142
0.0
142
0.0
142
0.0
142
0.0
142
1.0
179
     0
144
0.0208333333333333
144
0.0
144
0.0
144
0.0
144
0.0
144
0.0208333333333333
144
0.0
144
0.0
144
0.0
144
0.0
144
1.0
144
0.0
144
0.0
144
0.0
144
0.0
144
1.0
147
0.0208333333333333
147
0.0
147
0.0
147
0.0
147
0.0
147
0.0208333333333333
147
0.0
147
0.0
147
0.0
147
0.0
147
1.0
147
0.0
147
0.0
147
0.0
147
0.0
147
1.0
  0
MATERIAL
  5
11
102
{ACAD_XDICTIONARY
360
12
102
}
102
{ACAD_REACTORS
330
10
102
}
330
10
100
AcDbMaterial
  1
ByLayer
 72
     0
 43
0.0208333333333333
 43
0.0
 43
0.0
 43
0.0
 43
0.0
 43
0.0208333333333333
 43
0.0
 43
0.0
 43
0.0
 43
0.0
 43
1.0
 43
0.0
 43
0.0
 43
0.0
 43
0.0
 43
1.0
 77
     0
 47
0.0208333333333333
 47
0.0
 47
0.0
 47
0.0
 47
0.0
 47
0.0208333333333333
 47
0.0
 47
0.0
 47
0.0
 47
0.0
 47
1.0
 47
0.0
 47
0.0
 47
0.0
 47
0.0
 47
1.0
171
     0
 49
0.0208333333333333
 49
0.0
 49
0.0
 49
0.0
 49
0.0
 49
0.0208333333333333
 49
0.0
 49
0.0
 49
0.0
 49
0.0
 49
1.0
 49
0.0
 49
0.0
 49
0.0
 49
0.0
 49
1.0
175
     0
142
0.0208333333333333
142
0.0
142
0.0
142
0.0
142
0.0
142
0.0208333333333333
142
0.0
142
0.0
142
0.0
142
0.0
142
1.0
142
0.0
142
0.0
142
0.0
142
0.0
142
1.0
179
     0
144
0.0208333333333333
144
0.0
144
0.0
144
0.0
144
0.0
144
0.0208333333333333
144
0.0
144
0.0
144
0.0
144
0.0
144
1.0
144
0.0
144
0.0
144
0.0
144
0.0
144
1.0
147
0.0208333333333333
147
0.0
147
0.0
147
0.0
147
0.0
147
0.0208333333333333
147
0.0
147
0.0
147
0.0
147
0.0
147
1.0
147
0.0
147
0.0
147
0.0
147
0.0
147
1.0
  0
MATERIAL
  5
21
102
{ACAD_XDICTIONARY
360
22
102
}
102
{ACAD_REACTORS
330
10
102
}
330
10
100
AcDbMaterial
  1
Global
 72
     0
 43
0.0208333333333333
 43
0.0
 43
0.0
 43
0.0
 43
0.0
 43
0.0208333333333333
 43
0.0
 43
0.0
 43
0.0
 43
0.0
 43
1.0
 43
0.0
 43
0.0
 43
0.0
 43
0.0
 43
1.0
 77
     0
 47
0.0208333333333333
 47
0.0
 47
0.0
 47
0.0
 47
0.0
 47
0.0208333333333333
 47
0.0
 47
0.0
 47
0.0
 47
0.0
 47
1.0
 47
0.0
 47
0.0
 47
0.0
 47
0.0
 47
1.0
171
     0
 49
0.0208333333333333
 49
0.0
 49
0.0
 49
0.0
 49
0.0
 49
0.0208333333333333
 49
0.0
 49
0.0
 49
0.0
 49
0.0
 49
1.0
 49
0.0
 49
0.0
 49
0.0
 49
0.0
 49
1.0
175
     0
142
0.0208333333333333
142
0.0
142
0.0
142
0.0
142
0.0
142
0.0208333333333333
142
0.0
142
0.0
142
0.0
142
0.0
142
1.0
142
0.0
142
0.0
142
0.0
142
0.0
142
1.0
179
     0
144
0.0208333333333333
144
0.0
144
0.0
144
0.0
144
0.0
144
0.0208333333333333
144
0.0
144
0.0
144
0.0
144
0.0
144
1.0
144
0.0
144
0.0
144
0.0
144
0.0
144
1.0
147
0.0208333333333333
147
0.0
147
0.0
147
0.0
147
0.0
147
0.0208333333333333
147
0.0
147
0.0
147
0.0
147
0.0
147
1.0
147
0.0
147
0.0
147
0.0
147
0.0
147
1.0
  0
MLEADERSTYLE
  5
62
102
{ACAD_REACTORS
330
61
102
}
330
61
100
AcDbMLeaderStyle
170
     2
171
     1
172
     0
 90
        2
 40
0.0
 41
0.0
173
     1
 91
-1056964608
340
56
 92
       -2
290
     1
 42
0.09
291
     1
 43
0.36
  3
Standard
 44
0.18
300

342
50
174
     1
178
     6
175
     1
176
     0
 93
-1056964608
 45
0.18
292
     0
297
     0
 46
0.18
 94
-1056964608
 47
1.0
 49
1.0
140
1.0
293
     1
141
0.0
294
     1
177
     0
142
1.0
295
     0
296
     0
143
0.125
1001
ACAD_MLEADERVER
1070
     2
  0
MLINESTYLE
  5
5B
102
{ACAD_REACTORS
330
5A
102
}
330
5A
100
AcDbMlineStyle
  2
STANDARD
 70
     0
  3

 62
   256
 51
90.0
 52
90.0
 71
     2
 49
0.5
 62
   256
  6
BYLAYER
 49
-0.5
 62
   256
  6
BYLAYER
  0
ACDBPLACEHOLDER
  5
F
102
{ACAD_REACTORS
330
E
102
}
330
E
  0
SCALE
  5
B6
102
{ACAD_REACTORS
330
3D
102
}
330
3D
100
AcDbScale
 70
     0
300
1.5:1
140
1.5
141
1.0
290
     0
  0
SCALE
  5
BD
102
{ACAD_REACTORS
330
3D
102
}
330
3D
100
AcDbScale
 70
     0
300
1/8" = 1'-0"
140
0.125
141
12.0
290
     0
  0
SCALE
  5
BE
102
{ACAD_REACTORS
330
3D
102
}
330
3D
100
AcDbScale
 70
     0
300
3/16" = 1'-0"
140
0.1875
141
12.0
290
     0
  0
SCALE
  5
BF
102
{ACAD_REACTORS
330
3D
102
}
330
3D
100
AcDbScale
 70
     0
300
1/4" = 1'-0"
140
0.25
141
12.0
290
     0
  0
SCALE
  5
C0
102
{ACAD_REACTORS
330
3D
102
}
330
3D
100
AcDbScale
 70
     0
300
3/8" = 1'-0"
140
0.375
141
12.0
290
     0
  0
SCALE
  5
C1
102
{ACAD_REACTORS
330
3D
102
}
330
3D
100
AcDbScale
 70
     0
300
1/2" = 1'-0"
140
0.5
141
12.0
290
     0
  0
SCALE
  5
C2
102
{ACAD_REACTORS
330
3D
102
}
330
3D
100
AcDbScale
 70
     0
300
3/4" = 1'-0"
140
0.75
141
12.0
290
     0
  0
SCALE
  5
C3
102
{ACAD_REACTORS
330
3D
102
}
330
3D
100
AcDbScale
 70
     0
300
1" = 1'-0"
140
1.0
141
12.0
290
     0
  0
SCALE
  5
C4
102
{ACAD_REACTORS
330
3D
102
}
330
3D
100
AcDbScale
 70
     0
300
1-1/2" = 1'-0"
140
1.5
141
12.0
290
     0
  0
SCALE
  5
C5
102
{ACAD_REACTORS
330
3D
102
}
330
3D
100
AcDbScale
 70
     0
300
3" = 1'-0"
140
3.0
141
12.0
290
     0
  0
SCALE
  5
C6
102
{ACAD_REACTORS
330
3D
102
}
330
3D
100
AcDbScale
 70
     0
300
6" = 1'-0"
140
6.0
141
12.0
290
     0
  0
SCALE
  5
C7
102
{ACAD_REACTORS
330
3D
102
}
330
3D
100
AcDbScale
 70
     0
300
1'-0" = 1'-0"
140
12.0
141
12.0
290
     0
  0
SCALE
  5
B7
102
{ACAD_REACTORS
330
3D
102
}
330
3D
100
AcDbScale
 70
     0
300
1.25:1
140
1.25
141
1.0
290
     0
  0
SCALE
  5
B8
102
{ACAD_REACTORS
330
3D
102
}
330
3D
100
AcDbScale
 70
     0
300
1/128" = 1'-0"
140
0.0078125
141
12.0
290
     0
  0
SCALE
  5
B9
102
{ACAD_REACTORS
330
3D
102
}
330
3D
100
AcDbScale
 70
     0
300
1/64" = 1'-0"
140
0.015625
141
12.0
290
     0
  0
SCALE
  5
BA
102
{ACAD_REACTORS
330
3D
102
}
330
3D
100
AcDbScale
 70
     0
300
1/32" = 1'-0"
140
0.03125
141
12.0
290
     0
  0
SCALE
  5
BB
102
{ACAD_REACTORS
330
3D
102
}
330
3D
100
AcDbScale
 70
     0
300
1/16" = 1'-0"
140
0.0625
141
12.0
290
     0
  0
SCALE
  5
BC
102
{ACAD_REACTORS
330
3D
102
}
330
3D
100
AcDbScale
 70
     0
300
3/32" = 1'-0"
140
0.09375
141
12.0
290
     0
  0
SCALE
  5
3E
102
{ACAD_REACTORS
330
3D
102
}
330
3D
100
AcDbScale
 70
     0
300
1:1
140
1.0
141
1.0
290
     1
  0
SCALE
  5
3F
102
{ACAD_REACTORS
330
3D
102
}
330
3D
100
AcDbScale
 70
     0
300
1:2
140
1.0
141
2.0
290
     0
  0
SCALE
  5
40
102
{ACAD_REACTORS
330
3D
102
}
330
3D
100
AcDbScale
 70
     0
300
1:4
140
1.0
141
4.0
290
     0
  0
SCALE
  5
41
102
{ACAD_REACTORS
330
3D
102
}
330
3D
100
AcDbScale
 70
     0
300
1:5
140
1.0
141
5.0
290
     0
  0
SCALE
  5
42
102
{ACAD_REACTORS
330
3D
102
}
330
3D
100
AcDbScale
 70
     0
300
1:8
140
1.0
141
8.0
290
     0
  0
SCALE
  5
43
102
{ACAD_REACTORS
330
3D
102
}
330
3D
100
AcDbScale
 70
     0
300
1:10
140
1.0
141
10.0
290
     0
  0
SCALE
  5
44
102
{ACAD_REACTORS
330
3D
102
}
330
3D
100
AcDbScale
 70
     0
300
1:16
140
1.0
141
16.0
290
     0
  0
SCALE
  5
45
102
{ACAD_REACTORS
330
3D
102
}
330
3D
100
AcDbScale
 70
     0
300
1:20
140
1.0
141
20.0
290
     0
  0
SCALE
  5
46
102
{ACAD_REACTORS
330
3D
102
}
330
3D
100
AcDbScale
 70
     0
300
1:30
140
1.0
141
30.0
290
     0
  0
SCALE
  5
47
102
{ACAD_REACTORS
330
3D
102
}
330
3D
100
AcDbScale
 70
     0
300
1:40
140
1.0
141
40.0
290
     0
  0
SCALE
  5
48
102
{ACAD_REACTORS
330
3D
102
}
330
3D
100
AcDbScale
 70
     0
300
1:50
140
1.0
141
50.0
290
     0
  0
SCALE
  5
49
102
{ACAD_REACTORS
330
3D
102
}
330
3D
100
AcDbScale
 70
     0
300
1:100
140
1.0
141
100.0
290
     0
  0
SCALE
  5
4A
102
{ACAD_REACTORS
330
3D
102
}
330
3D
100
AcDbScale
 70
     0
300
2:1
140
2.0
141
1.0
290
     0
  0
SCALE
  5
4B
102
{ACAD_REACTORS
330
3D
102
}
330
3D
100
AcDbScale
 70
     0
300
4:1
140
4.0
141
1.0
290
     0
  0
SCALE
  5
4C
102
{ACAD_REACTORS
330
3D
102
}
330
3D
100
AcDbScale
 70
     0
300
8:1
140
8.0
141
1.0
290
     0
  0
SCALE
  5
4D
102
{ACAD_REACTORS
330
3D
102
}
330
3D
100
AcDbScale
 70
     0
300
10:1
140
10.0
141
1.0
290
     0
  0
SCALE
  5
4E
102
{ACAD_REACTORS
330
3D
102
}
330
3D
100
AcDbScale
 70
     0
300
100:1
140
100.0
141
1.0
290
     0
  0
TABLESTYLE
  5
60
102
{ACAD_XDICTIONARY
360
5C1
102
}
102
{ACAD_REACTORS
330
5F
102
}
330
5F
100
AcDbTableStyle
  3
Standard
 70
     0
 71
     3
 40
1.5
 41
1.5
280
     0
281
     0
  7
STANDARD
140
4.5
170
     2
 62
     0
 63
     7
283
     0
274
    -2
284
     1
 64
     0
275
    -2
285
     1
 65
     0
276
    -2
286
     1
 66
     0
277
    -2
287
     1
 67
     0
278
    -2
288
     1
 68
     0
279
    -2
289
     1
 69
     0
  7
STANDARD
140
6.0
170
     5
 62
     0
 63
     7
283
     0
274
    -2
284
     1
 64
     0
275
    -2
285
     1
 65
     0
276
    -2
286
     1
 66
     0
277
    -2
287
     1
 67
     0
278
    -2
288
     1
 68
     0
279
    -2
289
     1
 69
     0
  7
STANDARD
140
4.5
170
     5
 62
     0
 63
     7
283
     0
274
    -2
284
     1
 64
     0
275
    -2
285
     1
 65
     0
276
    -2
286
     1
 66
     0
277
    -2
287
     1
 67
     0
278
    -2
288
     1
 68
     0
279
    -2
289
     1
 69
     0
  0
VISUALSTYLE
  5
2F
102
{ACAD_XDICTIONARY
360
1407
102
}
102
{ACAD_REACTORS
330
29
102
}
330
29
100
AcDbVisualStyle
  2

 70
     4
 71
     0
 72
     2
 73
     0
 90
        0
 40
-0.6
 41
-30.0
 62
     5
 63
     7
 74
     1
 91
        4
 64
     7
 65
   257
 75
     1
175
     1
 42
1.0
 92
        0
 66
   257
 43
1.0
 76
     1
 77
     6
 78
     2
 67
     7
 79
     5
170
     0
171
     0
290
     0
174
     0
 93
        1
 44
0.0
173
     0
291
     0
 45
0.0
1001
ACAD
1000
AcDbSavedByObjectVersion
1070
     0
  0
VISUALSTYLE
  5
31
102
{ACAD_XDICTIONARY
360
140B
102
}
102
{ACAD_REACTORS
330
29
102
}
330
29
100
AcDbVisualStyle
  2

 70
     6
 71
     1
 72
     2
 73
     2
 90
        0
 40
-0.6
 41
-30.0
 62
     5
 63
     7
 74
     2
 91
        2
 64
     7
 65
   257
 75
     2
175
     1
 42
179.0
 92
        0
 66
   257
 43
1.0
 76
     1
 77
     6
 78
     2
 67
     7
 79
     3
170
     0
171
     0
290
     0
174
     0
 93
        1
 44
0.0
173
     0
291
     0
 45
0.0
1001
ACAD
1000
AcDbSavedByObjectVersion
1070
     0
  0
VISUALSTYLE
  5
30
102
{ACAD_XDICTIONARY
360
1409
102
}
102
{ACAD_REACTORS
330
29
102
}
330
29
100
AcDbVisualStyle
  2

 70
     5
 71
     0
 72
     2
 73
     0
 90
        0
 40
-0.6
 41
-30.0
 62
     5
 63
     7
 74
     1
 91
        4
 64
     7
 65
   257
 75
     1
175
     1
 42
1.0
 92
        0
 66
   257
 43
1.0
 76
     1
 77
     6
 78
     2
 67
     7
 79
     5
170
     0
171
     0
290
     0
174
     0
 93
        1
 44
0.0
173
     0
291
     0
 45
0.0
1001
ACAD
1000
AcDbSavedByObjectVersion
1070
     0
  0
VISUALSTYLE
  5
2E
102
{ACAD_XDICTIONARY
360
1405
102
}
102
{ACAD_REACTORS
330
29
102
}
330
29
100
AcDbVisualStyle
  2

 70
     7
 71
     1
 72
     0
 73
     1
 90
        0
 40
-0.6
 41
-30.0
 62
     5
 63
     7
 74
     0
 91
        4
 64
     7
 65
   257
 75
     1
175
     1
 42
1.0
 92
        8
 66
     7
 43
1.0
 76
     1
 77
     6
 78
     2
 67
     7
 79
     5
170
     0
171
     0
290
     0
174
     0
 93
        1
 44
0.0
173
     0
291
     1
 45
0.0
1001
ACAD
1000
AcDbSavedByObjectVersion
1070
     0
  0
VISUALSTYLE
  5
35
102
{ACAD_XDICTIONARY
360
1413
102
}
102
{ACAD_REACTORS
330
29
102
}
330
29
100
AcDbVisualStyle
  2

 70
    12
 71
     2
 72
     2
 73
     0
 90
        0
 40
-0.6
 41
-30.0
 62
     5
 63
     7
 74
     1
 91
        4
 64
     7
 65
   257
 75
     1
175
     1
 42
1.0
 92
        8
 66
     7
 43
1.0
 76
     1
 77
     6
 78
     2
 67
     7
 79
     5
170
     0
171
     0
290
     0
174
     0
 93
        1
 44
50.0
173
     0
291
     1
 45
0.0
1001
ACAD
1000
AcDbSavedByObjectVersion
1070
     0
  0
VISUALSTYLE
  5
39
102
{ACAD_XDICTIONARY
360
141B
102
}
102
{ACAD_REACTORS
330
29
102
}
330
29
100
AcDbVisualStyle
  2

 70
    16
 71
     2
 72
     2
 73
     3
 90
        0
 40
-0.6
 41
-30.0
 62
     5
 63
     8
 74
     1
 91
        4
 64
     7
 65
   257
 75
     1
175
     1
 42
1.0
 92
        8
 66
     8
 43
1.0
 76
     1
 77
     6
 78
     2
 67
     7
 79
     5
170
     0
171
     0
290
     0
174
     0
 93
        1
 44
0.0
173
     0
291
     1
 45
0.0
1001
ACAD
1000
AcDbSavedByObjectVersion
1070
     0
  0
VISUALSTYLE
  5
32
102
{ACAD_XDICTIONARY
360
140D
102
}
102
{ACAD_REACTORS
330
29
102
}
330
29
100
AcDbVisualStyle
  2

 70
     9
 71
     3
 72
     2
 73
     0
 90
        0
 40
-0.6
 41
-30.0
 62
     5
 63
     7
 74
     2
 91
        2
 64
     7
 65
   257
 75
     1
175
     1
 42
179.0
 92
        8
 66
     7
 43
1.0
 76
     1
 77
     6
 78
     2
 67
     7
 79
     3
170
     0
171
     0
290
     0
174
     0
 93
        1
 44
0.0
173
     0
291
     0
 45
0.0
1001
ACAD
1000
AcDbSavedByObjectVersion
1070
     0
  0
VISUALSTYLE
  5
34
102
{ACAD_XDICTIONARY
360
1411
102
}
102
{ACAD_REACTORS
330
29
102
}
330
29
100
AcDbVisualStyle
  2

 70
    11
 71
     2
 72
     2
 73
     0
 90
        0
 40
-0.6
 41
-30.0
 62
     5
 63
     7
 74
     1
 91
        4
 64
     7
 65
   257
 75
     1
175
     1
 42
1.0
 92
        8
 66
     7
 43
1.0
 76
     1
 77
     6
 78
     2
 67
     7
 79
     5
170
     0
171
     0
290
     0
174
     0
 93
        1
 44
-50.0
173
     0
291
     1
 45
0.0
1001
ACAD
1000
AcDbSavedByObjectVersion
1070
     0
  0
VISUALSTYLE
  5
3C
102
{ACAD_XDICTIONARY
360
1421
102
}
102
{ACAD_REACTORS
330
29
102
}
330
29
100
AcDbVisualStyle
  2

 70
    22
 71
     2
 72
     2
 73
     0
 90
        0
 40
-0.6
 41
-30.0
 62
     5
 63
     7
 74
     1
 91
        4
 64
     7
 65
   257
 75
     1
175
     1
 42
1.0
 92
        8
 66
     7
 43
1.0
 76
     1
 77
     6
 78
     2
 67
     7
 79
     5
170
     0
171
     0
290
     0
174
     0
 93
        1
 44
0.0
173
     0
291
     1
 45
0.0
1001
ACAD
1000
AcDbSavedByObjectVersion
1070
     0
  0
VISUALSTYLE
  5
38
102
{ACAD_XDICTIONARY
360
1419
102
}
102
{ACAD_REACTORS
330
29
102
}
330
29
100
AcDbVisualStyle
  2

 70
    15
 71
     2
 72
     2
 73
     0
 90
        0
 40
-0.6
 41
-30.0
 62
     5
 63
     7
 74
     1
 91
        4
 64
     7
 65
   257
 75
     1
175
     1
 42
1.0
 92
        8
 66
     7
 43
1.0
 76
     1
 77
     6
 78
     2
 67
     7
 79
     5
170
     0
171
     0
290
     0
174
     0
 93
        1
 44
0.0
173
     0
291
     1
 45
0.0
1001
ACAD
1000
AcDbSavedByObjectVersion
1070
     0
  0
VISUALSTYLE
  5
2A
102
{ACAD_XDICTIONARY
360
13FD
102
}
102
{ACAD_REACTORS
330
29
102
}
330
29
100
AcDbVisualStyle
  2

 70
     0
 71
     2
 72
     1
 73
     1
 90
        2
 40
-0.6
 41
30.0
 62
     5
 63
     7
 74
     0
 91
        4
 64
     7
 65
   257
 75
     1
175
     1
 42
1.0
 92
        8
 66
     7
 43
1.0
 76
     1
 77
     6
 78
     2
 67
     7
 79
     5
170
     0
171
     0
290
     0
174
     0
 93
       13
 44
0.0
173
     0
291
     1
 45
0.0
1001
ACAD
1000
AcDbSavedByObjectVersion
1070
     0
  0
VISUALSTYLE
  5
2B
102
{ACAD_XDICTIONARY
360
13FF
102
}
102
{ACAD_REACTORS
330
29
102
}
330
29
100
AcDbVisualStyle
  2

 70
     1
 71
     2
 72
     1
 73
     1
 90
        2
 40
-0.6
 41
30.0
 62
     5
 63
     7
 74
     1
 91
        4
 64
     7
 65
   257
 75
     1
175
     1
 42
1.0
 92
        0
 66
   257
 43
1.0
 76
     1
 77
     6
 78
     2
 67
     7
 79
     5
170
     0
171
     0
290
     0
174
     0
 93
       13
 44
0.0
173
     0
291
     1
 45
0.0
1001
ACAD
1000
AcDbSavedByObjectVersion
1070
     0
  0
VISUALSTYLE
  5
2C
102
{ACAD_XDICTIONARY
360
1401
102
}
102
{ACAD_REACTORS
330
29
102
}
330
29
100
AcDbVisualStyle
  2

 70
     2
 71
     2
 72
     2
 73
     1
 90
        2
 40
-0.6
 41
30.0
 62
     5
 63
     7
 74
     0
 91
        4
 64
     7
 65
   257
 75
     1
175
     1
 42
1.0
 92
        0
 66
     7
 43
1.0
 76
     1
 77
     6
 78
     2
 67
     7
 79
     5
170
     0
171
     0
290
     0
174
     0
 93
       13
 44
0.0
173
     0
291
     1
 45
0.0
1001
ACAD
1000
AcDbSavedByObjectVersion
1070
     0
  0
VISUALSTYLE
  5
2D
102
{ACAD_XDICTIONARY
360
1403
102
}
102
{ACAD_REACTORS
330
29
102
}
330
29
100
AcDbVisualStyle
  2

 70
     3
 71
     2
 72
     2
 73
     1
 90
        2
 40
-0.6
 41
30.0
 62
     5
 63
     7
 74
     1
 91
        4
 64
     7
 65
   257
 75
     1
175
     1
 42
1.0
 92
        0
 66
   257
 43
1.0
 76
     1
 77
     6
 78
     2
 67
     7
 79
     5
170
     0
171
     0
290
     0
174
     0
 93
       13
 44
0.0
173
     0
291
     1
 45
0.0
1001
ACAD
1000
AcDbSavedByObjectVersion
1070
     0
  0
VISUALSTYLE
  5
3A
102
{ACAD_XDICTIONARY
360
141D
102
}
102
{ACAD_REACTORS
330
29
102
}
330
29
100
AcDbVisualStyle
  2

 70
    20
 71
     2
 72
     2
 73
     0
 90
        0
 40
-0.6
 41
-30.0
 62
     5
 63
     7
 74
     1
 91
        4
 64
     7
 65
   257
 75
     1
175
     1
 42
1.0
 92
       10
 66
     7
 43
1.0
 76
     1
 77
     6
 78
     2
 67
     7
 79
     5
170
     0
171
     0
290
     0
174
     0
 93
        1
 44
0.0
173
     0
291
     1
 45
0.0
1001
ACAD
1000
AcDbSavedByObjectVersion
1070
     0
  0
VISUALSTYLE
  5
37
102
{ACAD_XDICTIONARY
360
1417
102
}
102
{ACAD_REACTORS
330
29
102
}
330
29
100
AcDbVisualStyle
  2

 70
    14
 71
     2
 72
     2
 73
     0
 90
        0
 40
-0.6
 41
-30.0
 62
     5
 63
     7
 74
     1
 91
        4
 64
     7
 65
   257
 75
     7
175
     7
 42
1.0
 92
        8
 66
     7
 43
1.0
 76
     1
 77
     6
 78
     2
 67
     7
 79
     5
170
     0
171
     0
290
     0
174
     0
 93
        1
 44
0.0
173
     0
291
     1
 45
0.0
1001
ACAD
1000
AcDbSavedByObjectVersion
1070
     0
  0
VISUALSTYLE
  5
3B
102
{ACAD_XDICTIONARY
360
141F
102
}
102
{ACAD_REACTORS
330
29
102
}
330
29
100
AcDbVisualStyle
  2

 70
    21
 71
     2
 72
     2
 73
     0
 90
        0
 40
-0.6
 41
-30.0
 62
     5
 63
     7
 74
     1
 91
        4
 64
     7
 65
   257
 75
     1
175
     1
 42
1.0
 92
        9
 66
     7
 43
1.0
 76
     1
 77
     6
 78
     2
 67
     7
 79
     5
170
     0
171
     0
290
     0
174
     0
 93
        1
 44
0.0
173
     0
291
     1
 45
0.0
1001
ACAD
1000
AcDbSavedByObjectVersion
1070
     0
  0
VISUALSTYLE
  5
33
102
{ACAD_XDICTIONARY
360
140F
102
}
102
{ACAD_REACTORS
330
29
102
}
330
29
100
AcDbVisualStyle
  2

 70
     8
 71
     2
 72
     2
 73
     0
 90
        0
 40
-0.6
 41
-30.0
 62
     5
 63
     7
 74
     1
 91
        0
 64
     7
 65
   257
 75
     1
175
     1
 42
1.0
 92
        8
 66
     8
 43
1.0
 76
     1
 77
     6
 78
     2
 67
     7
 79
     5
170
     0
171
     0
290
     0
174
     0
 93
       13
 44
0.0
173
     0
291
     0
 45
0.0
1001
ACAD
1000
AcDbSavedByObjectVersion
1070
     0
  0
VISUALSTYLE
  5
36
102
{ACAD_XDICTIONARY
360
1415
102
}
102
{ACAD_REACTORS
330
29
102
}
330
29
100
AcDbVisualStyle
  2

 70
    13
 71
     2
 72
     2
 73
     0
 90
        0
 40
-0.6
 41
-30.0
 62
     5
 63
     7
 74
     1
 91
        4
 64
     7
 65
   257
 75
     1
175
     1
 42
1.0
 92
       12
 66
     7
 43
1.0
 76
     1
 77
     6
 78
     2
 67
     7
 79
     5
170
     0
171
     0
290
     0
174
     0
 93
        1
 44
0.0
173
     0
291
     1
 45
0.0
1001
ACAD
1000
AcDbSavedByObjectVersion
1070
     0
  0
DICTIONARYVAR
  5
4F0
102
{ACAD_REACTORS
330
4EC
102
}
330
4EC
100
DictionaryVariables
280
     0
  1
1
  0
DICTIONARYVAR
  5
4F1
102
{ACAD_REACTORS
330
4EC
102
}
330
4EC
100
DictionaryVariables
280
     0
  1
1:1
  0
DICTIONARYVAR
  5
4EE
102
{ACAD_REACTORS
330
4EC
102
}
330
4EC
100
DictionaryVariables
280
     0
  1
STANDARD
  0
DICTIONARYVAR
  5
4ED
102
{ACAD_REACTORS
330
4EC
102
}
330
4EC
100
DictionaryVariables
280
     0
  1
STANDARD
  0
DICTIONARYVAR
  5
5C0
102
{ACAD_REACTORS
330
4EC
102
}
330
4EC
100
DictionaryVariables
280
     0
  1
2
  0
DICTIONARYVAR
  5
5BE
102
{ACAD_REACTORS
330
4EC
102
}
330
4EC
100
DictionaryVariables
280
     0
  1
1
  0
DICTIONARYVAR
  5
5BD
102
{ACAD_REACTORS
330
4EC
102
}
330
4EC
100
DictionaryVariables
280
     0
  1
0
  0
DICTIONARYVAR
  5
4F3
102
{ACAD_REACTORS
330
4EC
102
}
330
4EC
100
DictionaryVariables
280
     0
  1
1
  0
DICTIONARYVAR
  5
4F4
102
{ACAD_REACTORS
330
4EC
102
}
330
4EC
100
DictionaryVariables
280
     0
  1
15
  0
DICTIONARYVAR
  5
4F2
102
{ACAD_REACTORS
330
4EC
102
}
330
4EC
100
DictionaryVariables
280
     0
  1
0
  0
DICTIONARYVAR
  5
4EF
102
{ACAD_REACTORS
330
4EC
102
}
330
4EC
100
DictionaryVariables
280
     0
  1
0
  0
DICTIONARYVAR
  5
5BC
102
{ACAD_REACTORS
330
4EC
102
}
330
4EC
100
DictionaryVariables
280
     0
  1
127
  0
DICTIONARYVAR
  5
13F4
102
{ACAD_REACTORS
330
4EC
102
}
330
4EC
100
DictionaryVariables
280
     0
  1
2
  0
DICTIONARY
  5
557
102
{ACAD_REACTORS
330
54A
102
}
330
54A
100
AcDbDictionary
281
     1
  0
DICTIONARY
  5
1294
102
{ACAD_REACTORS
330
1293
102
}
330
1293
100
AcDbDictionary
281
     1
  0
DICTIONARY
  5
C2F
330
6A
100
AcDbDictionary
280
     1
281
     1
  3
ACAD_XREC_ROUNDTRIP
360
1426
  3
ADSK_XREC_LAYOUTTHUMBNAIL
360
C30
  0
DICTIONARY
  5
1424
330
66
100
AcDbDictionary
280
     1
281
     1
  3
ACAD_XREC_ROUNDTRIP
360
1425
  0
DICTIONARY
  5
1427
330
6E
100
AcDbDictionary
280
     1
281
     1
  3
ACAD_XREC_ROUNDTRIP
360
1428
  0
DICTIONARY
  5
1A
330
19
100
AcDbDictionary
280
     1
281
     1
  3
ACAD_XREC_ROUNDTRIP
360
5CB
  3
BUMPTILE
360
1C
  3
DIFFUSETILE
360
1B
  3
OPACITYTILE
360
1F
  3
REFLECTIONTILE
360
1E
  3
REFRACTIONTILE
360
20
  3
SPECULARTILE
360
1D
  0
DICTIONARY
  5
12
330
11
100
AcDbDictionary
280
     1
281
     1
  3
ACAD_XREC_ROUNDTRIP
360
5CA
  3
BUMPTILE
360
14
  3
DIFFUSETILE
360
13
  3
OPACITYTILE
360
17
  3
REFLECTIONTILE
360
16
  3
REFRACTIONTILE
360
18
  3
SPECULARTILE
360
15
  0
DICTIONARY
  5
22
330
21
100
AcDbDictionary
280
     1
281
     1
  3
ACAD_XREC_ROUNDTRIP
360
5CC
  3
BUMPTILE
360
24
  3
DIFFUSETILE
360
23
  3
OPACITYTILE
360
27
  3
REFLECTIONTILE
360
26
  3
REFRACTIONTILE
360
28
  3
SPECULARTILE
360
25
  0
DICTIONARY
  5
5C1
330
60
100
AcDbDictionary
280
     1
281
     1
  3
ACAD_ROUNDTRIP_2008_TABLESTYLE_CELLSTYLEMAP
360
13F5
  3
ACAD_XREC_ROUNDTRIP
360
1423
  0
DICTIONARY
  5
1407
330
2F
100
AcDbDictionary
280
     1
281
     1
  3
ACAD_XREC_ROUNDTRIP
360
1408
  0
DICTIONARY
  5
140B
330
31
100
AcDbDictionary
280
     1
281
     1
  3
ACAD_XREC_ROUNDTRIP
360
140C
  0
DICTIONARY
  5
1409
330
30
100
AcDbDictionary
280
     1
281
     1
  3
ACAD_XREC_ROUNDTRIP
360
140A
  0
DICTIONARY
  5
1405
330
2E
100
AcDbDictionary
280
     1
281
     1
  3
ACAD_XREC_ROUNDTRIP
360
1406
  0
DICTIONARY
  5
1413
330
35
100
AcDbDictionary
280
     1
281
     1
  3
ACAD_XREC_ROUNDTRIP
360
1414
  0
DICTIONARY
  5
141B
330
39
100
AcDbDictionary
280
     1
281
     1
  3
ACAD_XREC_ROUNDTRIP
360
141C
  0
DICTIONARY
  5
140D
330
32
100
AcDbDictionary
280
     1
281
     1
  3
ACAD_XREC_ROUNDTRIP
360
140E
  0
DICTIONARY
  5
1411
330
34
100
AcDbDictionary
280
     1
281
     1
  3
ACAD_XREC_ROUNDTRIP
360
1412
  0
DICTIONARY
  5
1421
330
3C
100
AcDbDictionary
280
     1
281
     1
  3
ACAD_XREC_ROUNDTRIP
360
1422
  0
DICTIONARY
  5
1419
330
38
100
AcDbDictionary
280
     1
281
     1
  3
ACAD_XREC_ROUNDTRIP
360
141A
  0
DICTIONARY
  5
13FD
330
2A
100
AcDbDictionary
280
     1
281
     1
  3
ACAD_XREC_ROUNDTRIP
360
13FE
  0
DICTIONARY
  5
13FF
330
2B
100
AcDbDictionary
280
     1
281
     1
  3
ACAD_XREC_ROUNDTRIP
360
1400
  0
DICTIONARY
  5
1401
330
2C
100
AcDbDictionary
280
     1
281
     1
  3
ACAD_XREC_ROUNDTRIP
360
1402
  0
DICTIONARY
  5
1403
330
2D
100
AcDbDictionary
280
     1
281
     1
  3
ACAD_XREC_ROUNDTRIP
360
1404
  0
DICTIONARY
  5
141D
330
3A
100
AcDbDictionary
280
     1
281
     1
  3
ACAD_XREC_ROUNDTRIP
360
141E
  0
DICTIONARY
  5
1417
330
37
100
AcDbDictionary
280
     1
281
     1
  3
ACAD_XREC_ROUNDTRIP
360
1418
  0
DICTIONARY
  5
141F
330
3B
100
AcDbDictionary
280
     1
281
     1
  3
ACAD_XREC_ROUNDTRIP
360
1420
  0
DICTIONARY
  5
140F
330
33
100
AcDbDictionary
280
     1
281
     1
  3
ACAD_XREC_ROUNDTRIP
360
1410
  0
DICTIONARY
  5
1415
330
36
100
AcDbDictionary
280
     1
281
     1
  3
ACAD_XREC_ROUNDTRIP
360
1416
  0
XRECORD
  5
1426
102
{ACAD_REACTORS
330
C2F
102
}
330
C2F
100
AcDbXrecord
280
     1
102
SHADEPLOT
 70
     0
102
SHADEPLOTRESLEVEL
 70
     2
102
SHADEPLOTCUSTOMDPI
 70
   300
  0
XRECORD
  5
C30
102
{ACAD_REACTORS
330
C2F
102
}
330
C2F
100
AcDbXrecord
280
     1
310
28000000000100007C0000000100080000000000007C000000000000000000000001000000000000FFFFFF0000000000FFFFFF000000000000000000000000000000000000000000000000000000000000000000330000006600000099000000CC000000FF00000000330000333300006633000099330000CC330000FF3300
310
0000660000336600006666000099660000CC660000FF66000000990000339900006699000099990000CC990000FF99000000CC000033CC000066CC000099CC0000CCCC0000FFCC000000FF000033FF000066FF000099FF0000CCFF0000FFFF000000003300330033006600330099003300CC003300FF003300003333003333
310
33006633330099333300CC333300FF33330000663300336633006666330099663300CC663300FF66330000993300339933006699330099993300CC993300FF99330000CC330033CC330066CC330099CC3300CCCC3300FFCC330000FF330033FF330066FF330099FF3300CCFF3300FFFF330000006600330066006600660099
310
006600CC006600FF00660000336600333366006633660099336600CC336600FF33660000666600336666006666660099666600CC666600FF66660000996600339966006699660099996600CC996600FF99660000CC660033CC660066CC660099CC6600CCCC6600FFCC660000FF660033FF660066FF660099FF6600CCFF6600
310
FFFF660000009900330099006600990099009900CC009900FF00990000339900333399006633990099339900CC339900FF33990000669900336699006666990099669900CC669900FF66990000999900339999006699990099999900CC999900FF99990000CC990033CC990066CC990099CC9900CCCC9900FFCC990000FF99
310
0033FF990066FF990099FF9900CCFF9900FFFF99000000CC003300CC006600CC009900CC00CC00CC00FF00CC000033CC003333CC006633CC009933CC00CC33CC00FF33CC000066CC003366CC006666CC009966CC00CC66CC00FF66CC000099CC003399CC006699CC009999CC00CC99CC00FF99CC0000CCCC0033CCCC0066CC
310
CC0099CCCC00CCCCCC00FFCCCC0000FFCC0033FFCC0066FFCC0099FFCC00CCFFCC00FFFFCC000000FF003300FF006600FF009900FF00CC00FF00FF00FF000033FF003333FF006633FF009933FF00CC33FF00FF33FF000066FF003366FF006666FF009966FF00CC66FF00FF66FF000099FF003399FF006699FF009999FF00CC
310
99FF00FF99FF0000CCFF0033CCFF0066CCFF0099CCFF00CCCCFF00FFCCFF0000FFFF0033FFFF0066FFFF0099FFFF00CCFFFF00FFFFFF00000000000D0D0D001A1A1A00282828003535350043434300505050005D5D5D006B6B6B00787878008686860093939300A1A1A100AEAEAE00BBBBBB00C9C9C900D6D6D600E4E4E400
310
F1F1F100FFFFFF0000000000000000000000000000000000000000000000000000000000000000000000000000000000F5F5F5F5F5F5F5F5F5F5F5F5F5F5F5F5F5F5F5F5F5F5F5F5F5F5F5F5F5F5F5F5F5F5F5F5F5F5F5F5F5F5F5F5F5F5F5F5F5F5F5F5F5F5F5F5F5F5F5F5F5F5F5F5F5F5F5F5F5F5F5F5F5F5F5F5F5F5F5
310
F5F5F5F5F5F5F5F5F5F5F5F5F5F5F5F5F5F5F5F5F5F5F5F5F5F5F5F5F5F5F5F5F5F5F5F5F5F5F5F5F5F5F5F5F5F5F5F5F5F5F5F5F5F5F5F5F5F5F5F5F5F5F5F5F5F5F5F5F5F5F5F5F5F5F5F5F5F5F5F5F5F5F5F5F5F5F5F5F5F5F5F5F5F5F5F5F5F5F5F5F5F5F5F5F5F5F5F5F5F5F5F5F5F5F5F5F5F5F5F5F5F5F5F5F5F5F5
310
F5F5F5F5F5F5F5F5F5F5F5F5F5F5F5F5F5F5F5F5F5F5F5F5F5F5F5F5F5F5F5F5F5F5F5F5F5F5F5F5F5F5F5F5F5F5F5F5F5F5F5F5F5F5F5F5F5F5F5F5F5F5F5F5F5F5F5F5F5F5F5F5F5F5F5F5F5F5F5F5F5F5F5F5F5F5F5F5F5F5F5F5F5F5F5F5F5F5F5F5F5F5F5F5F5F5F5F5F5F5F5F5F5F5F5F5F5F5F5F5F5F5F5F5F5F5F5
310
F5F5F5F5F5F5F5F5F5F5F5F5F5F5F5F5F5F5F5F5F5F5F5F5F5F5F5F5F5F5F5F5F5F5F5F5F5F5F5F5F5F5F5F5F5F5F5F5F5F5F5F5F5F5F5F5F5F5F5F5F5F5F5F5F5F5F5F5F5F5F5F5F5F5F5F5F5F5F5F5F5F5F5F5F5F5F5F5F5F5F5F5F5F5F5F5F5F5F5F5F5F5F5F5F5F5F5F5F5F5F5F5F5F5F5F5F5F5F5F5F5F5F5F5F5F5F5
310
F5F5F5F5F5F5F5F5F5F5F5F5F5F5F5F5F5F5F5F5F5F5F5F5F5F5F5F5F5F5F5F5F5F5F5F5F5F5F5F5F5F5F5F5F5F5F5F5F5F5F5F5F5F5F5F5F5F5F5F5F5F5F5F5F5F5F5F5F5F5F5F5F5F5F5F5F5F5F5F5F5F5F5F5F5F5F5F5F5F5F5F5F5F5F5F5F5F5F5F5F5F5F5F5F5F5F5F5F5F5F5F5F5F5F5F5F5F5F5F5F5F5F5F5F5F5F5
310
F5F5F5F5F5F5F5F5F5F5F5F5F5F5F5F5F5F5F5F5F5F5F5F5F5F5F5F5F5F5F5F5F5F5F5F5F5F5F5F5F5F5F5F5F5F5F5F5F5F5F5F5F5F5F5F5F5F5F5F5F5F5F5F5F5F5F5F5F5F5F5F5F5F5F5F5F5F5F5F5F5F5F5F5F5F5F5F5F5F5F5F5F5F5F5F5F5F5F5F5F5F5F5F5F5F5F5F5F5F5F5F5F5F5F5F5F5F5F5F5F5F5F5F5F5F5F5
310
F5F5F5F5F5F5F5F5F5F5F5F5F5F5F5F5F5F5F5F5F5F5F5F5F5F5F5F5F5F5F5F5F5F5F5F5F5F5F5F5F5F5F5F5F5F5F5F5F5F5F5F5F5F5F5F5F5F5F5F5F5F5F5F5F5F5F5F5F5F5F5F5F5F5F5F5F5F5F5F5F5F5F5F5F5F5F5F5F5F5F5F5F5F5F5F5F5F5F5F5F5F5F5F5F5F5F5F5F5F5F5F5F5F5F5F5F5F5F5F5F5F5F5F5F5F5F5
310
F5F5F5F5F5F5F5F5F5F5F5F5F5F5F5F5F5F5F5F5F5F5F5F5F5F5F5F5F5F5F5F5F5F5F5F5F5F5F5F5F5F5F5F5F5F5F5F5F5F5F5F5F5F5F5F5F5F5F5F5F5F5F5F5F5F5F5F5F5F5F5F5F5F5F5F5F5F5F5F5F5F5F5F5F5F5F5F5F5F5F5F5F5F5F5F5F5F5F5F5F5F5F5F5F5F5F5F5F5F5F5F5F5F5F5F5F5F5F5F5F5F5F5F5F5F5F5
310
F5F5F5F5F5F5F5F5F5F5F5F5F5F5F5F5F5F5F5F5F5F5F5F5F5F5F5F5F5F5F5F5F5F5F5F5F5F5F5F5F5F5F5F5F5F5F5F5F5F5F5F5F5F5F5F5F5F5F5F5F5F5F5F5F5F5F5F5F5F5F5F5F5F5F5F5F5F5F5F5F5F5F5F5F5F5F5F5F5F5F5F5F5F5F5F5F5F5F5F5F5F5F5F5F5F5F5F5F5F5F5F5F5F5F5F5F5F5F5F5F5F5F5F5F5F5F5
310
F5F5F5F5F5F5F5F5F5F5F5F5F5F5F5F5F5F5F5F5F5F5F5F5F5F5F5F5F5F5F5F5F5F5F5F5F5F5F5F5F5F5F5F5F5F5F5F5F5F5F5F5F5F5F5F5F5F5F5F5F5F5F5F5F5F5F5F5F5F5F5F5F5F5F5F5F5F5F5F5F5F5F5F5F5F5F5F5F5F5F5F5F5F5F5F5F5F5F5F5F5F5F5F5F5F5F5F5F5F5F5F5F5F5F5F5F5F5F5F5F5F5F5F5F5F5F5
310
F5F5F5F5F5F5F5F5F5F5F5F5F5F5F5F5F5F5F5F5F5F5F5F5F5F5F5F5F5F5F5F5F5F5F5F5F5F5F5F5F5F5F5F5F5F5F5F5F5F5F5F5F5F5F5F5F5F5F5F5F5F5F5F5F5F5F5F5F5F5F5F5F5F5F5F5F5F5F5F5F5F5F5F5F5F5F5F5F5F5F5F5F5F5F5F5F5F5F5F5F5F5F5F5F5F5F5F5F5F5F5F5F5F5F5F5F5F5F5F5F5F5F5F5F5F5F5
310
F5F5F5F5F5F5F5F5F5F5F5F5F5F5F5F5F5F5F5F5F5F5F5F5F5F5F5F5F5F5F5F5F5F5F5F5F5F5F5F5F5F5F5F5F5F5F5F5F5F5F5F5F5F5F5F5F5F5F5F5F5F5F5F5F5F5F5F5F5F5F5F5F5F5F5F5F5F5F5F5F5F5F5F5F5F5F5F5F5F5F5F5F5F5F5F5F5F5F5F5F5F5F5F5F5F5F5F5F5F5F5F5F5F5F5F5F5F5F5F5F5F5F5F5F5F5F5
310
F5F5F5F5F5F5F5F5F5F5F5F5F5F5F5F5F5F5F5F5F5F5F5F5F5F5F5F5F5F5F5F5F5F5F5F5F5F5F5F5F5F5F5F5F5F5F5F5F5F5F5F5F5F5F5F5F5F5F5F5F5F5F5F5F5F5F5F5F5F5F5F5F5F5F5F5F5F5F5F5F5F5F5F5F5F5F5F5F5F5F5F5F5F5F5F5F5F5F5F5F5F5F5F5F5F5F5F5F5F5F5F5F5F5F5F5F5F5F5F5F5F5F5F5F5F5F5
310
F5F5F5F5F5F5F5F5F5F5F5F5F5F5F5F5F5F5F5F5F5F5F5F5F5F5F5F5F5F5F5F5F5F5F5F5F5F5F5F5F5F5F5F5F5F5F5F5F5F5F5F5F5F5F5F5F5F5F5F5F5F5F5F5F5F5F5F5F5F5F5F5F5F5F5F5F5F5F5F5F5F5F5F5F5F5F5F5F5F5F5F5F5F5F5F5F5F5F5F5F5F5F5F5F5F5F5F5F5F5F5F5F5F5F5F5F5F5F5F5F5F5F5F5F5F5F5
310
F5F5F5F5F5F5F5F5F5F5F5F5F5F5F5F5F5F5F5F5F5F5F5F5F5F5F5F5F5F5F5F5F5F5F5F5F5F5F5F5F5F5F5F5F5F5F5F5F5F5F5F5F5F5F5F5F5F5F5F5F5F5F5F5F5F5F5F5F5F5F5F5F5F5F5F5F5F5F5F5F5F5F5F5F5F5F5F5F5F5F5F5F5F5F5F5F5F5F5F5F5F5F5F5F5F5F5F5F5F5F5F5F5F5F5F5F5F5F5F5F5F5F5F5F5F5F5
310
F5F5F5F5F5F5F5F5F5F5F5F5F5F5F5F5F5F5F5F5F5F5F5F5F5F5F5F5F5F5F5F5F5F5F5F5F5F5F5F5F5F5F5F5F5F5F5F5F5F5F5F5F5F5F5F5F5F5F5F5F5F5F5F5F5F5F5F5F5F5F5F5F5F5F5F5F5F5F5F5F5F5F5F5F5F5F5F5F5F5F5F5F5F5F5F5F5F5F5F5F5F5F5F5F5F5F5F5F5F5F5F5F5F5F5F5F5F5F5F5F5F5F5F5F5F5F5
310
F5F5F5F5F5F5F5F5F5F5F5F5F5F5F5F5F5F5F5F5F5F5F5F5F5F5F5F5F5F5F5F5F5F5F5F5F5F5F5F5F5F5F5F5F5F5F5F5F5F5F5F5F5F5F5F5F5F5F5F5F5F5F5F5F5F5F5F5F5F5F5F5F5F5F5F5F5F5F5F5F5F5F5F5F5F5F5F5F5F5F5F5F5F5F5F5F5F5F5F5F5F5F5F5F5F5F5F5F5F5F5F5F5F5F5F5F5F5F5F5F5F5F5F5F5F5F5
310
F5F5F5F5F5F5F5F5F5F5F5F5F5F5F5F5F5F5F5F5F5F5F5F5F5F5F5F5F5F5F5F5F5F5F5F5F5F5F5F5F5F5F5F5F5F5F5F5F5F5F5F5F5F5F5F5F5F5F5F5F5F5F5F5F5F5F5F5F5F5F5F5F5F5F5F5F5F5F5F5F5F5F5F5F5F5F5F5F5F5F5F5F5F5F5F5F5F5F5F5F5F5F5F5F5F5F5F5F5F5F5F5F5F5F5F5F5F5F5F5F5F5F5F5F5F5F5
310
F5F5F5F5F5F5F5F5F5F5F5F5F5F5F5F5F5F5F5F5F5F5F5F5F5F5F5F5F5F5F5F5F5F5F5F5F5F5F5F5F5F5F5F5F5F5F5F5F5F5F5F5F5F5F5F5F5F5F5F5F5F5F5F5F5F5F5F5F5F5F5F5F5F5F5F5F5F5F5F5F5F5F5F5F5F5F5F5F5F5F5F5F5F5F5F5F5F5F5F5F5F5F5F5F5F5F5F5F5F5F5F5F5F5F5F5F5F5F5F5F5F5F5F5F5F5F5
310
F5F5F5F5F5F5F5F5F5F5F5F5F5F5F5F5F5F5F5F5F5F5F5F5F5F5F5F5F5F5F5F5F5F5F5F5F5F5F5F5F5F5F5F5F5F5F5F5F5F5F5F5F5F5F5F5F5F5F5F5F5F5F5F5F5F5F5F5F5F5F5F5F5F5F5F5F5F5F5F5F5F5F5F5F5F5F5F5F5F5F5F5F5F5F5F5F5F5F5F5F5F5F5F5F5F5F5F5F5F5F5F5F5F5F5F5F5F5F5F5F5F5F5F5F5F5F5
310
F5F5F5F5F5F5F5F5F5F5F5F5F5F5F5F5F5F5F5F5F5F5F5F5F5F5F5F5F5F5F5F5F5F5F5F5F5F5F5F5F5F5F5F5F5F5F5F5F5F5F5F5F5F5F5F5F5F5F5F5F5F5F5F5F5F5F5F5F5F5F5F5F5F5F5F5F5F5F5F5F5F5F5F5F5F5F5F5F5F5F5F5F5F5F5F5F5F5F5F5F5F5F5F5F5F5F5F5F5F5F5F5F5F5F5F5F5F5F5F5F5F5F5F5F5F5F5
310
F5F5F5F5F5F5F5F5F5F5F5F5F5F5F5F5F5F5F5F5F5F5F5F5F5F5F5F5F5F5F5F5F5F5F5F5F5F5F5F5F5F5F5F5F5F5F5F5F5F5F5F5F5F5F5F5F5F5F5F5F5F5F5F5F5F5F5F5F5F5F5F5F5F5F5F5F5F5F5F5F5F5F5F5F5F5F5F5F5F5F5F5F5F5F5F5F5F5F5F5F5F5F5F5F5F5F5F5F5F5F5F5F5F5F5F5F5F5F5F5F5F5F5F5F5F5F5
310
F5F5F5F5F5F5F5F5F5F5F5F5F5F5F5F5F5F5F5F5F5F5F5F5F5F5F5F5F5F5F5F5F5F5F5F5F5F5F5F5F5F5F5F5F5F5F5F5F5F5F5F5F5F5F5F5F5F5F5F5F5F5F5F5F5F5F5F5F5F5F5F5F5F5F5F5F5F5F5F5F5F5F5F5F5F5F5F5F5F5F5F5F5F5F5F5F5F5F5F5F5F5F5F5F5F5F5F5F5F5F5F5F5F5F5F5F5F5F5F5F5F5F5F5F5F5F5
310
F5F5F5F5F5F5F5F5F5F5F5F5F5F5F5F5F5F5F5F5F5F5F5F5F5F5F5F5F5F5F5F5F5F5F5F5F5F5F5F5F5F5F5F5F5F5F5F5F5F5F5F5F5F5F5F5F5F5F5F5F5F5F5F5F5F5F5F5F5F5F5F5F5F5F5F5F5F5F5F5F5F5F5F5F5F5F5F5F5F5F5F5F5F5F5F5F5F5F5F5F5F5F5F5F5F5F5F5F5F5F5F5F5F5F5F5F5F5F5F5F5F5F5F5F5F5F5
310
F5F5F5F5F5F5F5F5F5F5F5F5F5F5F5F5F5F5F5F5F5F5F5F5F5F5F5F5F5F5F5F5F5F5F5F5F5F5F5F5F5F5F5F5F5F5F5F5F5F5F5F5F5F5F5F5F5F5F5F5F5F5F5F5F5F5F5F5F5F5F5F5F5F5F5F5F5F5F5F5F5F5F5F5F5F5F5F5F5F5F5F5F5F5F5F5F5F5F5F5F5F5F5F5F5F5F5F5F5F5F5F5F5F5F5F5F5F5F5F5F5F5F5F5F5F5F5
310
F5F5F5F5F5F5F5F5F5F5F5F5F5F5F5F5F5F5F5F5F5F5F5F5F5F5F5F5F5F5F5F5F5F5F5F5F5F5F5F5F5F5F5F5F5F5F5F5F5F5F5F5F5F5F5F5F5F5F5F5F5F5F5F5F5F5F5F5F5F5F5F5F5F5F5F5F5F5F5F5F5F5F5F5F5F5F5F5F5F5F5F5F5F5F5F5F5F5F5F5F5F5F5F5F5F5F5F5F5F5F5F5F5F5F5F5F5F5F5F5F5F5F5F5F5F5F5
310
F5F5F5F5F5F5F5F5F5F5F5F5F5F5F5F5F5F5F5F5F5F5F5F5F5F5F5F5F5F5F5F5F5F5F5F5F5F5F5F5F5F5F5F5F5F5F5F5F5F5F5F5F5F5F5F5F5F5F5F5F5F5F5F5F5F5F5F5F5F5F5F5F5F5F5F5F5F5F5F5F5F5F5F5F5F5F5F5F5F5F5F5F5F5F5F5F5F5F5F5F5F5F5F5F5F5F5F5F5F5F5F5F5F5F5F5F5F5F5F5F5F5F5F5F5F5F5
310
F5F5F5F5F5F5F5F5F5F5F5F5F5F5F5F5F5F5F5F5F5F5F5F5F5F5F5F5F5F5F5F5F5F5F5F5F5F5F5F5F5F5F5F5F5F5F5F5F5F5F5F5F5F5F5F5F5F5F5F5F5F5F5F5F5F5F5F5F5F5F5F5F5F5F5F5F5F5F5F5F5F5F5F5F5F5F5F5F5F5F5F5F5F5F5F5F5F5F5F5F5F5F5F5F5F5F5F5F5F5F5F5F5F5F5F5F5F5F5F5F5F5F5F5F5F5F5
310
F5F5F5F5F5F5F5F5F5F5F5F5F5F5F5F5F5F5F5F5F5F5F5F5F5F5F5F5F5F5F5F5F5F5F5F5F5F5F5F5F5F5F5F5F5F5F5F5F5F5F5F5F5F5F5F5F5F5F5F5F5F5F5F5F5F5F5F5F5F5F5F5F5F5F5F5F5F5F5F5F5F5F5F5F5F5F5F5F5F5F5F5F5F5F5F5F5F5F5F5F5F5F5F5F5F5F5F5F5F5F5F5F5F5F5F5F5F5F5F5F5F5F5F5F5F5F5
310
F5F5F5F5F5F5F5F5F5F5F5F5F5F5F5F5F5F5F5F5F5F5F5F5F5F5F5F5F5F5F5F5F5F5F5F5F5F5F5F5F5F5F5F5F5F5F5F5F5F5F5F5F5F5F5F5F5F5F5F5F5F5F5F5F5F5F5F5F5F5F5F5F5F5F5F5F5F5F5F5F5F5F5F5F5F5F5F5F5F5F5F5F5F5F5F5F5F5F5F5F5F5F5F5F5F5F5F5F5F5F5F5F5F5F5F5F5F5F5F5F5F5F5F5F5F5F5
310
F5F5F5F5F5F5F5F5F5F5F5F5F5F5F5F5F5F5F5F5F5F5F5F5F5F5F5F5F5F5F5F5F5F5F5F5F5F5F5F5F5F5F5F5F5F5F5F5F5F5F5F5F5F5F5F5F5F5F5F5F5F5F5F5F5F5F5F5F5F5F5F5F5F5F5F5F5F5F5F5F5F5F5F5F5F5F5F5F5F5F5F5F5F5F5F5F5F5F5F5F5F5F5F5F5F5F5F5F5F5F5F5F5F5F5F5F5F5F5F5F5F5F5F5F5F5F5
310
F5F5F5F5F5F5F5F5F5F5F5F5F5F5F5F5F5F5F5F5F5F5F5F5F5F5F5F5F5F5F5F5F5F5F5F5F5F5F5F5F5F5F5F5F5F5F5F5F5F5F5F5F5F5F5F5F5F5F5F5F5F5F5F5F5F5F5F5F5F5F5F5F5F5F5F5F5F5F5F5F5F5F5F5F5F5F5F5F5F5F5F5F5F5F5F5F5F5F5F5F5F5F5F5F5F5F5F5F5F5F5F5F5F5F5F5F5F5F5F5F5F5F5F5F5F5F5
310
F5F5F5F5F5F5F5F5F5F5F5F5F5F5F5F5F5F5F5F5F5F5F5F5F5F5F5F5F5F5F5F5F5F5F5F5F5F5F5F5F5F5F5F5F5F5F5F5F5F5F5F5F5F5F5F5F5F5F5F5F5F5F5F5F5F5F5F5F5F5F5F5F5F5F5F5F5F5F5F5F5F5F5F5F5F5F5F5F5F5F5F5F5F5F5F5F5F5F5F5F5F5F5F5F5F5F5F5F5F5F5F5F5F5F5F5F5F5F5F5F5F5F5F5F5F5F5
310
F5F5F5F5F5F5F5F5F5F5F5F5F5F5F5F5F5F5F5F5F5F5F5F5F5F5F5F5F5F5F5F5F5F5F5F5F5F5F5F5F5F5F5F5F5F5F5F5F5F5F5F5F5F5F5F5F5F5F5F5F5F5F5F5F5F5F5F5F5F5F5F5F5F5F5F5F5F5F5F5F5F5F5F5F5F5F5F5F5F5F5F5F5F5F5F5F5F5F5F5F5F5F5F5F5F5F5F5F5F5F5F5F5F5F5F5F5F5F5F5F5F5F5F5F5F5F5
310
F5F5F5F5F5F5F5F5F5F5F5F5F5F5F5F5F5F5F5F5F5F5F5F5F5F5F5F5F5F5F5F5F5F5F5F5F5F5F5F5F5F5F5F5F5F5F5F5F5F5F5F5F5F5F5F5F5F5F5F5F5F5F5F5F5F5F5F5F5F5F5F5F5F5F5F5F5F5F5F5F5F5F5F5F5F5F5F5F5F5F5F5F5F5F5F5F5F5F5F5F5F5F5F5F5F5F5F5F5F5F5F5F5F5F5F5F5F5F5F5F5F5F5F5F5F5F5
310
F5F5F5F5F5F5F5F5F5F5F5F5F5F5F5F5F5F5F5F5F5F5F5F5F5F5F5F5F5F5F5F5F5F5F5F5F5F5F5F5F5F5F5F5F5F5F5F5F5F5F5F5F5F5F5F5F5F5F5F5F5F5F5F5F5F5F5F5F5F5F5F5F5F5F5F5F5F5F5F5F5F5F5F5F5F5F5F5F5F5F5F5F5F5F5F5F5F5F5F5F5F5F5F5F5F5F5F5F5F5F5F5F5F5F5F5F5F5F5F5F5F5F5F5F5F5F5
310
F5F5F5F5F5F5F5F5F5F5F5F5F5F5F5F5F5F5F5F5F5F5F5F5F5F5F5F5F5F5F5F5F5F5F5F5F5F5F5F5F5F5F5F5F5F5F5F5F5F5F5F5F5F5F5F5F5F5F5F5F5F5F5F5F5F5F5F5F5F5F5F5F5F5F5F5F5F5F5F5F5F5F5F5F5F5F5F5F5F5F5F5F5F5F5F5F5F5F5F5F5F5F5F5F5F5F5F5F5F5F5F5F5F5F5F5F5F5F5F5F5F5F5F5F5F5F5
310
F5F5F5F5F5F5F5F5F5F5F5F5F5F5F5F5F5F5BEBEBEBEBEBEBEBEBEBEBEBEBEBEBEBEBEBEBEBEBEBEBEBEBEBEBEBEBEBEBEBEBEBEBEBEBEBEBEBEBEBEBEBEBEBEBEBEBEBEBEBEBEBEBEBEBEBEBEBEBEBEBEBEBEBEBEBEBEBEBEBEBEBEBEBEBEBEBEBEBEBEBEBEBEBEBEBEBEBEBEBEBEBEBEBEBEBEBEBEBEBEBEBEBEBEBEBEBE
310
BEBEBEBEBEBEBEBEBEBEBEBEBEBEBEBEBEBEBEBEBEBEBEBEBEBEBEBEBEBEBEBEBEBEBEBEBEBEBEBEBEBEBEBEBEBEBEF5F5F5F5F5F5F5F5F5F5F5F5F5F5F5F5F5F5F5F5F5F5F5F5F5F5F5F5F5F5F5F5F5F5F5F5F5F5F5F5F5F5F5F5F5F5F5F5F5F5F5F5F5F5F5F5F5F5F5F5F5F5F5F5F5F5F5F5F5F5F5F5F5F5F5F5F5F5F5F5
310
F5F5F5F5F5F5F5F5F5F5F5F5F5F5F5F5F5F5F5F5BEF5F5F5F5F5F5F5F5F5F5F5F5F5F5F5F5F5F5F5F5F5F5F5F5F5F5F5F5F5F5F5F5F5F5F5F5F5F5F5F5F5F5F5F5F5F5F5F5F5F5F5F5F5F5F5F5F5F5F5F5F5F5F5F5F5F5F5F5F5F5F5F5F5F5F5F5F5F5F5F5F5F5F5F5F5F5F5F5F5F5F5F5F5F5F5F5F5F5F5F5F5F5F5F5F5F5
310
F5F5F5F5F5F5F5F5F5F5F5F5F5F5F5F5F5F5F5F5F5F5F5F5F5F5F5F5F5F5F5F5F5F5F5F5F5F5F5F5F5F5F5F5F5F5F5F5BEF5F5F5F5F5F5F5F5F5F5F5F5F5F5F5F5F5F5F5F5F5F5F5F5F5F5F5F5F5F5F5F5F5F5F5F5F5F5F5F5F5F5F5F5F5F5F5F5F5F5F5F5F5F5F5F5F5F5F5F5F5F5F5F5F5F5F5F5F5F5F5F5F5F5F5F5F5F5
310
F5F5F5F5F5F5F5F5F5F5F5F5F5F5F5F5F5F5F5F5F5F5BEF5F5F5F5F5F5F5F5F5F5F5F5F5F5F5F5F5F5F5F5F5F5F5F5F5F5F5F5F5F5F5F5F5F5F5F5F5F5F5F5F5F5F5F5F5F5F5F5F5F5F5F5F5F5F5F5F5F5F5F5F5F5F5F5F5F5F5F5F5F5F5F5F5F5F5F5F5F5F5F5F5F5F5F5F5F5F5F5F5F5F5F5F5F5F5F5F5F5F5F5F5F5F5F5
310
F5F5F5F5F5F5F5F5F5F5F5F5F5F5F5F5F5F5F5F5F5F5F5F5F5F5F5F5F5F5F5F5F5F5F5F5F5F5F5F5F5F5F5F5F5F5F5F5F5F5BEF5F5F5F5F5F5F5F5F5F5F5F5F5F5F5F5F5F5F5F5F5F5F5F5F5F5F5F5F5F5F5F5F5F5F5F5F5F5F5F5F5F5F5F5F5F5F5F5F5F5F5F5F5F5F5F5F5F5F5F5F5F5F5F5F5F5F5F5F5F5F5F5F5F5F5F5
310
F5F5F5F5F5F5F5F5F5F5F5F5F5F5F5F5F5F5F5F5F5F5F5F5BEF5F5F5F5F5F5F5F5F5F5F5F5F5F5F5F5F5F5F5F5F5F5F5F5F5F5F5F5F5F5F5F5F5F5F5F5F5F5F5F5F5F5F5F5F5F5F5F5F5F5F5F5F5F5F5F5F5F5F5F5F5F5F5F5F5F5F5F5F5F5F5F5F5F5F5F5F5F5F5F5F5F5F5F5F5F5F5F5F5F5F5F5F5F5F5F5F5F5F5F5F5F5
310
F5F5F5F5F5F5F5F5F5F5F5F5F5F5F5F5F5F5F5F5F5F5F5F5F5F5F5F5F5F5F5F5F5F5F5F5F5F5F5F5F5F5F5F5F5F5F5F5F5F5F5F5BEF5F5F5F5F5F5F5F5F5F5F5F5F5F5F5F5F5F5F5F5F5F5F5F5F5F5F5F5F5F5F5F5F5F5F5F5F5F5F5F5F5F5F5F5F5F5F5F5F5F5F5F5F5F5F5F5F5F5F5F5F5F5F5F5F5F5F5F5F5F5F5F5F5F5
310
F5F5F5F5F5F5F5F5F5F5F5F5F5F5F5F5F5F5F5F5F5F5F5F5F5F5BEF5F5F5F5F5F5F5F5F5F5F5F5F5F5F5F5F5F5F5F5F5F5F5F5F5F5F5F5F5F5F5F5F5F5F5F5F5F5F5F5F5F5F5F5F5F5F5F5F5F5F5F5F5F5F5F5F5F5F5F5F5F5F5F5F5F5F5F5F5F5F5F5F5F5F5F5F5F5F5F5F5F5F5F5F5F5F5F5F5F5F5F5F5F5F5F5F5F5F5F5
310
F5F5F5F5F5F5F5F5F5F5F5F5F5F5F5F5F5F5F5F5F5F5F5F5F5F5F5F5F5F5F5F5F5F5F5F5F5F5F5F5F5F5F5F5F5F5F5F5F5F5F5F5F5F5BEF5F5F5F5F5F5F5F5F5F5F5F5F5F5F5F5F5F5F5F5F5F5F5F5F5F5F5F5F5F5F5F5F5F5F5F5F5F5F5F5F5F5F5F5F5F5F5F5F5F5F5F5F5F5F5F5F5F5F5F5F5F5F5F5F5F5F5F5F5F5F5F5
310
F5F5F5F5F5F5F5F5F5F5F5F5F5F5F5F5F5F5F5F5F5F5F5F5F5F5F5F5BEF5F5F5F5F5F5F5F5F5F5F5F5F5F5F5F5F5F5F5F5F5F5F5F5F5F5F5F5F5F5F5F5F5F5F5F5F5F5F5F5F5F5F5F5F5F5F5F5F5F5F5F5F5F5F5F5F5F5F5F5F5F5F5F5F5F5F5F5F5F5F5F5F5F5F5F5F5F5F5F5F5F5F5F5F5F5F5F5F5F5F5F5F5F5F5F5F5F5
310
F5F5F5F5F5F5F5F5F5F5F5F5F5F5F5F5F5F5F5F5F5F5F5F5F5F5F5F5F5F5F5F5F5F5F5F5F5F5F5F5F5F5F5F5F5F5F5F5F5F5F5F5F5F5F5F5BEF5F5F5F5F5F5F5F5F5F5F5F5F5F5F5F5F5F5F5F5F5F5F5F5F5F5F5F5F5F5F5F5F5F5F5F5F5F5F5F5F5F5F5F5F5F5F5F5F5F5F5F5F5F5F5F5F5F5F5F5F5F5F5F5F5F5F5F5F5F5
310
F5F5F5F5F5F5F5F5F5F5F5F5F5F5F5F5F5F5F5F5F5F5F5F5F5F5F5F5F5F5BEF5F5F5F5F5F5F5F5F5F5F5F5F5F5F5F5F5F5F5F5F5F5F5F5F5F5F5F5F5F5F5F5F5F5F5F5F5F5F5F5F5F5F5F5F5F5F5F5F5F5F5F5F5F5F5F5F5F5F5F5F5F5F5F5F5F5F5F5F5F5F5F5F5F5F5F5F5F5F5F5F5F5F5F5F5F5F5F5F5F5F5F5F5F5F5F5
310
F5F5F5F5F5F5F5F5F5F5F5F5F5F5F5F5F5F5F5F5F5F5F5F5F5F5F5F5F5F5F5F5F5F5F5F5F5F5F5F5F5F5F5F5F5F5F5F5F5F5F5F5F5F5F5F5F5F5BEF5F5F5F5F5F5F5F5F5F5F5F5F5F5F5F5F5F5F5F5F5F5F5F5F5F5F5F5F5F5F5F5F5F5F5F5F5F5F5F5F5F5F5F5F5F5F5F5F5F5F5F5F5F5F5F5F5F5F5F5F5F5F5F5F5F5F5F5
310
F5F5F5F5F5F5F5F5F5F5F5F5F5F5F5F5F5F5F5F5F5F5F5F5F5F5F5F5F5F5F5F5BEF5F5F5F5F5F5F5F5F5F5F5F5F5F5F5F5F5F5F5F5F5F5F5F5F5F5F5F5F5F5F5F5F5F5F5F5F5F5F5F5F5F5F5F5F5F5F5F5F5F5F5F5F5F5F5F5F5F5F5F5F5F5F5F5F5F5F5F5F5F5F5F5F5F5F5F5F5F5F5F5F5F5F5F5F5F5F5F5F5F5F5F5F5F5
310
F5F5F5F5F5F5F5F5F5F5F5F5F5F5F5F5F5F5F5F5F5F5F5F5F5F5F5F5F5F5F5F5F5F5F5F5F5F5F5F5F5F5F5F5F5F5F5F5F5F5F5F5F5F5F5F5F5F5F5F5BEF5F5F5F5F5F5F5F5F5F5F5F5F5F5F5F5F5F5F5F5F5F5F5F5F5F5F5F5F5F5F5F5F5F5F5F5F5F5F5F5F5F5F5F5F5F5F5F5F5F5F5F5F5F5F5F5F5F5F5F5F5F5F5F5F5F5
310
F5F5F5F5F5F5F5F5F5F5F5F5F5F5F5F5F5F5F5F5F5F5F5F5F5F5F5F5F5F5F5F5F5F5BEF5F5F5F5F5F5F5F5F5F5F5F5F5F5F5F5F5F5F5F5F5F5F5F5F5F5F5F5F5F5F5F5F5F5F5F5F5F5F5F5F5F5F5F5F5F5F5F5F5F5F5F5F5F5F5F5F5F5F5F5F5F5F5F5F5F5F5F5F5F5F5F5F5F5F5F5F5F5F5F5F5F5F5F5F5F5F5F5F5F5F5F5
310
F5F5F5F5F5F5F5F5F5F5F5F5F5F5F5F5F5F5F5F5F5F5F5F5F5F5F5F5F5F5F5F5F5F5F5F5F5F5F5F5F5F5F5F5F5F5F5F5F5F5F5F5F5F5F5F5F5F5F5F5F5F5BEF5F5F5F5F5F5F5F5F5F5F5F5F5F5F5F5F5F5F5F5F5F5F5F5F5F5F5F5F5F5F5F5F5F5F5F5F5F5F5F5F5F5F5F5F5F5F5F5F5F5F5F5F5F5F5F5F5F5F5F5F5F5F5F5
310
F5F5F5F5F5F5F5F5F5F5F5F5F5F5F5F5F5F5F5F5F5F5F5F5F5F5F5F5F5F5F5F5F5F5F5F5BEF5F5F5F5F5F5F5F5F5F5F5F5F5F5F5F5F5F5F5F5F5F5F5F5F5F5F5F5F5F5F5F5F5F5F5F5F5F5F5F5F5F5F5F5F5F5F5F5F5F5F5F5F5F5F5F5F5F5F5F5F5F5F5F5F5F5F5F5F5F5F5F5F5F5F5F5F5F5F5F5F5F5F5F5F5F5F5F51CF5
310
1CF5F51CF51C1CF5F5F5F5F5F5F5F5F5F5F5F5F5F5F5F5F5F5F5F5F5F5F5F5F5F5F5F5F5F5F5F5F5F5F5F5F5F5F5F5F5F5F5F5F5F5F5F5F5F5F5F5F5F5F5F5F5BEF5F5F5F5F5F5F5F5F5F5F5F5F5F5F5F5F5F5F5F5F5F5F5F5F5F5F5F5F5F5F5F5F5F5F5F5F5F5F5F5F5F5F5F5F5F5F5F5F5F5F5F5F5F5F5F5F5F5F5F5F5F5
310
F5F5F5F5F5F5F5F5F5F5F5F5F5F5F5F5F5F5F5F5F5F5F5F5F5F5F5F5F5F5F5F5F5F5F5F5F5F5BEF5F5F5F5F5F5F5F5F5F5F5F5F5F5F5F5F5F5F5F5F5F5F5F5F5F5F5F5F5F5F5F5F5F5F5F5F5F5F5F5F5F5F5F5F5F5F5F5F5F5F5F5F5F5F5F5F5F5F5F5F5F5F5F5F5F5F5F5F5F5F5F5F5F5F5F5F5F5F5F52727272727271C1C
310
1C1C1C1C1C1C1C1C1C1C1CF5F5F5F51C1C1C1C1C1C1C1C1C1C1C1C1C1C1C1C1C1C1C1C1CF5F5F5F5F5F5F5F5F5F5F5F5F5F5F5F5F5F5F5F5F5F5F5F5F5F5F5F5F5F5BEF5F5F5F5F5F5F5F5F5F5F5F5F5F5F5F5F5F5F5F5F5F5F5F5F5F5F5F5F5F5F5F5F5F5F5F5F5F5F5F5F5F5F5F5F5F5F5F5F5F5F5F5F5F5F5F5F5F5F5F5
310
F5F5F5F5F5F5F5F5F5F5F5F5F5F5F5F5F5F5F5F5F5F5F5F5F5F5F5F5F5F5F5F5F5F5F5F5F5F5F5F5BEF5F5F5F5F5F5F5F5F5F5F5F5F5F5F5F5F5F5F5F5F5F5F5F5F5F5F5F5F5F5F5F5F5F5F5F5F5F5F5F5F5F5F5F5F5F5F5F5F5F5F5F5F5F5F5F5F5F5F5F5F5F5F5F5F5F5F5F5F5F5F5F5F5F5F5F5F5F5F5F5272727272727
310
F5F5F5F51CF5F51CF5F5F5F5F5F5F5F5F51CF5F52727272727272727272727272727272727F5F5F5F5F5F5F5F5F5F5F5F5F5F5F5F5F5F5F5F5F5F5F5F5F5F5F5F5F5F5F5BEF5F5F5F5F5F5F5F5F5F5F5F5F5F5F5F5F5F5F5F5F5F5F5F5F5F5F5F5F5F5F5F5F5F5F5F5F5F5F5F5F5F5F5F5F5F5F5F5F5F5F5F5F5F5F5F5F5F5
310
F5F5F5F5F5F5F5F5F5F5F5F5F5F5F5F5F5F5F5F5F5F5F5F5F5F5F5F5F5F5F5F5F5F5F5F5F5F5F5F5F5F5BEF5F5F5F5F5F5F5F5F5F5F5F5F5F5F5F5F5F5F5F5F5F5F5F5F5F5F519F5F5F5F5F5F5F5F5F5F5F5F5F5F5F5F5F5F5F5F5F5F5F5F5F5F5F5F5F5F5F5F5F5F5F5F5F5F5F5F5F5F5F5F5F5F5F5F5F5F5F5F527272727
310
2727F5F5F5F51CF5F51CF5F5F5F5F5F5F5F51CF5F5F52727272727272727272727272727272727F5F5F5F5F5F5F5F5F5F519F5F5F5F5F5F5F5F5F5F5F5F5F5F5F5F5F5F5F5F5BEF5F5F5F5F5F5F5F5F5F5F5F5F5F5F5F5F5F5F5F5F5F5F5F5F5F5F5F5F5F5F5F5F5F5F5F5F5F5F5F5F5F5F5F5F5F5F5F5F5F5F5F5F5F5F5F5
310
F5F5F5F5F5F5F5F5F5F5F5F5F5F5F5F5F5F5F5F5F5F5F5F5F5F5F5F5F5F5F5F5F5F5F5F5F5F5F5F5F5F5F5F5BEF5F5F5F5F5F5F5F5F5F5F5F5F5F5F5F5F5F5F5F5F5F5F5F5F5F5F519F5F5F5F5F5F5F5F5F5F5F5F5F5F5F5F5F5F5F5F5F5F5F5F5F5F5F5F5F5F5F5F5F5F5F5F5F5F5F5F5F5F5F5F5F5F5F5F5F5F5F5F52727
310
27272727F5F5F5F51CF5F51CF5F5F5F5F5F5F5F51CF5F5F52727272727272727272727272727272727F5F5F5F5F5F5F5F5F5F519F5F5F5F5F5F5F5F5F5F5F5F5F5F5F5F5F5F5F5F5BEF5F5F5F5F5F5F5F5F5F5F5F5F5F5F5F5F5F5F5F5F5F5F5F5F5F5F5F5F5F5F5F5F5F5F5F5F5F5F5F5F5F5F5F5F5F5F5F5F5F5F5F5F5F5
310
F5F5F5F5F5F5F5F5F5F5F5F5F5F5F5F5F5F5F5F5F5F5F5F5F5F5F5F5F5F5F5F5F5F5F5F5F5F5F5F5F5F5F5F5F5F5BEF5F5F5F5F5F5F5F5F5F5F5F5F5F5F5F5F5F5F5F5F5F5F5F5F5F5F519F5F5F5F5F5F5F5F5F5F5F5F5F5F5F5F5F5F5F5F5F5F5F5F5F5F5F5F5F5F5F5F5F5F5F5F5F5F5F5F5F5F5F5F5F5F5F5F5F5F5F5F5
310
272727272727F5F5F5F51CF5F51CF5F5F5F5F5F5F51CF5F5F5F52727272727272727272727272727272727F5F5F5F5F5F5F5F5F5F519F5F5F5F5F5F5F5F5F5F5F5F5F5F5F5F5F5F5F5F5BEF5F5F5F5F5F5F5F5F5F5F5F5F5F5F5F5F5F5F5F5F5F5F5F5F5F5F5F5F5F5F5F5F5F5F5F5F5F5F5F5F5F5F5F5F5F5F5F5F5F5F5F5
310
F5F5F5F5F5F5F5F5F5F5F5F5F5F5F5F5F5F5F5F5F5F5F5F5F5F5F5F5F5F5F5F5F5F5F5F5F5F5F5F5F5F5F5F5F5F5F5F5BEF5F5F5F5F5F5F5F5F5F5F5F5F5F5F5F5F5F5F5F5F5F5F5F5F5F5F519F5F5F5F5F5F5F5F5F5F5F5F5F5F5F5F5F5F5F5F5F5F5F5F5F5F5F5F5F5F5F5F5F5F5F5F5F5F5F5F5F5F5F5F5F5F5F5F5F5F5
310
F5F5F5F5F5F5F5F5F5F5F5F51CF5F51CF5F5F5F5F5F5F51CF5F5F5F5F5F5F5F5F5F5F5F5F5F5F5F5F5F5F5F5F5F5F5F5F5F5F5F5F5F5F519F5F5F5F5F5F5F5F5F5F5F5F5F5F5F5F5F5F5F5F5BEF5F5F5F5F5F5F5F5F5F5F5F5F5F5F5F5F5F5F5F5F5F5F5F5F5F5F5F5F5F5F5F5F5F5F5F5F5F5F5F5F5F5F5F5F5F5F5F5F5F5
310
F5F5F5F5F5F5F5F5F5F5F5F5F5F5F5F5F5F5F5F5F5F5F5F5F5F5F5F5F5F5F5F5F5F5F5F5F5F5F5F5F5F5F5F5F5F5F5F5F5F5BEF5F5F5F5F5F5F5F5F5F5F5F5F5F5F5F5F5F5F5F5F5F5F5F5F5F5F519F5F5F5F5F5F5F5F5F5F5F5F5F5F5F5F5F5F5F5F5F5F5F5F5F5F5F5F5F5F5F5F5F5F5F5F5F5F5F5F5F5F5F5F5F5F5F5F5
310
F5F5F5F5F5F5F5F5F5F5F5F5F5F51CF5F51CF5F5F5F5F5F51CF5F5F5F5F5F5F5F5F5F5F5F5F5F5F5F5F5F5F5F5F5F5F5F5F5F5F5F5F5F5F5F519F5F5F5F5F5F5F5F5F5F5F5F5F5F5F5F5F5F5F5F5BEF5F5F5F5F5F5F5F5F5F5F5F5F5F5F5F5F5F5F5F5F5F5F5F5F5F5F5F5F5F5F5F5F5F5F5F5F5F5F5F5F5F5F5F5F5F5F5F5
310
F5F5F5F5F5F5F5F5F5F5F5F5F5F5F5F5F5F5F5F5F5F5F5F5F5F5F5F5F5F5F5F5F5F5F5F5F5F5F5F5F5F5F5F5F5F5F5F5F5F5F5F5BEF5F5F5F5F5F5F5F5F5F5F5F5F5F5F5F5F5F5F5F5F5F5E2E2E2E2E219E2E2E2E2F5F5F5F5F5F5F5F5F5F5F5F5F5F5F5F5F5F5F5F5F5F5F5F5F5F5F5F5F5F5F5F5F5F5F5F5F5F5F5F5F5F5
310
F5E2E2E2E2E2E2E2E2E2E2E2E2E2E2E21C1C1C1C1C1C1C1C1C1C1C1C1C1C1C1C1C1C1C1C1CF5F5F5F5F5F5F5F5F5F5F5F5F5F5F5F5F5E2E2E2E2E219E2E2E2E2E2F5F5F5F5F5F5F5F5F5F5F5F5F5F5F5BEF5F5F5F5F5F5F5F5F5F5F5F5F5F5F5F5F5F5F5F5F5F5F5F5F5F5F5F5F5F5F5F5F5F5F5F5F5F5F5F5F5F5F5F5F5F5
310
F5F5F5F5F5F5F5F5F5F5F5F5F5F5F5F5F5F5F5F5F5F5F5F5F5F5F5F5F5F5F5F5F5F5F5F5F5F5F5F5F5F5F5F5F5F5F5F5F5F5F5F5F5F5BEF5F5F5F5F5F5F5F5F5F5F5F5F5F5F5F5F5F5F5F5E2E2E2E2E2E2E219E2E2E2E2E2E2E2F5F5F5F5F5F5F5F5F5F5F5F5F5F5F5F5F5F5F5F5F5F5F5F5F5F5F5F5F5F5F5F5F5F5F5F5F5
310
E2E2E2E2E2F5F5F5F5F5F5F5F5F5F5F5E2E21CF5F51CF5F5F5F5F51CF5F5F5F5F5F5F5F5F51CF5F5F5F5F5F5F5F5F5F5F5F5F5F5F5F5E2E2E2F5F5F5F519F5F5F5F5F5E2E2F5F5F5F5F5F5F5F5F5F5F5F5F5BEF5F5F5F5F5F5F5F5F5F5F5F5F5F5F5F5F5F5F5F5F5F5F5F5F5F5F5F5F5F5F5F5F5F5F5F5F5F5F5F5F5F5F5F5
310
F5F5F5F5F5F5F5F5F5F5F5F5F5F5F5F5F5F5F5F5F5F5F5F5F5F5F5F5F5F5F5F5F5F5F5F5F5F5F5F5F5F5F5F5F5F5F5F5F5F5F5F5F5F5F5F5BEF5F5F5F5F5F5F5F5F5F5F5F5F5F5F5F5F5F5E2E2E2E2F5F5F5F5F519F5F5F5F5E2E2E2E2E2F5F5F5F5F5F5F5F5F5F5F5F5F5F5F5F5F5F5F5F5F5F5F5F5F5F5F5F5F5F5F5F5F5
310
F5F5E2F5E2E2E2F5F5F5F5F5F5F5F5F5F5F5E2E2E2F5F51CF5F5F5F5F51CF5F5F5F5F5F5F5F5F51CF5F5F5F5F5F5F5F5F5F5F5F5F5F5F5E2E2F5F5E2E2E2E219E2E2E2E2F5F5F5E2E2F5F5F5F5F5F5F5F5F5F5F5BEF5F5F5F5F5F5F5F5F5F5F5F5F5F5F5F5F5F5F5F5F5F5F5F5F5F5F5F5F5F5F5F5F5F5F5F5F5F5F5F5F5F5
310
F5F5F5F5F5F5F5F5F5F5F5F5F5F5F5F5F5F5F5F5F5F5F5F5F5F5F5F5F5F5F5F5F5F5F5F5F5F5F5F5F5F5F5F5F5F5F5F5F5F5F5F5F5F5F5F5F5F5BEF5F5F5F5F5F5F5F5F5F5F5F5F5F5F5F5E21CE2E2F5F5F5F5F5F5F519F5F5F5F5F5F5E2E2E2E2F5F5F5F5F5F5F5F5F5F5F5F5F5F5F5F5F5F5F5F5F5F5F5F5F5F5F5F5F5F5
310
F5F5F5F5E2F5E2E2E2F5F5F5F5F5F5F5F5F5F5F5E2E2E2F5F51CF5F5F5F51CF5F5F5F5F5F5F5F5F5F51CF5F5F5F5F5F5F5F5F5F5F5F5F5E2E2F5F5E2E2E2F5F5F519E2F5F5F5E2E2F5F5F5E2F5F5F5F5F5F5F5F5F5F5BEF5F5F5F5F5F5F5F5F5F5F5F5F5F5F5F5F5F5F5F5F5F5F5F5F5F5F5F5F5F5F5F5F5F5F5F5F5F5F5F5
310
F5F5F5F5F5F5F5F5F5F5F5F5F5F5F5F5F5F5F5F5F5F5F5F5F5F5F5F5F5F5F5F5F5F5F5F5F5F5F5F5F5F5F5F5F5F5F5F5F5F5F5F5F5F5F5F5F5F5F5F5BEF5F5F5F5F5F5F5F5F5F5F5F5F5F5F5F5E2E21C1CF5F5F5191919191919191919F5F5F5F5E2E2F5F5F5F5F5F5F5F5F5F5F5F5F5F5F5F5F5F5F5F5F5F5F5F5F5F5F5F5
310
F5F5F5F5F5F5E2F5E2E2E2F5F5F5F5F5F5F5F5F5F5F5E2E2E2F5F51CF5F5F5F51CF5F5F5F5F5F5F5F5F5F51CF5F5F5F5F5F5F5F5F5F5F5F5E2E2F5F5E2E2F5F5F5F5E219E2F5F5F5F5F5E2E2F5F5E2F5F5F5F5F5F5F5F5F5BEF5F5F5F5F5F5F5F5F5F5F5F5F5F5F5F5F5F5F5F5F5F5F5F5F5F5F5F5F5F5F5F5F5F5F5F5F5F5
310
F5F5F5F5F5F5F5F5F5F5F5F5F5F5F5F5F5F5F5F5F5F5F5F5F5F5F5F5F5F5F5F5F5F5F5F5F5F5F5F5F5F5F5F5F5F5F5F5F5F5F5F5F5F5F5F5F5F5F5F5F5F5BEF5F5F5F5F5F5F5F5F51C1CF5F5F5F5E2E2F51C1C1C1919F5F5F5F519F5F5F51919F5F5F5F5E2E2F5F5F5F5F5F5F5F5F5F5F5F5F5F5F5F5F5F5F5F5F5F5F5F5F5
310
F5F5F5F5F5F5F5F5E2F5E2E2E2F5F5F5F5F5F5F5F5F5F5F5E2E2E2F5F51CF5F5F51CF5F5F5F5F5F5F5F5F5F5F51CF5F5F5F5F5F5F5F5F5F5F5F5E2F5F5E2F5F5F5F5F5F5E219E2F5F5F5F5F5F5E2E2F5F5E2F5F5F5F5F5F5F5F5BEF5F5F5F5F5F5F5F5F5F5F5F5F5F5F5F5F5F5F5F5F5F5F5F5F5F5F5F5F5F5F5F5F5F5F5F5
310
F5F5F5F5F5F5F5F5F5F5F5F5F5F5F5F5F5F5F5F5F5F5F5F5F5F5F5F5F5F5F5F5F5F5F5F5F5F5F5F5F5F5F5F5F5F5F5F5F5F5F5F5F5F5F5F5F5F5F5F5F5F5F5F5BEF5F5F5F5F5F5F5F5F51C1C1C1CF5E2E2E2F5F51C1CF5F5F5F5F5F519F5F5F5F5F51919F5F5E2E2E2F519F5F5F5F5F5F5F5F5F5F5F5F5F5F5F5F5F5F5F5F5
310
F5F5F5F5F5F5F5F5F5F5E2F5E2E2E2F5F5F5F5F5F5F5F5F5F5F5E2E2E2F5F51CF5F5F51CF5F5F5F5F5F5F5F5F5F5F51CF5F5F5F5F5F5F5F5F5F5F5E2F5E2E2F5F5F5F5F5F5F5F519F5F5F5F5F5F5F5F5F5E2F5F5E2F5F5F5F5F5F5F5BEF5F5F5F5F5F5F5F5F5F5F5F5F5F5F5F5F5F5F5F5F5F5F5F5F5F5F5F5F5F5F5F5F5F5
310
F5F5F5F5F5F5F5F5F5F5F5F5F5F5F5F5F5F5F5F5F5F5F5F5F5F5F5F5F5F5F5F5F5F5F5F5F5F5F5F5F5F5F5F5F5F5F5F5F5F5F5F5F5F5F5F5F5F5F5F5F5F5F5F5F5F5BEF5F5F5F5F5F5F5F51C1CF5F5F51919E2F5F51919F51CF5F5F5F5F519F5F5F5F5F5F5F519F5F5E21919F5F5F5F5F5F5F5F5F5F5F5F5F5F5F5F5F5F5F5
310
F5F5F5F5F5F5F5F5F5F5F5F5E2F5E2E2E2F5F5F5F5F5F5F5F5F5F5F5E2E2E2F5F51CF5F51CF5F5F5F5F5F5F5F5F5F5F5F51CF5F5F5F5F5F5F5F5F5F5E2F5F5E2F5F5F5F5F5F5F5F5F519F5F5F5F5F5F5F5F5F5F5E2F5E2E2F5F5F5F5F5F5BEF5F5F5F5F5F5F5F5F5F5F5F5F5F5F5F5F5F5F5F5F5F5F5F5F5F5F5F5F5F5F5F5
310
F5F5F5F5F5F5F5F5F5F5F5F5F5F5F5F5F5F5F5F5F5F5F5F5F5F5F5F5F5F5F5F5F5F5F5F5F5F5F5F5F5F5F5F5F5F5F5F5F5F5F5F5F5F5F5F5F5F5F5F5F5F5F5F5F5F5F5F5BEF5F5F5F5F5F5F5F51CF5F5F5F5E2E219E21919F5F5F51CF5F5F5F519F5F5F5F5F5F5F51919E219E2E2F5F5F5F5F5F5F5F5F5F5F5F5F5F5F5F5F5
310
F5F5F5F5F5F5F5F5F5F5F5F5F5F5E2E2E2E2E2F5F5F5F5F5F5F5F5F5F5F5E2E2E2F5F51CF5F51CF5F5F5F5F5F5F5272727272727F5F5F5F5F5F5F5F5F5F5E2F5E2F5F5F5F5F5F5F5F5F5F519F5F5F5F5F5F5F5F5F5F5E2E2F5E2F5F5F5F5F5F5BEF5F5F5F5F5F5F5F5F5F5F5F5F5F5F5F5F5F5F5F5F5F5F5F5F5F5F5F5F5F5
310
F5F5F5F5F5F5F5F5F5F5F5F5F5F5F5F5F5F5F5F5F5F5F5F5F5F5F5F5F5F5F5F5F5F5F5F5F5F5F5F5F5F5F5F5F5F5F5F5F5F5F5F5F5F5F5F5F5F5F5F5F5F5F5F5F5F5F5F5F5F5BEF5F5F5F5F5F5F5F51CF5F5F5E2E2E2F51919E2F5F5F51CF5F5F5F519F5F5F5F5F5F5F5E21919F5F5E2E2F5F5F5F5F5F5F5F5F5F5F5F5F5F5
310
F5F5F5F5F5F5F5F5F5F5F5F5F5F5F5F5E2F5E2E2E2F5F5F5F5F5F5F5F5F5F5F5E2E2E2F5F51CF51CF5F5F5F5F5F5F5F5272727272727F5F5F5F5F5F5F5F5F5E2F5F5E2F5F5F5F5F5F5F5F5F5F519F5F5F5F5F5F5F5F5F5F5F5E2F5E2E2F5F5F5F5F5BEF5F5F5F5F5F5F5F5F5F5F5F5F5F5F5F5F5F5F5F5F5F5F5F5F5F5F5F5
310
F5F5F5F5F5F5F5F5F5F5F5F5F5F5F5F5F5F5F5F5F5F5F5F5F5F5F5F5F5F5F5F5F5F5F5F5F5F5F5F5F5F5F5F5F5F5F5F5F5F5F5F5F5F5F5F5F5F5F5F5F5F5F5F5F5F5F5F5F5F5F5F5BEF5F5F5F5F5F5F5F51CF5F5F5E2E2F5F519191919F5F5F51CE2E2E219E2E2F5F5F5F5F519E219F5F5E2E2F5F5F52727272727271C1C1C
310
1C1C1C1C1C1C1C1C1C1C1C1C1C1C1C1CE2E2E2E2E2E2E2F5F5F5F5F5F5F5F5F5F5F5E2E2E2E2E2E2E21C1C27272727272727272727272727F5F5F5F5F5F5F5F5F5E2F5E2F5F5F5F5F5F5F5F5F5E2E219E2E2E2F5F5F5F5F5F5F5F5E2E2F5E2F5F5F5F5F5BEF5F5F5F5F5F5F5F5F5F5F5F5F5F5F5F5F5F5F5F5F5F5F5F5F5F5
310
F5F5F5F5F5F5F5F5F5F5F5F5F5F5F5F5F5F5F5F5F5F5F5F5F5F5F5F5F5F5F5F5F5F5F5F5F5F5F5F5F5F5F5F5F5F5F5F5F5F5F5F5F5F5F5F5F5F5F5F5F5F5F5F5F5F5F5F5F5F5F5F5F5F5BEF5F5F5F5F5F5F5F51CF5F5F5E2E2F5F519F5F5F51919F5E21CE2E219E2E2E2E2F51919F5F519F5F5E2E2F5F5F5272727272727F5
310
F5F5F5F5F51CF5F5F5F5F5F5F5F5F5F5F5E2E2F5E2F5E2E2E2F5F5F5F5F5F5F5F5F5F5F5E2E2E2E2F5E21CF5F527272727272727272727272727F5F5F5F5F5F5F5F5F5E2F5E2F5F5F5F5F5F5F5E2E2E2E219E2E2E2E2F5F5F5F5F5F5F5F5E2F5E2F5F5F5F5F5BEF5F5F5F5F5F5F5F5F5F5F5F5F5F5F5F5F5F5F5F5F5F5F5F5
310
F5F5F5F5F5F5F5F5F5F5F5F5F5F5F5F5F5F5F5F5F5F5F5F5F5F5F5F5F5F5F5F5F5F5F5F5F5F5F5F5F5F5F5F5F5F5F5F5F5F5F5F5F5F5F5F5F5F5F5F5F5F5F5F5F5F5F5F5F5F5F5F5F5F5F5F5BEF5F5F5F5F5F5F51CF5F5F5F5E2E2F5F519F5F5F5F5F519E2E21CF519F5E2E21919F5F5F5F5F519F5F5E2E2F5F52727272727
310
27F5F5F5F5F5F51CF5F5F5F5F5F5F5F5F5F5F5E2E2F5E2F5E2E2E2F5F5F5F5F5F5F5F5F5F5F5E2E2E2E2F51C1CF5F52727272727272727272727271CF5F5F5F5F5F5F5F5E2F5F5E2F5F5F5F5F5F5F5E2E2E2F519F5F5E2E2E2F5F5F5F5F5F5F5E2F5E2F5F5F5F5F5BEF5F5F5F5F5F5F5F5F5F5F5F5F5F5F5F5F5F5F5F5F5F5
310
F5F5F5F5F5F5F5F5F5F5F5F5F5F5F5F5F5F5F5F5F5F5F5F5F5F5F5F5F5F5F5F5F5F5F5F5F5F5F5F5F5F5F5F5F5F5F5F5F5F5F5F5F5F5F5F5F5F5F5F5F5F5F5F5F5F5F5F5F5F5F5F5F5F5F5F5F5F5BEF5F5F5F5F5F5F51CF5F5F5E2E2F5F51919F5F5F5F5F5E21919F51C19F51919E2E2F5F5F5F5F519F5F5E2E2F5F5272727
310
272727F5F5F5F5F5F51CF5F5F5F5F5F5F5F5F5F5F5E2E2F5E2F5E2E2E2F5F5F5F5F5F5F5F5F5F5F5E2E2E2E2F51C1CF5F52727272727272727272727271CF5F5F5F5F5F5F5F5E2F5E2F5F5F5F5F5F5F5E2E2E2F5F519F5F5F5E2E2F5F5F5F5F5F5F5E2F5F5E2F5F5F5F5BEF5F5F5F5F5F5F5F5F5F5F5F5F5F5F5F5F5F5F5F5
310
F5F5F5F5F5F5F5F5F5F5F5F5F5F5F5F5F5F5F5F5F5F5F5F5F5F5F5F5F5F5F5F5F5F5F5F5F5F5F5F5F5F5F5F5F5F5F5F5F5F5F5F5F5F5F5F5F5F5F5F5F5F5F5F5F5F5F5F5F5F5F5F5F5F5F5F5F5F5F5F5BEF5F5F5F5F5F5F51CF5F5F5E2E2F5F519E2E2F5F5F5E2E2E2F519191C19F5F5E2E2F5F5F5F5E219F5F5E2E2F5F527
310
272727271CF5F5F5F5F51C1C1C1C1C1C1C1C1CE2E2E2E2E2E2F5E2F5E2E2E2F5F5F5F5F5F5F5F5F5F5F5E2E2E2E2E21CE2F5F527272727271CF527272727271CF5F5F5F5F5F5F5F5E2F5E2F5F5E2F5F5F5F5E2E2F5F5F519E2F5F5E2E2E2F5F5F5E2E2F5E2F5F5E2F5F5F5F5BEF5F5F5F5F5F5F5F5F5F5F5F5F5F5F5F5F5F5
310
F5F5F5F5F5F5F5F5F5F5F5F5F5F5F5F5F5F5F5F5F5F5F5F5F5F5F5F5F5F5F5F5F5F5F5F5F5F5F5F5F5F5F5F5F5F5F5F5F5F5F5F5F5F5F5F5F5F5F5F5F5F5F5F5F5F5F5F5F5F5F5F5F5F5F5F5F5F5F5F5F5F5BEF5F5F5F5F5F5F51CF51919191919191919191919191919191919191C19191919191919191919191919191919
310
1927272727271CF5F5F5F5F5F51CF5F5F5F5F51919191919191919191919191919191919191919191919191919191919191919191919272727271CF527272727271CF5F5F5F5191919191919191919191919191919191919191919191919191919191919191919191919191919F5BEF5F5F5F5F5F5F5F5F5F5F5F5F5F5F5F5
310
F5F5F5F5F5F5F5F5F5F5F5F5F5F5F5F5F5F5F5F5F5F5F5F5F5F5F5F5F5F5F5F5F5F5F5F5F5F5F5F5F5F5F5F5F5F5F5F5F5F5F5F5F5F5F5F5F5F5F5F5F5F5F5F5F5F5F5F5F5F5F5F5F5F5F5F5F5F5F5F5F5F5F5F5BEF5F5F5F5F5F5F51CF5F5F5E2E2F5F519E2E2F5F5F5F5E2E2F5F5E2191CF5E2E2E2F5F5F5F5E219F5F5E2
310
E2F5F527272727271CF5F5F5F5F51C1C1C1C1C1C1C1C1CE2E2E2E2E2E2F5E2F5E2E2E2F5F5F5F5F5F5F5F5F5F5F5E2E2E2E2E2E2E2F5F527272727271CF527272727271CF5F5F5F5F5F5F5F5E2F5E2F5F51CE2E2E2F5E2E2E2F5F519E2F5F5E2E2F5F5F5F5E2E2F5E2F5F5E2F5F5F5F5BEF5F5F5F5F5F5F5F5F5F5F5F5F5F5
310
F5F5F5F5F5F5F5F5F5F5F5F5F5F5F5F5F5F5F5F5F5F5F5F5F5F5F5F5F5F5F5F5F5F5F5F5F5F5F5F5F5F5F5F5F5F5F5F5F5F5F5F5F5F5F5F5F5F5F5F5F5F5F5F5F5F5F5F5F5F5F5F5F5F5F5F5F5F5F5F5F5F5F5F5F5F5BEF5F5F5F5F5F5F51CF5F5F5F5E2E2F5F519F5F5F5F5F5E2E2F5F5F519F51CE2E2F5F5F5F5F5F519F5
310
F5E2E2F5F527272727271CF5F5F5F5F5F51CF5F5F5F5F5F5F51CF5F5F5E2E2F5E2F5E2E2E2F5F5F5F5F5F5F5F5F5F5F5E2E2E2E2F5E2E2F5F527272727271CF527272727271CF5F5F5F5F5F5F5F5E2F5F5E21C1CF5F5E2E2F5E2E2F5F519F5F5E2E2E2F5F5F5F5F5F5F5E2F5E2E2F5F5F5F5BEF5F5F5F5F5F5F5F5F5F5F5F5
310
F5F5F5F5F5F5F5F5F5F5F5F5F5F5F5F5F5F5F5F5F5F5F5F5F5F5F5F5F5F5F5F5F5F5F5F5F5F5F5F5F5F5F5F5F5F5F5F5F5F5F5F5F5F5F5F5F5F5F5F5F5F5F5F5F5F5F5F5F5F5F5F5F5F5F5F5F5F5F5F5F5F5F5F5F5F5F5F5BEF5F5F5F5F5F5F51CF5F5F5F5E2E2F5F519F5F5F5F5F5E2E2E2E2F519F5E21CE2F5F5F5F5F519
310
F5F5F5E2E2F5F5F5F5F5F5F51CF5F5F5F5F5F51CF5F5F5F5F5F5F51CF5F5F5E2E2F5E2F5E2E2E2F5F5F5F5F5F5F5F5F5F5F5E2E2E2E2F5E2E2F5F5F5F5F5F5F51CF527272727271CF5F5F5F5F5F5F5F5E2E2F5E21CE2F5F5F5E2F5E2E2E2F519F5E2E2E2E2F5F5F5F5F5F5F5E2F5E2F5F5F5F5F5BEF5F5F5F5F5F5F5F5F5F5
310
F5F5F5F5F5F5F5F5F5F5F5F5F5F5F5F5F5F5F5F5F5F5F5F5F5F5F5F5F5F5F5F5F5F5F5F5F5F5F5F5F5F5F5F5F5F5F5F5F5F5F5F5F5F5F5F5F5F5F5F5F5F5F5F5F5F5F5F5F5F5F5F5F5F5F5F5F5F5F5F5F5F5F5F5F5F5F5F5F5F5BEF5F5F5F5F5F5F5F51CF5F5F5E2E2F5F519F5F5F5F5F5F5E2E2E2E219E2E2E21CF5F5F5F5
310
F519F5F5E2E2F5F5F5F5F5F5F51C1C1C1C1C1C1C1C1C1C1C1C1C1C1C1C1C1C1C1CE2E2E2E2F5E2E2E2F5F5F5F5F5F5F5F5F5F5F5E2E2E2E2E2E2E21C1C1C1C1C1C1C1C1C27272727271CF5F5F5F5F5F5F5F5F5E2F51CF5E2F5F5E2E2F5F5E2E2E219E2E2E2E2F5F5F5F5F5F5F5F5E2F5E2F5F5F5F5F5BEF5F5F5F5F5F5F5F5
310
F5F5F5F5F5F5F5F5F5F5F5F5F5F5F5F5F5F5F5F5F5F5F5F5F5F5F5F5F5F5F5F5F5F5F5F5F5F5F5F5F5F5F5F5F5F5F5F5F5F5F5F5F5F5F5F5F5F5F5F5F5F5F5F5F5F5F5F5F5F5F5F5F5F5F5F5F5F5F5F5F5F5F5F5F5F5F5F5F5F5F5F5BEF5F5F5F5F52727271CF5F5F5E2E2F5F5F519F5F5F5F5F5F5F5E2E219E2F5F5F51CF5
310
F5F51919F5F5E2E2F5F5F5F5F5F5F5F5F5F5272727272727F5F5F5F5F5F5F51CF5F5F51CF5F5E2F5E2E2E2F5F5F5F5F5F5F5F5F5F5F5E2E2E2E2F5F51CF5F5F5F5F5F5F5F5F5F5F5F5F5F51CF5F5F5F5F5F5F5F5F5E2F51CE2E2E2E2E2F5F5F5F5F5E219E2E2F5F5F5F5F5F5F5F5F5E2F5F5E2F5F5F5F5F5BEF5F5F5F5F5F5
310
F5F5F5F5F5F5F5F5F5F5F5F5F5F5F5F5F5F5F5F5F5F5F5F5F5F5F5F5F5F5F5F5F5F5F5F5F5F5F5F5F5F5F5F5F5F5F5F5F5F5F5F5F5F5F5F5F5F5F5F5F5F5F5F5F5F5F5F5F5F5F5F5F5F5F5F5F5F5F5F5F5F5F5F5F5F5F5F5F5F5F5F5F5F5BEF5F52727272727271CF5F5F5F5E2E2F5F519F5F5F5F5F5F5F5F5F519F5F5F5F5
310
1CF5F5F519F5F5E2E2E2F5F5F5F5F5F5F5F5F5F5272727272727F5F5F5F5F5F5F51CF5F5F51CF5F5E2F5E2E2E2F5F5F5F5F5F5F5F5F5F5F5E2E2E2F5F5F51CF5F5F5F5F5F5F5F5F5F5F5F5F5F51CF5F5F5F5F5F5F5F5F5E21CF5E2F5F5F5F5F5F5F5F5F5F519F5F5F5F5F5F5F5F5F5F5F5E2F5E2F5F5F5F5F5F5BEF5F5F5F5
310
F5F5F5F5F5F5F5F5F5F5F5F5F5F5F5F5F5F5F5F5F5F5F5F5F5F5F5F5F5F5F5F5F5F5F5F5F5F5F5F5F5F5F5F5F5F5F5F5F5F5F5F5F5F5F5F5F5F5F5F5F5F5F5F5F5F5F5F5F5F5F5F5F5F5F5F5F5F5F5F5F5F5F5F5F5F5F5F5F5F5F5F5F5F5F5F5BEF5F5F52727272727271CF5F5F5E2E2F5F5F519F5F5F5F5F5F5F5F519F5F5
310
F5F5F51CF519F5F5F5E2E2F5F5F5F5F5F5F5F5F5F5F5272727272727F5F5F5F5F5F5F51CF5F5F51CF5F5E2F5E2E2E2F5F5F5F5F5F5F5F5F5F5F5E2E2E2F5F5F51CF5F5F5F5F5F5F5F5F5F5F5F5F5F51CF5F5F5F5F5F5F5F5F5F51CF5E2E2F5F5F5F5F5F5F5F5F519F5F5F5F5F5F5F5F5F5F5E2F5F5E2F5F5F5F5F5F5BEF5F5
310
F5F5F5F5F5F5F5F5F5F5F5F5F5F5F5F5F5F5F5F5F5F5F5F5F5F5F5F5F5F5F5F5F5F5F5F5F5F5F5F5F5F5F5F5F5F5F5F5F5F5F5F5F5F5F5F5F5F5F5F5F5F5F5F5F5F5F5F5F5F5F5F5F5F5F5F5F5F5F5F5F5F5F5F5F5F5F5F5F5F5F5F5F5F5F5F5F5F5BEF5F5F52727272727271CF5F5F5F5E2E2F5F5F519F5F5F5F5F5F5F519
310
F5F5F5F5F5F51C19F5F5E2E2F5F5F5F5F5F5F5F5F5F5F5F5272727272727F5F5F5F5F5F5F51CF5F5F51CF5F5E2F5E2E2E2F5F5F5F5F5F5F5F5F5F5F5E2E2E2F5F5F51CF5F5F5F5F5F5F5F5F5F5F5F5F5F51CF5F5F5F5F5F5F5F5F51CE2E2F5E2E2F5F5F5F5F5F5F5F519F5F5F5F5F5F5F5F5F5E2E2F5E2F5F5F5F5F5F5F5BE
310
F5F5F5F5F5F5F5F5F5F5F5F5F5F5F5F5F5F5F5F5F5F5F5F5F5F5F5F5F5F5F5F5F5F5F5F5F5F5F5F5F5F5F5F5F5F5F5F5F5F5F5F5F5F5F5F5F5F5F5F5F5F5F5F5F5F5F5F5F5F5F5F5F5F5F5F5F5F5F5F5F5F5F5F5F5F5F5F5F5F5F5F5F5F5F5F5F5F5F5F5BEF5F5F5F52727272727271CF5F5F5E2E2E2F5F5F51919F5F5F5F5
310
F519F5F5F5F51919191CF5E2E2E2F5F5F5F5F5F5F5F5F5F5F5F5272727272727F5F5F5F5F5F5F51CF5F5F51CF5F5E2F5E2E2E2F5F5F5F5F5F5F5F5F5F5F5E2E2E2F5F5F51CF5F5F5F5F5F5F5F5F5F5F5F5F5F51CF5F5F5F5F5F5F5F5F51CF5E2E2F5E2E2F5F5F5F5F5F5E219E2F5F5F5F5F5F5F5E2E2F5E2E2F5F5F5F5F5F5
310
F5BEF5F5F5F5F5F5F5F5F5F5F5F5F5F5F5F5F5F5F5F5F5F5F5F5F5F5F5F5F5F5F5F5F5F5F5F5F5F5F5F5F5F5F5F5F5F5F5F5F5F5F5F5F5F5F5F5F5F5F5F5F5F5F5F5F5F5F5F5F5F5F5F5F5F5F5F5F5F5F5F5F5F5F5F5F5F5F5F5F5F5F5F5F5F5F5F5F5F5F5F5BEF5F5F5F5F527272727271CF5F5F5F5E2E2E2F5F5F5F51919
310
F5F5E219E2F5191919F5F51CE2E2E2F5F5F5F5F5F5F5F5F5F5F5F5F5F5F5F5F5F51CF5F5F5F5F5F5F51CF5F5F51CF5F5E2E2E2E2E2F5F5F5F5F5F5F5F5F5F5F5E2E2E2F5F5F51CF5F5F5F5F5F5F5F5F5F5F5F5F5F51CF5F5F5F5F5F5F5F51CF5F5F5E2F5F5E2E2F5F5F5F5F5E219E2F5F5F5F5F5F5E2E2F5E2E2F5F5F5F5F5
310
F5F5F5BEF5F5F5F5F5F5F5F5F5F5F5F5F5F5F5F5F5F5F5F5F5F5F5F5F5F5F5F5F5F5F5F5F5F5F5F5F5F5F5F5F5F5F5F5F5F5F5F5F5F5F5F5F5F5F5F5F5F5F5F5F5F5F5F5F5F5F5F5F5F5F5F5F5F5F5F5F5F5F5F5F5F5F5F5F5F5F5F5F5F5F5F5F5F5F5F5F5F5F5F5BEF5F5F5F5F52727272727271CF5F5F5F5E2E2E2E2F5F5
310
F5F5191919191919F5F5F5F5F5E21CE2F5F5F5F5F5F5F5F5F5F5F5F5F5F5F5F5F5F5F51CF5F5F5F5F5F5F51CF5F5F51CF5F5E2F5E2E2E2F5F5F5F5F5F5F5F5F5F5F5E2E2E2F5F5F51CF5F5F5F5F5F5F5F5F5F5F5F5F5F51CF5F5F5F5F5F5F5F51CF5F5F5F5E2E2F5E2E2E2F5F5F5E219E2F5F5F5F5E2E2F5F5E2E2F5F5F5F5
310
F5F5F5F5F5BEF5F5F5F5F5F5F5F5F5F5F5F5F5F5F5F5F5F5F5F5F5F5F5F5F5F5F5F5F5F5F5F5F5F5F5F5F5F5F5F5F5F5F5F5F5F5F5F5F5F5F5F5F5F5F5F5F5F5F5F5F5F5F5F5F5F5F5F5F5F5F5F5F5F5F5F5F5F5F5F5F5F5F5F5F5F5F5F5F5F5F5F5F5F5F5F5F5F5F5F5BEF5F5F5F5F5F52727272727F51CF5F5F5F5E2E2E2
310
E2F5F5F5F5F5E21CE2F5F5F5F5E2E2E2E21CF5F5F5F5F5F5F5F5F5F5F5F5F5F5F5F5F5F5F5F5F5F5F5F5F5F5F51CF5F5F51CF5F5E2E2E2E2E2F5F5F5F5F5F5F5F5F5F5F5E2E2E2F5F5F51CF5F5F5F5F5F5F5F5F5F5F5F5F5F51CF5F5F5F5F5F5F51CF5F5F5F5F5F5E2E2F5F5E2E2E2E2E219F5E2E2E2E2F5F5F5E2E2F5F5F5
310
F5F5F5F5F5F5F5BEF5F5F5F5F5F5F5F5F5F5F5F5F5F5F5F5F5F5F5F5F5F5F5F5F5F5F5F5F5F5F5F5F5F5F5F5F5F5F5F5F5F5F5F5F5F5F5F5F5F5F5F5F5F5F5F5F5F5F5F5F5F5F5F5F5F5F5F5F5F5F5F5F5F5F5F5F5F5F5F5F5F5F5F5F5F5F5F5F5F5F5F5F5F5F5F5F5F5F5F5BEF5F5F5F5F5F52727272727271C1CF5F5F5F5
310
F5E2E2E2E2E2F5F5F5191CF5E2E2E2E2E2F5F51CF5F5F5F5F5F5F5F5F5F5F5F5F5F5F5F5F5F5F5F5F5F5F5F5F5F5F51CF5F5F51CF5F5E2F5E2E2E2F5F5F5F5F5F5F5F5F5F5F5E2E2E2F5F5F51CF5F5F5F5F5F5F5F5F5F5F5F5F5F51CF5F5F5F5F5F5F51CF5F5F5F5F5F5F5E2E2E2F5F5F5F5E219E2F5F5F5F5F5E2E2E2F5F5
310
F5F5F5F5F5F5F5F5F5BEF5F5F5F5F5F5F5F5F5F5F5F5F5F5F5F5F5F5F5F5F5F5F5F5F5F5F5F5F5F5F5F5F5F5F5F5F5F5F5F5F5F5F5F5F5F5F5F5F5F5F5F5F5F5F5F5F5F5F5F5F5F5F5F5F5F5F5F5F5F5F5F5F5F5F5F5F5F5F5F5F5F5F5F5F5F5F5F5F5F5F5F5F5F5F5F5F5F5F5F5BEF5F5F5F5F5F5F52727272727F51C1CF5
310
F5F5F5F5E2E2E2E2E2E2E2191CE2E2E2E2E2F5F527271CF5F5F5F5F5F5F5F5F5F5F5F5F5F5F5F5F5F5F5F5F5F5F5F5F5F51CF5F5F51CF5F51CE2E2E2E2F5F5F5F5F5F5F5F5F5F5F5E2E21CF5F5F51CF5F5F5F5F5F5F5F5F5F5F5F5F5F51CF5F5F5F5F5F51CF5F5F5F5F5F5F5F5F5F5E2E2E2E2F5F519F5F5F5E2E2E2F5F5F5
310
F5F5F5F5F5F5F5F5F5F5F5BEF5F5F5F5F5F5F5F5F5F5F5F5F5F5F5F5F5F5F5F5F5F5F5F5F5F5F5F5F5F5F5F5F5F5F5F5F5F5F5F5F5F5F5F5F5F5F5F5F5F5F5F5F5F5F5F5F5F5F5F5F5F5F5F5F5F5F5F5F5F5F5F5F5F5F5F5F5F5F5F5F5F5F5F5F5F5F5F5F5F5F5F5F5F5F5F5F5F5F5F5BEF5F5F5F5F5F5F5F52727272727F5
310
1C1CF5F5F5F5F5F5F5E2E2E2E219E21CE2F5F5F527272727271CF5F5F5F5F5F5F5F5F5F5F5F5F5F5F5F5F5F5F5F5F5F5F5F5F51CF5F5F51CF5F51CF5F5E2E2E2E2E2E2E2E2E2E2E2E2E2E2E21C1C1C1C1C1C1C1C1C1C1C1C1C1C1C1C1C1C1C1C1CF5F5F5F5F51CF5F5F5F5F5F5F5F5F5F5F5F5F5E2E2E219E2E2E2F5F5F5F5
310
F5F5F5F5F5F5F5F5F5F5F5F5F5BEF5F5F5F5F5F5F5F5F5F5F5F5F5F5F5F5F5F5F5F5F5F5F5F5F5F5F5F5F5F5F5F5F5F5F5F5F5F5F5F5F5F5F5F5F5F5F5F5F5F5F5F5F5F5F5F5F5F5F5F5F5F5F5F5F5F5F5F5F5F5F5F5F5F5F5F5F5F5F5F5F5F5F5F5F5F5F5F5F5F5F5F5F5F5F5F5F5F5F5F5BEF5F5F5F5F5F5F5F5272727F5
310
F5F5F51C1C1CF5F5F5F5F5F5F5F5F519F51CF5F5F5272727272727F51CF5F5F5F5F5F5F5F5F5F5F5F5F5F5F5F5F5F5F5F5F5F5F5F51CF5F5F51CF5F51CF5F5F5F5F5F5F5F5F5F5F5F5F5F5F5F5F51CF5F5F51CF5F5F5F5F5F5F5F5F5F5F5F5F5F5F5F5F5F5F5F51CF5F5F5F5F5F5F5F5F5F5F5F5F5F5F5F5F519F5F5F5F5F5
310
F5F5F5F5F5F5F5F5F5F5F5F5F5F5F5BEF5F5F5F5F5F5F5F5F5F5F5F5F5F5F5F5F5F5F5F5F5F5F5F5F5F5F5F5F5F5F5F5F5F5F5F5F5F5F5F5F5F5F5F5F5F5F5F5F5F5F5F5F5F5F5F5F5F5F5F5F5F5F5F5F5F5F5F5F5F5F5F5F5F5F5F5F5F5F5F5F5F5F5F5F5F5F5F5F5F5F5F5F5F5F5F5F5F5F5F5BEF5F5F5F5F5F5F5F5F5F5
310
F5F5F5F5F5F5F5F51CF5F5F5F5F5F5F5F519F5F51CF5F5F5272727272727F51CF5F5F5F5F5F5F5F5F5F5F5F5F5F5F5F5F5F5F5F5F5F5F51CF5F5F51CF5F51CF5F5F5F5F5F5F5F5F5F5F5F5F5F5F5F5F51CF5F5F51CF5F5F5F5F5F5F5F5F5F5F5F5F5F5F5F5F5F5F5F51CF5F5F5F5F5F5F5F5F5F5F5F5F5F5F5F5F519F5F5F5
310
F5F5F5F5F5F5F5F5F5F5F5F5F5F5F5F5F5BEF5F5F5F5F5F5F5F5F5F5F5F5F5F5F5F5F5F5F5F5F5F5F5F5F5F5F5F5F5F5F5F5F5F5F5F5F5F5F5F5F5F5F5F5F5F5F5F5F5F5F5F5F5F5F5F5F5F5F5F5F5F5F5F5F5F5F5F5F5F5F5F5F5F5F5F5F5F5F5F5F5F5F5F5F5F5F5F5F5F5F5F5F5F5F5F5F5F5F5F5BEF5F5F5F5F5F5F5F5
310
F5F5F5F5F5F5F5F5F5F5F51C1C1C1CF5F5F5F519F5F51CF5F5F5F5272727272727F51CF5F5F5F5F5F5F5F5F5F5F5F5F5F5F51C2727272727271C1C1C1C1C1C1C1C1C1C1C1CF5F5F5F5F5F5F5F5F5F5F5F5F51CF5F5F51CF5F5F5F5F5F5F5F5F5F5F5F5F5F5F5F5F5F5F51C1C1C1C1C1C1C1C1C1C1C1C1C1C1C1CF5F5F519F5
310
F5F5F5F5F5F5F5F5F5F5F5F5F5F5F5F5F5F5F5BEF5F5F5F5F5F5F5F5F5F5F5F5F5F5F5F5F5F5F5F5F5F5F5F5F5F5F5F5F5F5F5F5F5F5F5F5F5F5F5F5F5F5F5F5F5F5F5F5F5F5F5F5F5F5F5F5F5F5F5F5F5F5F5F5F5F5F5F5F5F5F5F5F5F5F5F5F5F5F5F5F5F5F5F5F5F5F5F5F5F5F5F5F5F5F5F5F5F5F5F5BEF5F5F5F5F5F5
310
F5F5F5F5F5F5F5F5F5F5F5F5F5F5F5F5F51C1C1C1C1CF5F5F51CF5F5F5272727272727271CF5F5F5F5F5F5F5F5F5F5F5F5F5F5F5F52727272727271CF5F5F51CF5F51CF5F5F5F5F5F5F5F5F5F5F5F5F5F5F5F5F51CF5F5F51CF5F5F5F5F5F5F5F5F5F5F5F5F5F5F5F5F5F5F5F5F527272727272727272727272727F5F5F5F5
310
19F5F5F5F5F5F5F5F5F5F5F5F5F5F5F5F5F5F5F5F5BEF5F5F5F5F5F5F5F5F5F5F5F5F5F5F5F5F5F5F5F5F5F5F5F5F5F5F5F5F5F5F5F5F5F5F5F5F5F5F5F5F5F5F5F5F5F5F5F5F5F5F5F5F5F5F5F5F5F5F5F5F5F5F5F5F5F5F5F5F5F5F5F5F5F5F5F5F5F5F5F5F5F5F5F5F5F5F5F5F5F5F5F5F5F5F5F5F5F5F5F5BEF5F5F5F5
310
F5F5F5F5F5F5F5F5F5F5F5F5F5F5F5F5F5F5F5F5F5F5F5F5F5F5F51CF5F5F5F5272727272727F51CF5F5F5F5F5F5F5F5F5F5F5F5F5F5F52727272727271CF5F5F5F5F5F51CF5F5F5F5F5F5F5F5F5F5F5F5F5F5F5F5F51CF5F5F51CF5F5F5F5F5F5F5F5F5F5F5F5F5F5F5F5F5F5F5F5F527272727272727272727272727F5F5
310
F5F5F5F5F5F5F5F5F5F5F5F5F5F5F5F5F5F5F5F5F5F5F5BEF5F5F5F5F5F5F5F5F5F5F5F5F5F5F5F5F5F5F5F5F5F5F5F5F5F5F5F5F5F5F5F5F5F5F5F5F5F5F5F5F5F5F5F5F5F5F5F5F5F5F5F5F5F5F5F5F5F5F5F5F5F5F5F5F5F5F5F5F5F5F5F5F5F5F5F5F5F5F5F5F5F5F5F5F5F5F5F5F5F5F5F5F5F5F5F5F5F5F5F5BEF5F5
310
F5F5F5F5F5F5F5F5F5F5F5F5F5F5F5F5F5F5F5F5F5F5F5F5F5F5F5F5F5F51CF5F5F5F5272727272727F527F5F5F5F5F5F5F5F5F5F5F5F5F5F52727272727271CF5F5F5F5F5F51CF5F5F5F5F5F5F5F5F5F5F5F5F5F5F5F5F51CF5F5F51CF5F5F5F5F5F5F5F5F5F5F5F5F5F5F5F5F5F5F5F5F527272727272727272727272727
310
F5F5F5F5F5F5F5F5F5F5F5F5F5F5F5F5F5F5F5F5F5F5F5F5F5BEF5F5F5F5F5F5F5F5F5F5F5F5F5F5F5F5F5F5F5F5F5F5F5F5F5F5F5F5F5F5F5F5F5F5F5F5F5F5F5F5F5F5F5F5F5F5F5F5F5F5F5F5F5F5F5F5F5F5F5F5F5F5F5F5F5F5F5F5F5F5F5F5F5F5F5F5F5F5F5F5F5F5F5F5F5F5F5F5F5F5F5F5F5F5F5F5F5F5F5F5BE
310
F5F5F5F5F5F5F5F5F5F5F5F5F5F5F5F5F5F5F5F5F5F5F5F5F5F5F5F5F5F5F5F51CF5F5F5F5F52727272727272727F5F5F5F5F5F5F5F5F5F5F5F5F52727272727271CF5F5F5F5F5F51CF5F5F5F5F5F5F5F5F5F5F5F5F5F5F5F5F51CF5F5F51CF5F5F5F5F5F5F5F5F5F5F5F5F5F5F5F5F5F5F5F5F52727272727272727272727
310
2727F5F5F5F5F5F5F5F5F5F5F5F5F5F5F5F5F5F5F5F5F5F5F5F5F5BEF5F5F5F5F5F5F5F5F5F5F5F5F5F5F5F5F5F5F5F5F5F5F5F5F5F5F5F5F5F5F5F5F5F5F5F5F5F5F5F5F5F5F5F5F5F5F5F5F5F5F5F5F5F5F5F5F5F5F5F5F5F5F5F5F5F5F5F5F5F5F5F5F5F5F5F5F5F5F5F5F5F5F5F5F5F5F5F5F5F5F5F5F5F5F5F5F5F5F5
310
F5BEF5F5F5F5F5F5F5F5F5F5F5F5F5F5F5F5F5F5F5F5F5F5F5F5F5F5F5F5F5F5F5F5F51CF5F5F5F527272727272727271CF5F5F5F5F5F5F5F5F5F5F5F5F5F5F5F5F5F51CF5F5F5F5F5F51CF5F5F5F5F5F5F5F5F5F5F5F5F5F5F5F5F51CF5F5F51CF5F5F5F5F5F5F5F5F5F5F5F5F5F5F5F5F5F5F5F5F5272727272727272727
310
27272727F5F5F5F5F5F5F5F5F5F5F5F5F5F5F5F5F5F5F5F5F5F5F5F5F5BEF5F5F5F5F5F5F5F5F5F5F5F5F5F5F5F5F5F5F5F5F5F5F5F5F5F5F5F5F5F5F5F5F5F5F5F5F5F5F5F5F5F5F5F5F5F5F5F5F5F5F5F5F5F5F5F5F5F5F5F5F5F5F5F5F5F5F5F5F5F5F5F5F5F5F5F5F5F5F5F5F5F5F5F5F5F5F5F5F5F5F5F5F5F5F5F5F5
310
F5F5F5BEF5F5F5F5F5F5F5F5F5F5F5F5F5F5F5F5F5F5F5F5F5F5F5F5F5F5F5F5F5F5F5F5F51CF5F5F5F5F527272727272727271CF5F5F5F5F5F5F5F5F5F5F5F5F5F5F5F5F51CF5F5F5F5F5F51CF5F5F5F5F5F5F5F5F5F5F5F5F5F5F5F5F51CF5F5F51CF5F5F5F5F5F5F5F5F5F5F5F5F5F5F5F5F5F5F5F5F5F5F5F5F5F5F5F5
310
F5F5F5F5F5F5F5F5F5F5F5F5F5F5F5F5F5F5F5F5F5F5F5F5F5F5F5F5F5F5F5BEF5F5F5F5F5F5F5F5F5F5F5F5F5F5F5F5F5F5F5F5F5F5F5F5F5F5F5F5F5F5F5F5F5F5F5F5F5F5F5F5F5F5F5F5F5F5F5F5F5F5F5F5F5F5F5F5F5F5F5F5F5F5F5F5F5F5F5F5F5F5F5F5F5F5F5F5F5F5F5F5F5F5F5F5F5F5F5F5F5F5F5F5F5F5F5
310
F5F5F5F5F5BEF5F5F5F5F5F5F5F5F5F5F5F5F5F5F5F5F5F5F5F5F5F5F5F5F5F5F5F527272727F5F51CF5F5F5F5F5F5F527272727271CF5F5F5F5F5F5F5F5F5272727272727F5F51CF51CF5F51CF51CF51CF5F52727272727272727F5F5F51CF51CF5F5F51CF51CF5F5272727F5F5F5F5F5F5F5F5F5F5F5F5F5F5F5F5F5F5F5
310
F5F5F5F5F5F5F5F5F5F5F5F5F5F5F5F5F5F5F5F5F5F5F5F5F5F5F5F5F5F5F5F5F5BEF5F5F5F5F5F5F5F5F5F5F5F5F5F5F5F5F5F5F5F5F5F5F5F5F5F5F5F5F5F5F5F5F5F5F5F5F5F5F5F5F5F5F5F5F5F5F5F5F5F5F5F5F5F5F5F5F5F5F5F5F5F5F5F5F5F5F5F5F5F5F5F5F5F5F5F5F5F5F5F5F5F5F5F5F5F5F5F5F5F5F5F5F5
310
F5F5F5F5F5F5F5BEF5F5F5F5F5F5F5F5F5F5F5F52727272727272727272727272727272727272727F5F51CF5F5F5F5F5F5F5F527272727271CF5F5F5F5F5F5F51C2727272727271C1C1C1C1C1C1C1C1C1C1C1C1C1C27272727272727271C1C1C1C1C1C1C1C1C1C1C1C1C1C2727271CF5F5F5F5F5F5F5F5F5F5F5F5F5F5F5F5
310
F5F5F5F5F5F5F5F5F5F5F5F5F5F5F5F5F5F5F5F5F5F5F5F5F5F5F5F5F5F5F5F5F5F5F5BEF5F5F5F5F5F5F5F5F5F5F5F5F5F5F5F5F5F5F5F5F5F5F5F5F5F5F5F5F5F5F5F5F5F5F5F5F5F5F5F5F5F5F5F5F5F5F5F5F5F5F5F5F5F5F5F5F5F5F5F5F5F5F5F5F5F5F5F5F5F5F5F5F5F5F5F5F5F5F5F5F5F5F5F5F5F5F5F5F5F5F5
310
F5F5F5F5F5F5F5F5F5BEF5F5F5F5F5F5F5F5F5F5F5F52727272727272727272727272727272727272727F5F5F51CF5F5F5F5F5F5F52727272727F51CF5F5F5F5F5F5F5272727272727F5F5F5F5F5F5F5F5F5F5F5F5F5F52727272727272727F5F5F5F5F5F5F5F5F5F5F5F5F5F5272727F5F5F5F5F5F5F5F5F5F5F5F5F5F5F5
310
F5F5F5F5F5F5F5F5F5F5F5F5F5F5F5F5F5F5F5F5F5F5F5F5F5F5F5F5F5F5F5F5F5F5F5F5F5BEF5F5F5F5F5F5F5F5F5F5F5F5F5F5F5F5F5F5F5F5F5F5F5F5F5F5F5F5F5F5F5F5F5F5F5F5F5F5F5F5F5F5F5F5F5F5F5F5F5F5F5F5F5F5F5F5F5F5F5F5F5F5F5F5F5F5F5F5F5F5F5F5F5F5F5F5F5F5F5F5F5F5F5F5F5F5F5F5F5
310
F5F5F5F5F5F5F5F5F5F5F5BEF5F5F5F5F5F5F5F5F5F5F5F52727272727272727272727272727272727272727F5F5F51CF5F5F5F5F5F527272727272727F51CF5F5F5F5F5F5272727272727F5F5F5F5F5F5F5F5F5F5F5F5F5F52727272727272727F5F5F5F5F5F5F5F5F5F5F5F5F5F5272727F5F5F5F5F5F5F5F5F5F5F5F5F5
310
F5F5F5F5F5F5F5F5F5F5F5F5F5F5F5F5F5F5F5F5F5F5F5F5F5F5F5F5F5F5F5F5F5F5F5F5F5F5F5BEF5F5F5F5F5F5F5F5F5F5F5F5F5F5F5F5F5F5F5F5F5F5F5F5F5F5F5F5F5F5F5F5F5F5F5F5F5F5F5F5F5F5F5F5F5F5F5F5F5F5F5F5F5F5F5F5F5F5F5F5F5F5F5F5F5F5F5F5F5F5F5F5F5F5F5F5F5F5F5F5F5F5F5F5F5F5F5
310
F5F5F5F5F5F5F5F5F5F5F5F5F5BEF5F5F5F5F5F5F5F5F5F5F5F52727272727272727272727272727272727272727F5F5F5F51CF5F5F5F5F5F52727272727F5F5F5F5F5F5F5F5F5272727272727F5F5F5F5F5F5F5F5F5F5F5F5F5F52727272727272727F5F5F5F5F5F5F5F5F5F5F5F5F5F5272727F5F5F5F5F5F5F5F5F5F5F5
310
F5F5F5F5F5F5F5F5F5F5F5F5F5F5F5F5F5F5F5F5F5F5F5F5F5F5F5F5F5F5F5F5F5F5F5F5F5F5F5F5F5BEF5F5F5F5F5F5F5F5F5F5F5F5F5F5F5F5F5F5F5F5F5F5F5F5F5F5F5F5F5F5F5F5F5F5F5F5F5F5F5F5F5F5F5F5F5F5F5F5F5F5F5F5F5F5F5F5F5F5F5F5F5F5F5F5F5F5F5F5F5F5F5F5F5F5F5F5F5F5F5F5F5F5F5F5F5
310
F5F5F5F5F5F5F5F5F5F5F5F5F5F5F5BEF5F5F5F5F5F5F5F5F5F5F5F5F5F5F5F5F5F5F5F5F5F5F5F5F5F5F5F5F5F5F5F5F5F5F5F51CF5F5F5F5F5F5F52727F5F5F5F5F5F5F5F5F5F5F5F5F5F5F5F5F5F5F5F5F5F5F5F5F5F5F5F5F5F5F5F5F5F5F5F5F5F5F5F5F5F5F5F5F5F5F5F5F5F5F5F5F5F5F5F5F5F5F5F5F5F5F5F5F5
310
F5F5F5F5F5F5F5F5F5F5F5F5F5F5F5F5F5F5F5F5F5F5F5F5F5F5F5F5F5F5F5F5F5F5F5F5F5F5F5F5F5F5F5BEF5F5F5F5F5F5F5F5F5F5F5F5F5F5F5F5F5F5F5F5F5F5F5F5F5F5F5F5F5F5F5F5F5F5F5F5F5F5F5F5F5F5F5F5F5F5F5F5F5F5F5F5F5F5F5F5F5F5F5F5F5F5F5F5F5F5F5F5F5F5F5F5F5F5F5F5F5F5F5F5F5F5F5
310
F5F5F5F5F5F5F5F5F5F5F5F5F5F5F5F5F5BEF5F5F5F5F5F5F5F5F5F5F5F51C1C1C1C1C1C1C1C1C1C1C1C1C1C1C1C1C1C1C1C1C1C1C1C1C1CF5F5F5F5F5F5F5F5F5F5F5F5F5F5F5F5F5F5F5F5F5F5F5F5F5F5F5F5F5F5F5F5F5F5F5F5F5F5F5F5F5F5F5F5F5F5F5F5F5F5F5F5F5F5F5F5F5F5F5F5F5F5F5F5F5F5F5F5F5F5F5
310
F5F5F5F5F5F5F5F5F5F5F5F5F5F5F5F5F5F5F5F5F5F5F5F5F5F5F5F5F5F5F5F5F5F5F5F5F5F5F5F5F5F5F5F5F5BEF5F5F5F5F5F5F5F5F5F5F5F5F5F5F5F5F5F5F5F5F5F5F5F5F5F5F5F5F5F5F5F5F5F5F5F5F5F5F5F5F5F5F5F5F5F5F5F5F5F5F5F5F5F5F5F5F5F5F5F5F5F5F5F5F5F5F5F5F5F5F5F5F5F5F5F5F5F5F5F5F5
310
F5F5F5F5F5F5F5F5F5F5F5F5F5F5F5F5F5F5F5BEF5F5F5F5F5F5F5F5F5F5F5F527272727272727272727272727F5F5F5F5F5F5F5F5F5F5F5F5F5F5F5F5F5F5F5F5F5F5F5F5F5F5F5F5F5F5F5F5F5F5F5F5F5F5F5F5F5F5F5F5F5F5F5F5F5F5F5F5F5F5F5F5F5F5F5F5F5F5F5F5F5F5F5F5F5F5F5F5F5F5F5F5F5F5F5F5F5F5
310
F5F5F5F5F5F5F5F5F5F5F5F5F5F5F5F5F5F5F5F5F5F5F5F5F5F5F5F5F5F5F5F5F5F5F5F5F5F5F5F5F5F5F5F5F5F5F5BEF5F5F5F5F5F5F5F5F5F5F5F5F5F5F5F5F5F5F5F5F5F5F5F5F5F5F5F5F5F5F5F5F5F5F5F5F5F5F5F5F5F5F5F5F5F5F5F5F5F5F5F5F5F5F5F5F5F5F5F5F5F5F5F5F5F5F5F5F5F5F5F5F5F5F5F5F5F5F5
310
F5F5F5F5F5F5F5F5F5F5F5F5F5F5F5F5F5F5F5F5F5BEF5F5F5F5F5F5F5F5F5F5F5F527272727272727272727272727F5F5F5F5F5F5F5F5F5F5F5F5F5F5F5F5F5F5F5F5F5F5F5F5F5F5F5F5F5F5F5F5F5F5F5F5F5F5F5F5F5F5F5F5F5F5F5F5F5F5F5F5F5F5F5F5F5F5F5F5F5F5F5F5F5F5F5F5F5F5F5F5F5F5F5F5F5F5F5F5
310
F5F5F5F5F5F5F5F5F5F5F5F5F5F5F5F5F5F5F5F5F5F5F5F5F5F5F5F5F5F5F5F5F5F5F5F5F5F5F5F5F5F5F5F5F5F5F5F5F5BEF5F5F5F5F5F5F5F5F5F5F5F5F5F5F5F5F5F5F5F5F5F5F5F5F5F5F5F5F5F5F5F5F5F5F5F5F5F5F5F5F5F5F5F5F5F5F5F5F5F5F5F5F5F5F5F5F5F5F5F5F5F5F5F5F5F5F5F5F5F5F5F5F5F5F5F5F5
310
F5F5F5F5F5F5F5F5F5F5F5F5F5F5F5F5F5F5F5F5F5F5F5BEF5F5F5F5F5F5F5F5F5F5F5F527272727272727272727272727F5F5F5F5F5F5F5F5F5F5F5F5F5F5F5F5F5F5F5F5F5F5F5F5F5F5F5F5F5F5F5F5F5F5F5F5F5F5F5F5F5F5F5F5F5F5F5F5F5F5F5F5F5F5F5F5F5F5F5F5F5F5F5F5F5F5F5F5F5F5F5F5F5F5F5F5F5F5
310
F5F5F5F5F5F5F5F5F5F5F5F5F5F5F5F5F5F5F5F5F5F5F5F5F5F5F5F5F5F5F5F5F5F5F5F5F5F5F5F5F5F5F5F5F5F5F5F5F5F5F5BEF5F5F5F5F5F5F5F5F5F5F5F5F5F5F5F5F5F5F5F5F5F5F5F5F5F5F5F5F5F5F5F5F5F5F5F5F5F5F5F5F5F5F5F5F5F5F5F5F5F5F5F5F5F5F5F5F5F5F5F5F5F5F5F5F5F5F5F5F5F5F5F5F5F5F5
310
F5F5F5F5F5F5F5F5F5F5F5F5F5F5F5F5F5F5F5F5F5F5F5F5F5BEF5F5F5F5F5F5F5F5F5F5F5F527272727272727272727272727F5F5F5F5F5F5F5F5F5F5F5F5F5F5F5F5F5F5F5F5F5F5F5F5F5F5F5F5F5F5F5F5F5F5F5F5F5F5F5F5F5F5F5F5F5F5F5F5F5F5F5F5F5F5F5F5F5F5F5F5F5F5F5F5F5F5F5F5F5F5F5F5F5F5F5F5
310
F5F5F5F5F5F5F5F5F5F5F5F5F5F5F5F5F5F5F5F5F5F5F5F5F5F5F5F5F5F5F5F5F5F5F5F5F5F5F5F5F5F5F5F5F5F5F5F5F5F5F5F5F5BEF5F5F5F5F5F5F5F5F5F5F5F5F5F5F5F5F5F5F5F5F5F5F5F5F5F5F5F5F5F5F5F5F5F5F5F5F5F5F5F5F5F5F5F5F5F5F5F5F5F5F5F5F5F5F5F5F5F5F5F5F5F5F5F5F5F5F5F5F5F5F5F5F5
310
F5F5F5F5F5F5F5F5F5F5F5F5F5F5F5F5F5F5F5F5F5F5F5F5F5F5F5BEF5F5F5F5F5F5F5F5F5F5F5F5F5F5F5F5F5F5F5F5F5F5F5F5F5F5F5F5F5F5F5F5F5F5F5F5F5F5F5F5F5F5F5F5F5F5F5F5F5F5F5F5F5F5F5F5F5F5F5F5F5F5F5F5F5F5F5F5F5F5F5F5F5F5F5F5F5F5F5F5F5F5F5F5F5F5F5F5F5F5F5F5F5F5F5F5F5F5F5
310
F5F5F5F5F5F5F5F5F5F5F5F5F5F5F5F5F5F5F5F5F5F5F5F5F5F5F5F5F5F5F5F5F5F5F5F5F5F5F5F5F5F5F5F5F5F5F5F5F5F5F5F5F5F5F5BEF5F5F5F5F5F5F5F5F5F5F5F5F5F5F5F5F5F5F5F5F5F5F5F5F5F5F5F5F5F5F5F5F5F5F5F5F5F5F5F5F5F5F5F5F5F5F5F5F5F5F5F5F5F5F5F5F5F5F5F5F5F5F5F5F5F5F5F5F5F5F5
310
F5F5F5F5F5F5F5F5F5F5F5F5F5F5F5F5F5F5F5F5F5F5F5F5F5F5F5F5F5BEBEBEBEBEBEBEBEBEBEBEBEBEBEBEBEBEBEBEBEBEBEBEBEBEBEBEBEBEBEBEBEBEBEBEBEBEBEBEBEBEBEBEBEBEBEBEBEBEBEBEBEBEBEBEBEBEBEBEBEBEBEBEBEBEBEBEBEBEBEBEBEBEBEBEBEBEBEBEBEBEBEBEBEBEBEBEBEBEBEBEBEBEBEBEBEBEBE
310
BEBEBEBEBEBEBEBEBEBEBEBEBEBEBEBEBEBEBEBEBEBEBEBEBEBEBEBEBEBEBEBEBEBEBEBEBEBEBEBEBEBEBEBEBEBEBEBEBEBEBEBEBEBEBEBEBEBEF5F5F5F5F5F5F5F5F5F5F5F5F5F5F5F5F5F5F5F5F5F5F5F5F5F5F5F5F5F5F5F5F5F5F5F5F5F5F5F5F5F5F5F5F5F5F5F5F5F5F5F5F5F5F5F5F5F5F5F5F5F5F5F5F5F5F5F5F5
310
F5F5F5F5F5F5F5F5F5F5F5F5F5F5F5F5F5F5F5F5F5F5F5F5F5F5F5F5F5F5F5F5F5F5F5F5F5F5F5F5F5F5F5F5F5F5F5F5F5F5F5F5F5F5F5F5F5F5F5F5F5F5F5F5F5F5F5F5F5F5F5F5F5F5F5F5F5F5F5F5F5F5F5F5F5F5F5F5F5F5F5F5F5F5F5F5F5F5F5F5F5F5F5F5F5F5F5F5F5F5F5F5F5F5F5F5F5F5F5F5F5F5F5F5F5F5F5
310
F5F5F5F5F5F5F5F5F5F5F5F5F5F5F5F5F5F5F5F5F5F5F5F5F5F5F5F5F5F5F5F5F5F5F5F5F5F5F5F5F5F5F5F5F5F5F5F5F5F5F5F5F5F5F5F5F5F5F5F5F5F5F5F5F5F5F5F5F5F5F5F5F5F5F5F5F5F5F5F5F5F5F5F5F5F5F5F5F5F5F5F5F5F5F5F5F5F5F5F5F5F5F5F5F5F5F5F5F5F5F5F5F5F5F5F5F5F5F5F5F5F5F5F5F5F5F5
310
F5F5F5F5F5F5F5F5F5F5F5F5F5F5F5F5F5F5F5F5F5F5F5F5F5F5F5F5F5F5F5F5F5F5F5F5F5F5F5F5F5F5F5F5F5F5F5F5F5F5F5F5F5F5F5F5F5F5F5F5F5F5F5F5F5F5F5F5F5F5F5F5F5F5F5F5F5F5F5F5F5F5F5F5F5F5F5F5F5F5F5F5F5F5F5F5F5F5F5F5F5F5F5F5F5F5F5F5F5F5F5F5F5F5F5F5F5F5F5F5F5F5F5F5F5F5F5
310
F5F5F5F5F5F5F5F5F5F5F5F5F5F5F5F5F5F5F5F5F5F5F5F5F5F5F5F5F5F5F5F5F5F5F5F5F5F5F5F5F5F5F5F5F5F5F5F5F5F5F5F5F5F5F5F5F5F5F5F5F5F5F5F5F5F5F5F5F5F5F5F5F5F5F5F5F5F5F5F5F5F5F5F5F5F5F5F5F5F5F5F5F5F5F5F5F5F5F5F5F5F5F5F5F5F5F5F5F5F5F5F5F5F5F5F5F5F5F5F5F5F5F5F5F5F5F5
310
F5F5F5F5F5F5F5F5F5F5F5F5F5F5F5F5F5F5F5F5F5F5F5F5F5F5F5F5F5F5F5F5F5F5F5F5F5F5F5F5F5F5F5F5F5F5F5F5F5F5F5F5F5F5F5F5F5F5F5F5F5F5F5F5F5F5F5F5F5F5F5F5F5F5F5F5F5F5F5F5F5F5F5F5F5F5F5F5F5F5F5F5F5F5F5F5F5F5F5F5F5F5F5F5F5F5F5F5F5F5F5F5F5F5F5F5F5F5F5F5F5F5F5F5F5F5F5
310
F5F5F5F5F5F5F5F5F5F5F5F5F5F5F5F5F5F5F5F5F5F5F5F5F5F5F5F5F5F5F5F5F5F5F5F5F5F5F5F5F5F5F5F5F5F5F5F5F5F5F5F5F5F5F5F5F5F5F5F5F5F5F5F5F5F5F5F5F5F5F5F5F5F5F5F5F5F5F5F5F5F5F5F5F5F5F5F5F5F5F5F5F5F5F5F5F5F5F5F5F5F5F5F5F5F5F5F5F5F5F5F5F5F5F5F5F5F5F5F5F5F5F5F5F5F5F5
310
F5F5F5F5F5F5F5F5F5F5F5F5F5F5F5F5F5F5F5F5F5F5F5F5F5F5F5F5F5F5F5F5F5F5F5F5F5F5F5F5F5F5F5F5F5F5F5F5F5F5F5F5F5F5F5F5F5F5F5F5F5F5F5F5F5F5F5F5F5F5F5F5F5F5F5F5F5F5F5F5F5F5F5F5F5F5F5F5F5F5F5F5F5F5F5F5F5F5F5F5F5F5F5F5F5F5F5F5F5F5F5F5F5F5F5F5F5F5F5F5F5F5F5F5F5F5F5
310
F5F5F5F5F5F5F5F5F5F5F5F5F5F5F5F5F5F5F5F5F5F5F5F5F5F5F5F5F5F5F5F5F5F5F5F5F5F5F5F5F5F5F5F5F5F5F5F5F5F5F5F5F5F5F5F5F5F5F5F5F5F5F5F5F5F5F5F5F5F5F5F5F5F5F5F5F5F5F5F5F5F5F5F5F5F5F5F5F5F5F5F5F5F5F5F5F5F5F5F5F5F5F5F5F5F5F5F5F5F5F5F5F5F5F5F5F5F5F5F5F5F5F5F5F5F5F5
310
F5F5F5F5F5F5F5F5F5F5F5F5F5F5F5F5F5F5F5F5F5F5F5F5F5F5F5F5F5F5F5F5F5F5F5F5F5F5F5F5F5F5F5F5F5F5F5F5F5F5F5F5F5F5F5F5F5F5F5F5F5F5F5F5F5F5F5F5F5F5F5F5F5F5F5F5F5F5F5F5F5F5F5F5F5F5F5F5F5F5F5F5F5F5F5F5F5F5F5F5F5F5F5F5F5F5F5F5F5F5F5F5F5F5F5F5F5F5F5F5F5F5F5F5F5F5F5
310
F5F5F5F5F5F5F5F5F5F5F5F5F5F5F5F5F5F5F5F5F5F5F5F5F5F5F5F5F5F5F5F5F5F5F5F5F5F5F5F5F5F5F5F5F5F5F5F5F5F5F5F5F5F5F5F5F5F5F5F5F5F5F5F5F5F5F5F5F5F5F5F5F5F5F5F5F5F5F5F5F5F5F5F5F5F5F5F5F5F5F5F5F5F5F5F5F5F5F5F5F5F5F5F5F5F5F5F5F5F5F5F5F5F5F5F5F5F5F5F5F5F5F5F5F5F5F5
310
F5F5F5F5F5F5F5F5F5F5F5F5F5F5F5F5F5F5F5F5F5F5F5F5F5F5F5F5F5F5F5F5F5F5F5F5F5F5F5F5F5F5F5F5F5F5F5F5F5F5F5F5F5F5F5F5F5F5F5F5F5F5F5F5F5F5F5F5F5F5F5F5F5F5F5F5F5F5F5F5F5F5F5F5F5F5F5F5F5F5F5F5F5F5F5F5F5F5F5F5F5F5F5F5F5F5F5F5F5F5F5F5F5F5F5F5F5F5F5F5F5F5F5F5F5F5F5
310
F5F5F5F5F5F5F5F5F5F5F5F5F5F5F5F5F5F5F5F5F5F5F5F5F5F5F5F5F5F5F5F5F5F5F5F5F5F5F5F5F5F5F5F5F5F5F5F5F5F5F5F5F5F5F5F5F5F5F5F5F5F5F5F5F5F5F5F5F5F5F5F5F5F5F5F5F5F5F5F5F5F5F5F5F5F5F5F5F5F5F5F5F5F5F5F5F5F5F5F5F5F5F5F5F5F5F5F5F5F5F5F5F5F5F5F5F5F5F5F5F5F5F5F5F5F5F5
310
F5F5F5F5F5F5F5F5F5F5F5F5F5F5F5F5F5F5F5F5F5F5F5F5F5F5F5F5F5F5F5F5F5F5F5F5F5F5F5F5F5F5F5F5F5F5F5F5F5F5F5F5F5F5F5F5F5F5F5F5F5F5F5F5F5F5F5F5F5F5F5F5F5F5F5F5F5F5F5F5F5F5F5F5F5F5F5F5F5F5F5F5F5F5F5F5F5F5F5F5F5F5F5F5F5F5F5F5F5F5F5F5F5F5F5F5F5F5F5F5F5F5F5F5F5F5F5
310
F5F5F5F5F5F5F5F5F5F5F5F5F5F5F5F5F5F5F5F5F5F5F5F5F5F5F5F5F5F5F5F5F5F5F5F5F5F5F5F5F5F5F5F5F5F5F5F5F5F5F5F5F5F5F5F5F5F5F5F5F5F5F5F5F5F5F5F5F5F5F5F5F5F5F5F5F5F5F5F5F5F5F5F5F5F5F5F5F5F5F5F5F5F5F5F5F5F5F5F5F5F5F5F5F5F5F5F5F5F5F5F5F5F5F5F5F5F5F5F5F5F5F5F5F5F5F5
310
F5F5F5F5F5F5F5F5F5F5F5F5F5F5F5F5F5F5F5F5F5F5F5F5F5F5F5F5F5F5F5F5F5F5F5F5F5F5F5F5F5F5F5F5F5F5F5F5F5F5F5F5F5F5F5F5F5F5F5F5F5F5F5F5F5F5F5F5F5F5F5F5F5F5F5F5F5F5F5F5F5F5F5F5F5F5F5F5F5F5F5F5F5F5F5F5F5F5F5F5F5F5F5F5F5F5F5F5F5F5F5F5F5F5F5F5F5F5F5F5F5F5F5F5F5F5F5
310
F5F5F5F5F5F5F5F5F5F5F5F5F5F5F5F5F5F5F5F5F5F5F5F5F5F5F5F5F5F5F5F5F5F5F5F5F5F5F5F5F5F5F5F5F5F5F5F5F5F5F5F5F5F5F5F5F5F5F5F5F5F5F5F5F5F5F5F5F5F5F5F5F5F5F5F5F5F5F5F5F5F5F5F5F5F5F5F5F5F5F5F5F5F5F5F5F5F5F5F5F5F5F5F5F5F5F5F5F5F5F5F5F5F5F5F5F5F5F5F5F5F5F5F5F5F5F5
310
F5F5F5F5F5F5F5F5F5F5F5F5F5F5F5F5F5F5F5F5F5F5F5F5F5F5F5F5F5F5F5F5F5F5F5F5F5F5F5F5F5F5F5F5F5F5F5F5F5F5F5F5F5F5F5F5F5F5F5F5F5F5F5F5F5F5F5F5F5F5F5F5F5F5F5F5F5F5F5F5F5F5F5F5F5F5F5F5F5F5F5F5F5F5F5F5F5F5F5F5F5F5F5F5F5F5F5F5F5F5F5F5F5F5F5F5F5F5F5F5F5F5F5F5F5F5F5
310
F5F5F5F5F5F5F5F5F5F5F5F5F5F5F5F5F5F5F5F5F5F5F5F5F5F5F5F5F5F5F5F5F5F5F5F5F5F5F5F5F5F5F5F5F5F5F5F5F5F5F5F5F5F5F5F5F5F5F5F5F5F5F5F5F5F5F5F5F5F5F5F5F5F5F5F5F5F5F5F5F5F5F5F5F5F5F5F5F5F5F5F5F5F5F5F5F5F5F5F5F5F5F5F5F5F5F5F5F5F5F5F5F5F5F5F5F5F5F5F5F5F5F5F5F5F5F5
310
F5F5F5F5F5F5F5F5F5F5F5F5F5F5F5F5F5F5F5F5F5F5F5F5F5F5F5F5F5F5F5F5F5F5F5F5F5F5F5F5F5F5F5F5F5F5F5F5F5F5F5F5F5F5F5F5F5F5F5F5F5F5F5F5F5F5F5F5F5F5F5F5F5F5F5F5F5F5F5F5F5F5F5F5F5F5F5F5F5F5F5F5F5F5F5F5F5F5F5F5F5F5F5F5F5F5F5F5F5F5F5F5F5F5F5F5F5F5F5F5F5F5F5F5F5F5F5
310
F5F5F5F5F5F5F5F5F5F5F5F5F5F5F5F5F5F5F5F5F5F5F5F5F5F5F5F5F5F5F5F5F5F5F5F5F5F5F5F5F5F5F5F5F5F5F5F5F5F5F5F5F5F5F5F5F5F5F5F5F5F5F5F5F5F5F5F5F5F5F5F5F5F5F5F5F5F5F5F5F5F5F5F5F5F5F5F5F5F5F5F5F5F5F5F5F5F5F5F5F5F5F5F5F5F5F5F5F5F5F5F5F5F5F5F5F5F5F5F5F5F5F5F5F5F5F5
310
F5F5F5F5F5F5F5F5F5F5F5F5F5F5F5F5F5F5F5F5F5F5F5F5F5F5F5F5F5F5F5F5F5F5F5F5F5F5F5F5F5F5F5F5F5F5F5F5F5F5F5F5F5F5F5F5F5F5F5F5F5F5F5F5F5F5F5F5F5F5F5F5F5F5F5F5F5F5F5F5F5F5F5F5F5F5F5F5F5F5F5F5F5F5F5F5F5F5F5F5F5F5F5F5F5F5F5F5F5F5F5F5F5F5F5F5F5F5F5F5F5F5F5F5F5F5F5
310
F5F5F5F5F5F5F5F5F5F5F5F5F5F5F5F5F5F5F5F5F5F5F5F5F5F5F5F5F5F5F5F5F5F5F5F5F5F5F5F5F5F5F5F5F5F5F5F5F5F5F5F5F5F5F5F5F5F5F5F5F5F5F5F5F5F5F5F5F5F5F5F5F5F5F5F5F5F5F5F5F5F5F5F5F5F5F5F5F5F5F5F5F5F5F5F5F5F5F5F5F5F5F5F5F5F5F5F5F5F5F5F5F5F5F5F5F5F5F5F5F5F5F5F5F5F5F5
310
F5F5F5F5F5F5F5F5F5F5F5F5F5F5F5F5F5F5F5F5F5F5F5F5F5F5F5F5F5F5F5F5F5F5F5F5F5F5F5F5F5F5F5F5F5F5F5F5F5F5F5F5F5F5F5F5F5F5F5F5F5F5F5F5F5F5F5F5F5F5F5F5F5F5F5F5F5F5F5F5F5F5F5F5F5F5F5F5F5F5F5F5F5F5F5F5F5F5F5F5F5F5F5F5F5F5F5F5F5F5F5F5F5F5F5F5F5F5F5F5F5F5F5F5F5F5F5
310
F5F5F5F5F5F5F5F5F5F5F5F5F5F5F5F5F5F5F5F5F5F5F5F5F5F5F5F5F5F5F5F5F5F5F5F5F5F5F5F5F5F5F5F5F5F5F5F5F5F5F5F5F5F5F5F5F5F5F5F5F5F5F5F5F5F5F5F5F5F5F5F5F5F5F5F5F5F5F5F5F5F5F5F5F5F5F5F5F5F5F5F5F5F5F5F5F5F5F5F5F5F5F5F5F5F5F5F5F5F5F5F5F5F5F5F5F5F5F5F5F5F5F5F5F5F5F5
310
F5F5F5F5F5F5F5F5F5F5F5F5F5F5F5F5F5F5F5F5F5F5F5F5F5F5F5F5F5F5F5F5F5F5F5F5F5F5F5F5F5F5F5F5F5F5F5F5F5F5F5F5F5F5F5F5F5F5F5F5F5F5F5F5F5F5F5F5F5F5F5F5F5F5F5F5F5F5F5F5F5F5F5F5F5F5F5F5F5F5F5F5F5F5F5F5F5F5F5F5F5F5F5F5F5F5F5F5F5F5F5F5F5F5F5F5F5F5F5F5F5F5F5F5F5F5F5
310
F5F5F5F5F5F5F5F5F5F5F5F5F5F5F5F5F5F5F5F5F5F5F5F5F5F5F5F5F5F5F5F5F5F5F5F5F5F5F5F5F5F5F5F5F5F5F5F5F5F5F5F5F5F5F5F5F5F5F5F5F5F5F5F5F5F5F5F5F5F5F5F5F5F5F5F5F5F5F5F5F5F5F5F5F5F5F5F5F5F5F5F5F5F5F5F5F5F5F5F5F5F5F5F5F5F5F5F5F5F5F5F5F5F5F5F5F5F5F5F5F5F5F5F5F5F5F5
310
F5F5F5F5F5F5F5F5F5F5F5F5F5F5F5F5F5F5F5F5F5F5F5F5F5F5F5F5F5F5F5F5F5F5F5F5F5F5F5F5F5F5F5F5F5F5F5F5F5F5F5F5F5F5F5F5F5F5F5F5F5F5F5F5F5F5F5F5F5F5F5F5F5F5F5F5F5F5F5F5F5F5F5F5F5F5F5F5F5F5F5F5F5F5F5F5F5F5F5F5F5F5F5F5F5F5F5F5F5F5F5F5F5F5F5F5F5F5F5F5F5F5F5F5F5F5F5
310
F5F5F5F5F5F5F5F5F5F5F5F5F5F5F5F5F5F5F5F5F5F5F5F5F5F5F5F5F5F5F5F5F5F5F5F5F5F5F5F5F5F5F5F5F5F5F5F5F5F5F5F5F5F5F5F5F5F5F5F5F5F5F5F5F5F5F5F5F5F5F5F5F5F5F5F5F5F5F5F5F5F5F5F5F5F5F5F5F5F5F5F5F5F5F5F5F5F5F5F5F5F5F5F5F5F5F5F5F5F5F5F5F5F5F5F5F5F5F5F5F5F5F5F5F5F5F5
310
F5F5F5F5F5F5F5F5F5F5F5F5F5F5F5F5F5F5F5F5F5F5F5F5F5F5F5F5F5F5F5F5F5F5F5F5F5F5F5F5F5F5F5F5F5F5F5F5F5F5F5F5F5F5F5F5F5F5F5F5F5F5F5F5F5F5F5F5F5F5F5F5F5F5F5F5F5F5F5F5F5F5F5F5F5F5F5F5F5F5F5F5F5F5F5F5F5F5F5F5F5F5F5F5F5F5F5F5F5F5F5F5F5F5F5F5F5F5F5F5F5F5F5F5F5F5F5
310
F5F5F5F5F5F5F5F5F5F5F5F5F5F5F5F5F5F5F5F5F5F5F5F5F5F5F5F5F5F5F5F5F5F5F5F5F5F5F5F5F5F5F5F5F5F5F5F5F5F5F5F5F5F5F5F5F5F5F5F5F5F5F5F5F5F5F5F5F5F5F5F5F5F5F5F5F5F5F5F5F5F5F5F5F5F5F5F5F5F5F5F5F5F5F5F5F5F5F5F5F5F5F5F5F5F5F5F5F5F5F5F5F5F5F5F5F5F5F5F5F5F5F5F5F5F5F5
310
F5F5F5F5F5F5F5F5F5F5F5F5F5F5F5F5F5F5F5F5F5F5F5F5F5F5F5F5F5F5F5F5F5F5F5F5F5F5F5F5F5F5F5F5F5F5F5F5F5F5F5F5F5F5F5F5F5F5F5F5F5F5F5F5F5F5F5F5F5F5F5F5F5F5F5F5F5F5F5F5F5F5F5F5F5F5F5F5F5F5F5F5F5F5F5F5F5F5F5F5F5F5F5F5F5F5F5F5F5F5F5F5F5F5F5F5F5F5F5F5F5F5F5F5F5F5F5
310
F5F5F5F5F5F5F5F5F5F5F5F5F5F5F5F5F5F5F5F5F5F5F5F5F5F5F5F5F5F5F5F5F5F5F5F5F5F5F5F5F5F5F5F5F5F5F5F5F5F5F5F5F5F5F5F5F5F5F5F5F5F5F5F5F5F5F5F5F5F5F5F5F5F5F5F5F5F5F5F5F5F5F5F5F5F5F5F5F5F5F5F5F5F5F5F5F5F5F5F5F5F5F5F5F5F5F5F5F5F5F5F5F5F5F5F5F5F5F5F5F5F5F5F5F5F5F5
310
F5F5F5F5F5F5F5F5F5F5F5F5F5F5F5F5F5F5F5F5F5F5F5F5F5F5F5F5F5F5F5F5F5F5F5F5F5F5F5F5F5F5F5F5F5F5F5F5F5F5F5F5F5F5F5F5F5F5F5F5F5F5F5F5F5F5F5F5F5F5F5F5F5F5F5F5F5F5F5F5F5F5F5F5F5F5F5F5F5F5F5F5F5F5F5F5F5F5F5F5F5F5F5F5F5F5F5F5F5F5F5F5F5F5F5F5F5F5F5F5F5F5F5F5F5F5F5
310
F5F5F5F5F5F5F5F5F5F5F5F5F5F5F5F5F5F5F5F5F5F5F5F5F5F5F5F5F5F5F5F5F5F5F5F5F5F5F5F5F5F5F5F5F5F5F5F5F5F5F5F5F5F5F5F5F5F5F5F5F5F5F5F5F5F5F5F5F5F5F5F5F5F5F5F5F5F5F5F5F5F5F5F5F5F5F5F5F5F5F5F5F5F5F5F5F5F5F5F5F5F5F5F5F5F5F5F5F5F5F5F5F5F5F5F5F5F5F5F5F5F5F5F5F5F5F5
310
F5F5F5F5F5F5F5F5F5F5F5F5F5F5F5F5F5F5F5F5F5F5F5F5F5F5F5F5F5F5F5F5F5F5F5F5F5F5F5F5F5F5F5F5F5F5F5F5F5F5F5F5F5F5F5F5F5F5F5F5F5F5F5F5F5F5F5F5F5F5F5F5F5F5F5F5F5F5F5F5F5F5F5F5F5F5F5F5F5F5F5F5F5F5F5F5F5F5F5F5F5F5F5F5F5F5F5F5F5F5F5F5F5F5F5F5F5F5F5F5F5F5F5F5F5F5F5
310
F5F5F5F5F5F5F5F5F5F5F5F5F5F5F5F5F5F5F5F5F5F5F5F5F5F5F5F5F5F5F5F5F5F5F5F5F5F5F5F5F5F5F5F5F5F5F5F5F5F5F5F5F5F5F5F5F5F5F5F5F5F5F5F5F5F5F5F5F5F5F5F5F5F5F5F5F5F5F5F5F5F5F5F5F5F5F5F5F5F5F5F5F5F5F5F5F5F5F5F5F5F5F5F5F5F5F5F5F5F5F5F5F5F5F5F5F5F5F5F5F5F5F5F5F5F5F5
310
F5F5F5F5F5F5F5F5F5F5F5F5F5F5F5F5F5F5F5F5F5F5F5F5F5F5F5F5F5F5F5F5F5F5F5F5F5F5F5F5F5F5F5F5F5F5F5F5F5F5F5F5F5F5F5F5F5F5F5F5F5F5F5F5F5F5F5F5F5F5F5F5F5F5F5F5F5F5F5F5F5F5F5F5F5F5F5F5F5F5F5F5F5F5F5F5F5F5F5F5F5F5F5F5F5F5F5F5F5F5F5F5F5F5F5F5F5F5F5F5F5F5F5F5F5F5F5
310
F5F5F5F5F5F5F5F5F5F5F5F5F5F5F5F5F5F5F5F5F5F5F5F5F5F5F5F5F5F5F5F5F5F5F5F5F5F5F5F5F5F5F5F5F5F5F5F5F5F5F5F5F5F5F5F5F5F5F5F5F5F5F5F5F5F5F5F5F5F5F5F5F5F5F5F5F5F5F5F5F5F5F5F5F5F5F5F5F5F5F5F5F5F5F5F5F5F5F5F5F5F5F5F5F5F5F5F5F5F5F5F5F5F5F5F5F5F5F5F5F5F5F5F5F5F5F5
310
F5F5F5F5F5F5F5F5F5F5F5F5F5F5F5F5F5F5F5F5F5F5F5F5F5F5F5F5F5F5F5F5F5F5F5F5F5F5F5F5F5F5F5F5F5F5F5F5F5F5F5F5F5F5F5F5F5F5F5F5F5F5F5F5F5F5F5F5F5F5F5F5F5F5F5F5F5F5F5F5F5F5F5F5F5F5F5F5F5F5F5F5F5F5F5F5F5F5F5F5F5F5F5F5F5F5F5F5F5F5F5F5F5F5F5F5F5F5F5F5F5F5F5F5F5F5F5
310
F5F5F5F5F5F5F5F5F5F5F5F5F5F5F5F5F5F5F5F5F5F5F5F5F5F5F5F5F5F5F5F5F5F5F5F5F5F5F5F5F5F5F5F5F5F5F5F5F5F5F5F5F5F5F5F5F5F5F5F5F5F5F5F5F5F5F5F5F5F5F5F5F5F5F5F5F5F5F5F5F5F5F5F5F5F5F5F5F5F5F5F5F5F5F5F5F5F5F5F5F5F5F5F5F5F5F5F5F5F5F5F5F5F5F5F5F5F5F5F5F5F5F5F5F5F5F5
310
F5F5F5F5F5F5F5F5F5F5F5F5F5F5F5F5F5F5F5F5F5F5F5F5F5F5F5F5F5F5F5F5F5F5F5F5F5F5F5F5F5F5F5F5F5F5F5F5F5F5F5F5F5F5F5F5F5F5F5F5F5F5F5F5F5F5F5F5F5F5F5F5F5F5F5F5F5F5F5F5F5F5F5F5F5F5F5F5F5F5F5F5F5F5F5F5F5F5F5F5F5F5F5F5F5F5F5F5F5F5F5F5F5F5F5F5F5F5F5F5F5F5F5F5F5F5F5
310
F5F5F5F5F5F5F5F5F5F5F5F5F5F5F5F5F5F5F5F5F5F5F5F5F5F5F5F5F5F5F5F5F5F5F5F5F5F5F5F5F5F5F5F5F5F5F5F5F5F5F5F5F5F5F5F5F5F5F5F5F5F5F5F5F5F5F5F5F5F5F5F5F5F5F5F5F5F5F5F5F5F5F5F5F5F5F5F5F5F5F5F5F5F5F5F5F5F5F5F5F5F5F5F5F5F5F5F5F5F5F5F5F5F5F5F5F5F5F5F5F5F5F5F5F5F5F5
310
F5F5F5F5F5F5F5F5F5F5F5F5F5F5F5F5F5F5F5F5F5F5F5F5F5F5F5F5F5F5F5F5F5F5F5F5F5F5F5F5F5F5F5F5F5F5F5F5F5F5F5F5F5F5F5F5F5F5F5F5F5F5F5F5F5F5F5F5F5F5F5F5F5F5F5F5F5F5F5F5F5F5F5F5F5F5F5F5F5F5F5F5F5F5F5F5F5F5F5F5F5F5F5F5F5F5F5F5F5F5F5F5F5F5F5F5F5F5F5F5F5F5F5F5F5F5F5
310
F5F5F5F5F5F5F5F5F5F5F5F5F5F5F5F5F5F5F5F5F5F5F5F5F5F5F5F5F5F5F5F5F5F5F5F5F5F5F5F5F5F5F5F5F5F5F5F5F5F5F5F5F5F5F5F5F5F5F5F5F5F5F5F5F5F5F5F5F5F5F5F5F5F5F5F5F5F5F5F5F5F5F5F5F5F5F5F5F5F5F5F5F5F5F5F5F5F5F5F5F5F5F5F5F5F5F5F5F5F5F5F5F5F5F5F5F5F5F5F5F5F5F5F5F5F5F5
310
F5F5F5F5F5F5F5F5F5F5F5F5F5F5F5F5F5F5F5F5F5F5F5F5F5F5F5F5F5F5F5F5F5F5F5F5F5F5F5F5F5F5F5F5F5F5F5F5F5F5F5F5F5F5F5F5F5F5F5F5F5F5F5F5F5F5F5F5F5F5F5F5F5F5F5F5F5F5F5F5F5F5F5F5F5F5F5F5F5F5F5F5F5F5F5F5F5F5F5F5F5F5F5F5F5F5F5F5F5F5F5F5F5F5F5F5F5F5F5F5F5F5F5F5F5F5F5
310
F5F5F5F5F5F5F5F5F5F5F5F5F5F5F5F5F5F5F5F5F5F5F5F5F5F5F5F5F5F5F5F5F5F5F5F5F5F5F5F5F5F5F5F5F5F5F5F5F5F5F5F5F5F5F5F5F5F5F5F5F5F5F5F5F5F5F5F5F5F5F5F5F5F5F5F5F5F5F5F5F5F5F5F5F5F5F5F5F5F5F5F5F5F5F5F5F5F5F5F5F5F5F5F5F5F5F5F5F5F5F5F5F5F5F5F5F5F5F5F5F5F5F5F5F5F5F5
310
F5F5F5F5F5F5F5F5F5F5F5F5F5F5F5F5F5F5F5F5F5F5F5F5F5F5F5F5F5F5F5F5F5F5F5F5F5F5F5F5F5F5F5F5F5F5F5F5F5F5F5F5F5F5F5F5F5F5F5F5F5F5F5F5F5F5F5F5F5F5F5F5F5F5F5F5F5F5F5F5F5F5F5F5F5F5F5F5F5F5F5F5F5F5F5F5F5F5F5F5F5F5F5F5F5F5F5F5F5F5F5F5F5F5F5F5F5F5F5F5F5F5F5F5F5F5F5
310
F5F5F5F5F5F5F5F5F5F5F5F5F5F5F5F5F5F5F5F5F5F5F5F5F5F5F5F5F5F5F5F5F5F5F5F5F5F5F5F5F5F5F5F5F5F5F5F5F5F5F5F5F5F5F5F5F5F5F5F5F5F5F5F5F5F5F5F5F5F5F5F5F5F5F5F5F5F5F5F5F5F5F5F5F5F5F5F5F5F5F5F5F5F5F5F5F5F5F5F5F5F5F5F5F5F5F5F5F5F5F5F5F5F5F5F5F5F5F5F5F5F5F5F5F5F5F5
310
F5F5F5F5F5F5F5F5F5F5F5F5F5F5F5F5F5F5F5F5F5F5F5F5F5F5F5F5F5F5F5F5F5F5F5F5F5F5F5F5F5F5F5F5F5F5F5F5F5F5F5F5F5F5F5F5F5F5F5F5F5F5F5F5F5F5F5F5F5F5F5F5F5F5F5F5F5F5F5F5F5F5F5F5F5F5F5F5F5F5F5F5F5F5F5F5F5F5F5F5F5F5F5F5F5F5F5F5F5F5F5F5F5F5F5F5F5F5F5F5F5F5F5F5F5F5F5
310
F5F5F5F5F5F5F5F5F5F5F5F5F5F5F5F5F5F5F5F5F5F5F5F5F5F5F5F5F5F5F5F5F5F5F5F5F5F5F5F5F5F5F5F5F5F5F5F5F5F5F5F5F5F5F5F5F5F5F5F5F5F5F5F5F5F5F5F5F5F5F5F5F5F5F5F5F5F5F5F5F5F5F5F5F5F5F5F5F5F5F5F5F5F5F5F5F5F5F5F5F5F5F5F5F5F5F5F5F5F5F5F5F5F5F5F5F5F5F5F5F5F5F5F5F5F5F5
310
F5F5F5F5F5F5F5F5F5F5F5F5F5F5F5F5F5F5F5F5F5F5F5F5F5F5F5F5F5F5F5F5F5F5F5F5F5F5F5F5F5F5F5F5F5F5F5F5F5F5F5F5F5F5F5F5F5F5F5F5F5F5F5F5F5F5F5F5F5F5F5F5F5F5F5F5F5F5F5F5F5F5F5F5F5F5F5F5F5F5F5F5F5F5F5F5F5F5F5F5F5F5F5F5F5F5F5F5F5F5F5F5F5F5F5F5F5F5F5F5F5F5F5F5F5F5F5
310
F5F5F5F5F5F5F5F5F5F5F5F5F5F5F5F5F5F5F5F5F5F5F5F5F5F5F5F5F5F5F5F5F5F5F5F5F5F5F5F5F5F5F5F5F5F5F5F5F5F5F5F5F5F5F5F5F5F5F5F5F5F5F5F5F5F5F5F5F5F5F5F5F5F5F5F5F5F5F5F5F5F5F5F5F5F5F5F5F5F5F5F5F5F5F5F5F5F5F5F5F5F5F5F5F5F5F5F5F5F5F5F5F5F5F5F5F5F5F5F5F5F5F5F5F5F5F5
310
F5F5F5F5F5F5F5F5F5F5F5F5F5F5F5F5F5F5F5F5F5F5F5F5F5F5F5F5F5F5F5F5F5F5F5F5F5F5F5F5F5F5F5F5F5F5F5F5F5F5F5F5F5F5F5F5F5F5F5F5F5F5F5F5F5F5F5F5F5F5F5F5F5F5F5F5F5F5F5F5F5F5F5F5F5F5F5F5F5F5F5F5F5F5F5F5F5F5F5F5F5F5F5F5F5F5F5F5F5F5F5F5F5F5F5F5F5F5F5F5F5F5F5F5F5F5F5
310
F5F5F5F5F5F5F5F5F5F5F5F5F5F5F5F5F5F5F5F5F5F5F5F5F5F5F5F5F5F5F5F5F5F5F5F5F5F5F5F5F5F5F5F5F5F5F5F5F5F5F5F5F5F5F5F5F5F5F5F5F5F5F5F5F5F5F5F5F5F5F5F5F5F5F5F5F5F5F5F5F5F5F5F5F5F5F5F5F5F5F5F5F5F5F5F5F5F5F5F5F5F5F5F5F5F5F5F5F5F5F5F5F5F5F5F5F5F5F5F5F5F5F5F5F5F5F5
310
F5F5F5F5F5F5F5F5F5F5F5F5F5F5F5F5F5F5F5F5F5F5F5F5F5F5F5F5F5F5F5F5F5F5F5F5F5F5F5F5F5F5F5F5F5F5F5F5F5F5F5F5F5F5F5F5F5F5F5F5F5F5F5F5F5F5F5F5F5F5F5F5F5F5F5F5F5F5F5F5F5F5F5F5F5F5F5F5F5F5F5F5F5F5F5F5F5F5F5F5F5F5F5F5F5F5F5F5F5F5F5F5F5F5F5F5F5F5F5F5F5F5F5F5F5F5F5
310
F5F5F5F5F5F5F5F5F5F5F5F5F5F5F5F5F5F5F5F5F5F5F5F5F5F5F5F5F5F5F5F5F5F5F5F5F5F5F5F5F5F5F5F5F5F5F5F5F5F5F5F5F5F5F5F5F5F5F5F5F5F5F5F5F5F5F5F5F5F5F5F5F5F5F5F5F5F5F5F5F5F5F5F5F5F5F5F5F5F5F5F5F5F5F5F5F5F5F5F5F5F5F5F5F5F5F5F5F5F5F5F5F5F5F5F5F5F5F5F5F5F5F5F5F5F5F5
310
F5F5F5F5F5F5F5F5F5F5F5F5F5F5F5F5F5F5F5F5F5F5F5F5F5F5F5F5F5F5F5F5F5F5F5F5F5F5F5F5F5F5F5F5F5F5F5F5F5F5F5F5F5F5F5F5F5F5F5F5F5F5F5F5F5F5F5F5F5F5F5F5F5F5F5F5F5F5F5F5F5F5F5F5F5F5F5F5F5F5F5F5F5F5F5F5F5F5F5F5F5F5F5F5F5F5F5F5F5F5F5F5F5F5F5F5F5F5F5F5F5F5F5F5F5F5F5
310
F5F5F5F5F5F5F5F5F5F5F5F5F5F5F5F5F5F5F5F5F5F5F5F5F5F5F5F5F5F5F5F5F5F5F5F5F5F5F5F5F5F5F5F5F5F5F5F5F5F5F5F5F5F5F5F5F5F5F5F5F5F5F5F5F5F5F5F5F5F5F5F5F5F5F5F5F5F5F5F5F5F5F5F5F5F5F5F5F5F5F5F5F5F5F5F5F5F5F5F5F5F5F5F5F5F5F5F5F5F5F5F5F5F5F5F5F5F5F5F5F5F5F5F5F5F5F5
310
F5F5F5F5F5F5F5F5F5F5F5F5F5F5F5F5F5F5F5F5F5F5F5F5F5F5F5F5F5F5F5F5F5F5F5F5F5F5F5F5F5F5F5F5F5F5F5F5F5F5F5F5F5F5F5F5F5F5F5F5F5F5F5F5F5F5F5F5F5F5F5F5F5F5F5F5F5F5F5F5F5F5F5F5F5F5F5F5F5F5F5F5F5F5F5F5F5F5F5F5F5F5F5F5F5F5F5F5F5F5F5F5F5F5F5F5F5F5F5F5F5F5F5F5F5F5F5
310
F5F5F5F5F5F5F5F5F5F5F5F5F5F5F5F5F5F5F5F5F5F5F5F5F5F5F5F5F5F5F5F5F5F5F5F5F5F5F5F5F5F5F5F5F5F5F5F5F5F5F5F5F5F5F5F5F5F5F5F5F5F5F5F5F5F5F5F5F5F5F5F5F5F5F5F5F5F5F5F5F5F5F5F5F5F5F5F5F5F5F5F5F5F5F5F5F5F5F5F5F5F5F5F5F5F5F5F5F5F5F5F5F5F5F5F5F5F5F5F5F5F5F5F5F5F5F5
310
F5F5F5F5F5F5F5F5F5F5F5F5F5F5F5F5F5F5F5F5F5F5F5F5F5F5F5F5F5F5F5F5F5F5F5F5F5F5F5F5F5F5F5F5F5F5F5F5F5F5F5F5F5F5F5F5F5F5F5F5F5F5F5F5F5F5F5F5F5F5F5F5F5F5F5F5F5F5F5F5F5F5F5F5F5F5F5F5F5F5F5F5F5F5F5F5F5F5F5F5F5F5F5F5F5F5F5F5F5F5F5F5F5F5F5F5F5F5F5F5F5F5F5F5F5F5F5
310
F5F5F5F5F5F5F5F5F5F5F5F5F5F5F5F5F5F5F5F5F5F5F5F5F5F5F5F5F5F5F5F5F5F5F5F5F5F5F5F5F5F5F5F5F5F5F5F5F5F5F5F5F5F5F5F5F5F5F5F5F5F5F5F5F5F5F5F5F5F5F5F5F5F5F5F5F5F5F5F5F5F5F5F5F5F5F5F5F5F5F5F5F5F5F5F5F5F5F5F5F5F5F5F5F5F5F5F5F5F5F5F5F5F5F5F5F5F5F5F5F5F5F5F5F5F5F5
310
F5F5F5F5F5F5F5F5F5F5F5F5F5F5F5F5F5F5F5F5F5F5F5F5F5F5F5F5F5F5F5F5F5F5F5F5F5F5F5F5F5F5F5F5F5F5F5F5F5F5F5F5F5F5F5F5F5F5F5F5F5F5F5F5F5F5F5F5F5F5F5F5F5F5F5F5F5F5F5F5F5F5F5F5F5F5F5F5F5F5F5F5F5F5F5F5F5F5F5F5F5F5F5F5F5F5F5F5F5F5F5F5F5F5F5F5F5F5F5F5F5F5F5F5F5F5F5
310
F5F5F5F5F5F5F5F5F5F5F5F5F5F5F5F5F5F5F5F5F5F5F5F5F5F5F5F5F5F5F5F5F5F5F5F5F5F5F5F5F5F5F5F5F5F5F5F5F5F5F5F5F5F5F5F5F5F5F5F5F5F5F5F5F5F5F5F5F5F5F5F5F5F5F5F5F5F5F5F5F5F5F5F5F5F5F5F5F5F5F5F5F5F5F5F5F5F5F5F5F5F5F5F5F5F5F5F5F5F5F5F5F5F5F5F5F5F5F5F5F5F5F5F5F5F5F5
310
F5F5F5F5F5F5F5F5F5F5F5F5F5F5F5F5F5F5F5F5F5F5F5F5F5F5F5F5F5F5F5F5F5F5F5F5F5F5F5F5F5F5F5F5F5F5F5F5F5F5F5F5F5F5F5F5F5F5F5F5F5F5F5F5F5F5F5F5F5F5F5F5F5F5F5F5F5F5F5F5F5F5F5F5F5F5F5F5F5F5F5F5F5F5F5F5F5F5F5F5F5F5F5F5F5F5F5F5F5F5F5F5F5F5F5F5F5F5F5F5F5F5F5F5F5F5F5
310
F5F5F5F5F5F5F5F5F5F5F5F5F5F5F5F5F5F5F5F5F5F5F5F5F5F5F5F5F5F5F5F5F5F5F5F5F5F5F5F5F5F5F5F5F5F5F5F5F5F5F5F5F5F5F5F5F5F5F5F5F5F5F5F5F5F5F5F5F5F5F5F5F5F5F5F5F5F5F5F5F5F5F5F5F5F5F5F5F5F5F5F5F5F5F5F5F5F5F5F5F5F5F5F5F5F5F5F5F5F5F5F5F5F5F5F5F5F5F5F5F5F5F5F5F5F5F5
310
F5F5F5F5F5F5F5F5F5F5F5F5F5F5F5F5F5F5F5F5F5F5F5F5F5F5F5F5F5F5F5F5F5F5F5F5F5F5F5F5F5F5F5F5F5F5F5F5F5F5F5F5F5F5F5F5F5F5F5F5F5F5F5F5F5F5F5F5F5F5F5F5F5F5F5F5F5F5F5F5F5F5F5F5F5F5F5F5F5F5F5F5F5F5F5F5F5F5F5F5F5F5F5F5F5F5F5F5F5F5F5F5F5F5F5F5F5F5F5F5F5F5F5F5F5F5F5
310
F5F5F5F5F5F5F5F5F5F5F5F5F5F5F5F5F5F5F5F5F5F5F5F5F5F5F5F5F5F5F5F5F5F5F5F5F5F5F5F5F5F5F5F5F5F5F5F5F5F5F5F5F5F5F5F5F5F5F5F5F5F5F5F5F5F5F5F5F5F5F5F5F5F5F5F5F5F5F5F5F5F5F5F5F5F5F5F5F5F5F5F5F5F5F5F5F5F5F5F5F5F5F5F5F5F5F5F5F5F5F5F5F5F5F5F5F5F5F5F5F5F5F5F5F5F5F5
310
F5F5F5F5F5F5F5F5F5F5F5F5F5F5F5F5F5F5F5F5F5F5F5F5F5F5F5F5F5F5F5F5F5F5F5F5F5F5F5F5F5F5F5F5F5F5F5F5F5F5F5F5F5F5F5F5F5F5F5F5F5F5F5F5F5F5F5F5F5F5F5F5F5F5F5F5F5F5F5F5F5F5F5F5F5F5F5F5F5F5F5F5F5F5F5F5F5F5F5F5F5F5F5F5F5F5F5F5F5F5F5F5F5F5F5F5F5F5F5F5F5F5F5F5F5F5F5
310
F5F5F5F5F5F5F5F5F5F5F5F5F5F5F5F5F5F5F5F5F5F5F5F5F5F5F5F5F5F5F5F5F5F5F5F5F5F5F5F5F5F5F5F5F5F5F5F5F5F5F5F5F5F5F5F5F5F5F5F5F5F5F5F5F5F5F5F5F5F5F5F5F5F5F5F5F5F5F5F5F5F5F5F5F5F5F5F5F5F5F5F5F5F5F5F5F5F5F5F5F5F5F5F5F5F5F5F5F5F5F5F5F5F5F5F5F5F5F5F5F5F5F5F5F5F5F5
310
F5F5F5F5F5F5F5F5F5F5F5F5F5F5F5F5F5F5F5F5F5F5F5F5F5F5F5F5F5F5F5F5F5F5F5F5F5F5F5F5F5F5F5F5F5F5F5F5F5F5F5F5F5F5F5F5F5F5F5F5F5F5F5F5F5F5F5F5F5F5F5F5F5F5F5F5F5F5F5F5F5F5F5F5F5F5F5F5F5F5F5F5F5F5F5F5F5F5F5F5F5F5F5F5F5F5F5F5F5F5F5F5F5F5F5F5F5F5F5F5F5F5F5F5F5F5F5
310
F5F5F5F5F5F5F5F5F5F5F5F5F5F5F5F5F5F5F5F5F5F5F5F5F5F5F5F5F5F5F5F5F5F5F5F5F5F5F5F5F5F5F5F5F5F5F5F5F5F5F5F5F5F5F5F5F5F5F5F5F5F5F5F5F5F5F5F5F5F5F5F5F5F5F5F5F5F5F5F5F5F5F5F5F5F5F5F5F5F5F5F5F5F5F5F5F5F5F5F5F5F5F5F5F5F5F5F5F5F5F5F5F5F5F5F5F5F5F5F5F5F5F5F5F5F5F5
310
F5F5F5F5F5F5F5F5F5F5F5F5F5F5F5F5F5F5F5F5F5F5F5F5F5F5F5F5F5F5F5F5F5F5F5F5F5F5F5F5F5F5
  0
XRECORD
  5
1425
102
{ACAD_REACTORS
330
1424
102
}
330
1424
100
AcDbXrecord
280
     1
102
SHADEPLOT
 70
     0
102
SHADEPLOTRESLEVEL
 70
     2
102
SHADEPLOTCUSTOMDPI
 70
   300
  0
XRECORD
  5
1428
102
{ACAD_REACTORS
330
1427
102
}
330
1427
100
AcDbXrecord
280
     1
102
SHADEPLOT
 70
     0
102
SHADEPLOTRESLEVEL
 70
     2
102
SHADEPLOTCUSTOMDPI
 70
   300
  0
XRECORD
  5
5CB
102
{ACAD_REACTORS
330
1A
102
}
330
1A
100
AcDbXrecord
280
     1
102
MATERIAL
148
0.0
149
0.0
149
0.0
 93
        0
 94
      127
282
     0
 72
     0
 77
     0
171
     0
175
     0
179
     0
273
     0
  0
XRECORD
  5
1C
102
{ACAD_REACTORS
330
1A
102
}
330
1A
100
AcDbXrecord
280
     1
270
     1
271
     1
  0
XRECORD
  5
1B
102
{ACAD_REACTORS
330
1A
102
}
330
1A
100
AcDbXrecord
280
     1
270
     1
271
     1
  0
XRECORD
  5
1F
102
{ACAD_REACTORS
330
1A
102
}
330
1A
100
AcDbXrecord
280
     1
270
     1
271
     1
  0
XRECORD
  5
1E
102
{ACAD_REACTORS
330
1A
102
}
330
1A
100
AcDbXrecord
280
     1
270
     1
271
     1
  0
XRECORD
  5
20
102
{ACAD_REACTORS
330
1A
102
}
330
1A
100
AcDbXrecord
280
     1
270
     1
271
     1
  0
XRECORD
  5
1D
102
{ACAD_REACTORS
330
1A
102
}
330
1A
100
AcDbXrecord
280
     1
270
     1
271
     1
  0
XRECORD
  5
5CA
102
{ACAD_REACTORS
330
12
102
}
330
12
100
AcDbXrecord
280
     1
102
MATERIAL
148
0.0
149
0.0
149
0.0
 93
        0
 94
      127
282
     0
 72
     0
 77
     0
171
     0
175
     0
179
     0
273
     0
  0
XRECORD
  5
14
102
{ACAD_REACTORS
330
12
102
}
330
12
100
AcDbXrecord
280
     1
270
     1
271
     1
  0
XRECORD
  5
13
102
{ACAD_REACTORS
330
12
102
}
330
12
100
AcDbXrecord
280
     1
270
     1
271
     1
  0
XRECORD
  5
17
102
{ACAD_REACTORS
330
12
102
}
330
12
100
AcDbXrecord
280
     1
270
     1
271
     1
  0
XRECORD
  5
16
102
{ACAD_REACTORS
330
12
102
}
330
12
100
AcDbXrecord
280
     1
270
     1
271
     1
  0
XRECORD
  5
18
102
{ACAD_REACTORS
330
12
102
}
330
12
100
AcDbXrecord
280
     1
270
     1
271
     1
  0
XRECORD
  5
15
102
{ACAD_REACTORS
330
12
102
}
330
12
100
AcDbXrecord
280
     1
270
     1
271
     1
  0
XRECORD
  5
5CC
102
{ACAD_REACTORS
330
22
102
}
330
22
100
AcDbXrecord
280
     1
102
MATERIAL
148
0.0
149
0.0
149
0.0
 93
        0
 94
      127
282
     0
 72
     0
 77
     0
171
     0
175
     0
179
     0
273
     0
  0
XRECORD
  5
24
102
{ACAD_REACTORS
330
22
102
}
330
22
100
AcDbXrecord
280
     1
270
     1
271
     1
  0
XRECORD
  5
23
102
{ACAD_REACTORS
330
22
102
}
330
22
100
AcDbXrecord
280
     1
270
     1
271
     1
  0
XRECORD
  5
27
102
{ACAD_REACTORS
330
22
102
}
330
22
100
AcDbXrecord
280
     1
270
     1
271
     1
  0
XRECORD
  5
26
102
{ACAD_REACTORS
330
22
102
}
330
22
100
AcDbXrecord
280
     1
270
     1
271
     1
  0
XRECORD
  5
28
102
{ACAD_REACTORS
330
22
102
}
330
22
100
AcDbXrecord
280
     1
270
     1
271
     1
  0
XRECORD
  5
25
102
{ACAD_REACTORS
330
22
102
}
330
22
100
AcDbXrecord
280
     1
270
     1
271
     1
  0
CELLSTYLEMAP
  5
13F5
102
{ACAD_REACTORS
330
5C1
102
}
330
5C1
100
AcDbCellStyleMap
 90
        3
300
CELLSTYLE
  1
TABLEFORMAT_BEGIN
 90
        5
170
     1
 91
        0
 92
    32768
 62
   257
 93
        1
300
CONTENTFORMAT
  1
CONTENTFORMAT_BEGIN
 90
        0
 91
        0
 92
      512
 93
        0
300

 40
0.0
140
1.0
 94
        5
 62
     0
340
50
144
6.0
309
CONTENTFORMAT_END
171
     1
301
MARGIN
  1
CELLMARGIN_BEGIN
 40
1.5
 40
1.5
 40
1.5
 40
1.5
 40
0.18
 40
0.18
309
CELLMARGIN_END
 94
        6
 95
        1
302
GRIDFORMAT
  1
GRIDFORMAT_BEGIN
 90
        0
 91
        1
 62
     0
 92
       -2
340
0
 93
        0
 40
0.045
309
GRIDFORMAT_END
 95
        2
302
GRIDFORMAT
  1
GRIDFORMAT_BEGIN
 90
        0
 91
        1
 62
     0
 92
       -2
340
0
 93
        0
 40
0.045
309
GRIDFORMAT_END
 95
        4
302
GRIDFORMAT
  1
GRIDFORMAT_BEGIN
 90
        0
 91
        1
 62
     0
 92
       -2
340
0
 93
        0
 40
0.045
309
GRIDFORMAT_END
 95
        8
302
GRIDFORMAT
  1
GRIDFORMAT_BEGIN
 90
        0
 91
        1
 62
     0
 92
       -2
340
0
 93
        0
 40
0.045
309
GRIDFORMAT_END
 95
       16
302
GRIDFORMAT
  1
GRIDFORMAT_BEGIN
 90
        0
 91
        1
 62
     0
 92
       -2
340
0
 93
        0
 40
0.045
309
GRIDFORMAT_END
 95
       32
302
GRIDFORMAT
  1
GRIDFORMAT_BEGIN
 90
        0
 91
        1
 62
     0
 92
       -2
340
0
 93
        0
 40
0.045
309
GRIDFORMAT_END
309
TABLEFORMAT_END
  1
CELLSTYLE_BEGIN
 90
        1
 91
        1
300
_TITLE
309
CELLSTYLE_END
300
CELLSTYLE
  1
TABLEFORMAT_BEGIN
 90
        5
170
     1
 91
        0
 92
        0
 62
   257
 93
        1
300
CONTENTFORMAT
  1
CONTENTFORMAT_BEGIN
 90
        0
 91
        0
 92
      512
 93
        0
300

 40
0.0
140
1.0
 94
        5
 62
     0
340
50
144
4.5
309
CONTENTFORMAT_END
171
     1
301
MARGIN
  1
CELLMARGIN_BEGIN
 40
1.5
 40
1.5
 40
1.5
 40
1.5
 40
0.18
 40
0.18
309
CELLMARGIN_END
 94
        6
 95
        1
302
GRIDFORMAT
  1
GRIDFORMAT_BEGIN
 90
        0
 91
        1
 62
     0
 92
       -2
340
0
 93
        0
 40
0.045
309
GRIDFORMAT_END
 95
        2
302
GRIDFORMAT
  1
GRIDFORMAT_BEGIN
 90
        0
 91
        1
 62
     0
 92
       -2
340
0
 93
        0
 40
0.045
309
GRIDFORMAT_END
 95
        4
302
GRIDFORMAT
  1
GRIDFORMAT_BEGIN
 90
        0
 91
        1
 62
     0
 92
       -2
340
0
 93
        0
 40
0.045
309
GRIDFORMAT_END
 95
        8
302
GRIDFORMAT
  1
GRIDFORMAT_BEGIN
 90
        0
 91
        1
 62
     0
 92
       -2
340
0
 93
        0
 40
0.045
309
GRIDFORMAT_END
 95
       16
302
GRIDFORMAT
  1
GRIDFORMAT_BEGIN
 90
        0
 91
        1
 62
     0
 92
       -2
340
0
 93
        0
 40
0.045
309
GRIDFORMAT_END
 95
       32
302
GRIDFORMAT
  1
GRIDFORMAT_BEGIN
 90
        0
 91
        1
 62
     0
 92
       -2
340
0
 93
        0
 40
0.045
309
GRIDFORMAT_END
309
TABLEFORMAT_END
  1
CELLSTYLE_BEGIN
 90
        2
 91
        1
300
_HEADER
309
CELLSTYLE_END
300
CELLSTYLE
  1
TABLEFORMAT_BEGIN
 90
        5
170
     1
 91
        0
 92
        0
 62
   257
 93
        1
300
CONTENTFORMAT
  1
CONTENTFORMAT_BEGIN
 90
        0
 91
        0
 92
      512
 93
        0
300

 40
0.0
140
1.0
 94
        2
 62
     0
340
50
144
4.5
309
CONTENTFORMAT_END
171
     1
301
MARGIN
  1
CELLMARGIN_BEGIN
 40
1.5
 40
1.5
 40
1.5
 40
1.5
 40
0.18
 40
0.18
309
CELLMARGIN_END
 94
        6
 95
        1
302
GRIDFORMAT
  1
GRIDFORMAT_BEGIN
 90
        0
 91
        1
 62
     0
 92
       -2
340
0
 93
        0
 40
0.045
309
GRIDFORMAT_END
 95
        2
302
GRIDFORMAT
  1
GRIDFORMAT_BEGIN
 90
        0
 91
        1
 62
     0
 92
       -2
340
0
 93
        0
 40
0.045
309
GRIDFORMAT_END
 95
        4
302
GRIDFORMAT
  1
GRIDFORMAT_BEGIN
 90
        0
 91
        1
 62
     0
 92
       -2
340
0
 93
        0
 40
0.045
309
GRIDFORMAT_END
 95
        8
302
GRIDFORMAT
  1
GRIDFORMAT_BEGIN
 90
        0
 91
        1
 62
     0
 92
       -2
340
0
 93
        0
 40
0.045
309
GRIDFORMAT_END
 95
       16
302
GRIDFORMAT
  1
GRIDFORMAT_BEGIN
 90
        0
 91
        1
 62
     0
 92
       -2
340
0
 93
        0
 40
0.045
309
GRIDFORMAT_END
 95
       32
302
GRIDFORMAT
  1
GRIDFORMAT_BEGIN
 90
        0
 91
        1
 62
     0
 92
       -2
340
0
 93
        0
 40
0.045
309
GRIDFORMAT_END
309
TABLEFORMAT_END
  1
CELLSTYLE_BEGIN
 90
        3
 91
        2
300
_DATA
309
CELLSTYLE_END
  0
XRECORD
  5
1423
102
{ACAD_REACTORS
330
5C1
102
}
330
5C1
100
AcDbXrecord
280
     1
102
ACAD_ROUNDTRIP_PRE2007_TABLESTYLE
 90
      512
 91
        0
  1

 92
      512
 93
        0
  2

 94
      512
 95
        0
  3

  0
XRECORD
  5
1408
102
{ACAD_REACTORS
330
1407
102
}
330
1407
100
AcDbXrecord
280
     1
102
RTVSPropertyOp0
 70
     1
102
RTVSPropertyOp1
 70
     1
102
RTVSPropertyOp2
 70
     1
102
RTVSPropertyOp3
 70
     1
102
RTVSPropertyOp4
 70
     1
102
RTVSPropertyOp5
 70
     1
102
RTVSPropertyOp6
 70
     1
102
RTVSPropertyOp7
 70
     1
102
RTVSPropertyOp8
 70
     1
102
RTVSPropertyOp9
 70
     1
102
RTVSPropertyOp10
 70
     1
102
RTVSPropertyOp11
 70
     1
102
RTVSPropertyOp12
 70
     1
102
RTVSPropertyOp13
 70
     1
102
RTVSPropertyOp14
 70
     1
102
RTVSPropertyOp15
 70
     1
102
RTVSPropertyOp16
 70
     1
102
RTVSPropertyOp17
 70
     1
102
RTVSPropertyOp18
 70
     1
102
RTVSPropertyOp19
 70
     1
102
RTVSPropertyOp20
 70
     1
102
RTVSPropertyOp21
 70
     1
102
RTVSPropertyOp22
 70
     1
102
RTVSPropertyOp23
 70
     1
102
RTVSPropertyOp24
 70
     1
102
RTVSPropertyOp25
 70
     1
102
RTVSPropertyOp26
 70
     1
102
RTVSPropertyOp27
 70
     1
  0
XRECORD
  5
140C
102
{ACAD_REACTORS
330
140B
102
}
330
140B
100
AcDbXrecord
280
     1
102
RTVSPropertyOp0
 70
     1
102
RTVSPropertyOp1
 70
     1
102
RTVSPropertyOp2
 70
     1
102
RTVSPropertyOp3
 70
     1
102
RTVSPropertyOp4
 70
     1
102
RTVSPropertyOp5
 70
     1
102
RTVSPropertyOp6
 70
     1
102
RTVSPropertyOp7
 70
     1
102
RTVSPropertyOp8
 70
     1
102
RTVSPropertyOp9
 70
     1
102
RTVSPropertyOp10
 70
     1
102
RTVSPropertyOp11
 70
     1
102
RTVSPropertyOp12
 70
     1
102
RTVSPropertyOp13
 70
     1
102
RTVSPropertyOp14
 70
     1
102
RTVSPropertyOp15
 70
     1
102
RTVSPropertyOp16
 70
     1
102
RTVSPropertyOp17
 70
     1
102
RTVSPropertyOp18
 70
     1
102
RTVSPropertyOp19
 70
     1
102
RTVSPropertyOp20
 70
     1
102
RTVSPropertyOp21
 70
     1
102
RTVSPropertyOp22
 70
     1
102
RTVSPropertyOp23
 70
     1
102
RTVSPropertyOp24
 70
     1
102
RTVSPropertyOp25
 70
     1
102
RTVSPropertyOp26
 70
     1
102
RTVSPropertyOp27
 70
     1
  0
XRECORD
  5
140A
102
{ACAD_REACTORS
330
1409
102
}
330
1409
100
AcDbXrecord
280
     1
102
RTVSPropertyOp0
 70
     1
102
RTVSPropertyOp1
 70
     1
102
RTVSPropertyOp2
 70
     1
102
RTVSPropertyOp3
 70
     1
102
RTVSPropertyOp4
 70
     1
102
RTVSPropertyOp5
 70
     1
102
RTVSPropertyOp6
 70
     1
102
RTVSPropertyOp7
 70
     1
102
RTVSPropertyOp8
 70
     1
102
RTVSPropertyOp9
 70
     1
102
RTVSPropertyOp10
 70
     1
102
RTVSPropertyOp11
 70
     1
102
RTVSPropertyOp12
 70
     1
102
RTVSPropertyOp13
 70
     1
102
RTVSPropertyOp14
 70
     1
102
RTVSPropertyOp15
 70
     1
102
RTVSPropertyOp16
 70
     1
102
RTVSPropertyOp17
 70
     1
102
RTVSPropertyOp18
 70
     1
102
RTVSPropertyOp19
 70
     1
102
RTVSPropertyOp20
 70
     1
102
RTVSPropertyOp21
 70
     1
102
RTVSPropertyOp22
 70
     1
102
RTVSPropertyOp23
 70
     1
102
RTVSPropertyOp24
 70
     1
102
RTVSPropertyOp25
 70
     1
102
RTVSPropertyOp26
 70
     1
102
RTVSPropertyOp27
 70
     1
  0
XRECORD
  5
1406
102
{ACAD_REACTORS
330
1405
102
}
330
1405
100
AcDbXrecord
280
     1
102
RTVSPropertyOp0
 70
     1
102
RTVSPropertyOp1
 70
     1
102
RTVSPropertyOp2
 70
     1
102
RTVSPropertyOp3
 70
     1
102
RTVSPropertyOp4
 70
     1
102
RTVSPropertyOp5
 70
     1
102
RTVSPropertyOp6
 70
     1
102
RTVSPropertyOp7
 70
     1
102
RTVSPropertyOp8
 70
     1
102
RTVSPropertyOp9
 70
     1
102
RTVSPropertyOp10
 70
     1
102
RTVSPropertyOp11
 70
     1
102
RTVSPropertyOp12
 70
     1
102
RTVSPropertyOp13
 70
     1
102
RTVSPropertyOp14
 70
     1
102
RTVSPropertyOp15
 70
     1
102
RTVSPropertyOp16
 70
     1
102
RTVSPropertyOp17
 70
     1
102
RTVSPropertyOp18
 70
     1
102
RTVSPropertyOp19
 70
     1
102
RTVSPropertyOp20
 70
     1
102
RTVSPropertyOp21
 70
     1
102
RTVSPropertyOp22
 70
     1
102
RTVSPropertyOp23
 70
     1
102
RTVSPropertyOp24
 70
     1
102
RTVSPropertyOp25
 70
     1
102
RTVSPropertyOp26
 70
     1
102
RTVSPropertyOp27
 70
     1
  0
XRECORD
  5
1414
102
{ACAD_REACTORS
330
1413
102
}
330
1413
100
AcDbXrecord
280
     1
102
RTVSPropertyOp0
 70
     1
102
RTVSPropertyOp1
 70
     1
102
RTVSPropertyOp2
 70
     1
102
RTVSPropertyOp3
 70
     1
102
RTVSPropertyOp4
 70
     1
102
RTVSPropertyOp5
 70
     1
102
RTVSPropertyOp6
 70
     1
102
RTVSPropertyOp7
 70
     1
102
RTVSPropertyOp8
 70
     1
102
RTVSPropertyOp9
 70
     1
102
RTVSPropertyOp10
 70
     1
102
RTVSPropertyOp11
 70
     1
102
RTVSPropertyOp12
 70
     1
102
RTVSPropertyOp13
 70
     1
102
RTVSPropertyOp14
 70
     1
102
RTVSPropertyOp15
 70
     1
102
RTVSPropertyOp16
 70
     1
102
RTVSPropertyOp17
 70
     1
102
RTVSPropertyOp18
 70
     1
102
RTVSPropertyOp19
 70
     1
102
RTVSPropertyOp20
 70
     1
102
RTVSPropertyOp21
 70
     1
102
RTVSPropertyOp22
 70
     1
102
RTVSPropertyOp23
 70
     1
102
RTVSPropertyOp24
 70
     1
102
RTVSPropertyOp25
 70
     1
102
RTVSPropertyOp26
 70
     1
102
RTVSPropertyOp27
 70
     1
  0
XRECORD
  5
141C
102
{ACAD_REACTORS
330
141B
102
}
330
141B
100
AcDbXrecord
280
     1
102
RTVSPropertyOp0
 70
     1
102
RTVSPropertyOp1
 70
     1
102
RTVSPropertyOp2
 70
     1
102
RTVSPropertyOp3
 70
     1
102
RTVSPropertyOp4
 70
     1
102
RTVSPropertyOp5
 70
     1
102
RTVSPropertyOp6
 70
     1
102
RTVSPropertyOp7
 70
     1
102
RTVSPropertyOp8
 70
     1
102
RTVSPropertyOp9
 70
     1
102
RTVSPropertyOp10
 70
     1
102
RTVSPropertyOp11
 70
     1
102
RTVSPropertyOp12
 70
     1
102
RTVSPropertyOp13
 70
     1
102
RTVSPropertyOp14
 70
     1
102
RTVSPropertyOp15
 70
     1
102
RTVSPropertyOp16
 70
     1
102
RTVSPropertyOp17
 70
     1
102
RTVSPropertyOp18
 70
     1
102
RTVSPropertyOp19
 70
     1
102
RTVSPropertyOp20
 70
     1
102
RTVSPropertyOp21
 70
     1
102
RTVSPropertyOp22
 70
     1
102
RTVSPropertyOp23
 70
     1
102
RTVSPropertyOp24
 70
     1
102
RTVSPropertyOp25
 70
     1
102
RTVSPropertyOp26
 70
     1
102
RTVSPropertyOp27
 70
     1
  0
XRECORD
  5
140E
102
{ACAD_REACTORS
330
140D
102
}
330
140D
100
AcDbXrecord
280
     1
102
RTVSPropertyOp0
 70
     1
102
RTVSPropertyOp1
 70
     1
102
RTVSPropertyOp2
 70
     1
102
RTVSPropertyOp3
 70
     1
102
RTVSPropertyOp4
 70
     1
102
RTVSPropertyOp5
 70
     1
102
RTVSPropertyOp6
 70
     1
102
RTVSPropertyOp7
 70
     1
102
RTVSPropertyOp8
 70
     1
102
RTVSPropertyOp9
 70
     1
102
RTVSPropertyOp10
 70
     1
102
RTVSPropertyOp11
 70
     1
102
RTVSPropertyOp12
 70
     1
102
RTVSPropertyOp13
 70
     1
102
RTVSPropertyOp14
 70
     1
102
RTVSPropertyOp15
 70
     1
102
RTVSPropertyOp16
 70
     1
102
RTVSPropertyOp17
 70
     1
102
RTVSPropertyOp18
 70
     1
102
RTVSPropertyOp19
 70
     1
102
RTVSPropertyOp20
 70
     1
102
RTVSPropertyOp21
 70
     1
102
RTVSPropertyOp22
 70
     1
102
RTVSPropertyOp23
 70
     1
102
RTVSPropertyOp24
 70
     1
102
RTVSPropertyOp25
 70
     1
102
RTVSPropertyOp26
 70
     1
102
RTVSPropertyOp27
 70
     1
  0
XRECORD
  5
1412
102
{ACAD_REACTORS
330
1411
102
}
330
1411
100
AcDbXrecord
280
     1
102
RTVSPropertyOp0
 70
     1
102
RTVSPropertyOp1
 70
     1
102
RTVSPropertyOp2
 70
     1
102
RTVSPropertyOp3
 70
     1
102
RTVSPropertyOp4
 70
     1
102
RTVSPropertyOp5
 70
     1
102
RTVSPropertyOp6
 70
     1
102
RTVSPropertyOp7
 70
     1
102
RTVSPropertyOp8
 70
     1
102
RTVSPropertyOp9
 70
     1
102
RTVSPropertyOp10
 70
     1
102
RTVSPropertyOp11
 70
     1
102
RTVSPropertyOp12
 70
     1
102
RTVSPropertyOp13
 70
     1
102
RTVSPropertyOp14
 70
     1
102
RTVSPropertyOp15
 70
     1
102
RTVSPropertyOp16
 70
     1
102
RTVSPropertyOp17
 70
     1
102
RTVSPropertyOp18
 70
     1
102
RTVSPropertyOp19
 70
     1
102
RTVSPropertyOp20
 70
     1
102
RTVSPropertyOp21
 70
     1
102
RTVSPropertyOp22
 70
     1
102
RTVSPropertyOp23
 70
     1
102
RTVSPropertyOp24
 70
     1
102
RTVSPropertyOp25
 70
     1
102
RTVSPropertyOp26
 70
     1
102
RTVSPropertyOp27
 70
     1
  0
XRECORD
  5
1422
102
{ACAD_REACTORS
330
1421
102
}
330
1421
100
AcDbXrecord
280
     1
102
RTVSPropertyOp0
 70
     0
102
RTVSPropertyOp1
 70
     0
102
RTVSPropertyOp2
 70
     0
102
RTVSPropertyOp3
 70
     0
102
RTVSPropertyOp4
 70
     0
102
RTVSPropertyOp5
 70
     0
102
RTVSPropertyOp6
 70
     0
102
RTVSPropertyOp7
 70
     0
102
RTVSPropertyOp8
 70
     0
102
RTVSPropertyOp9
 70
     0
102
RTVSPropertyOp10
 70
     0
102
RTVSPropertyOp11
 70
     0
102
RTVSPropertyOp12
 70
     0
102
RTVSPropertyOp13
 70
     0
102
RTVSPropertyOp14
 70
     2
102
RTVSPropertyOp15
 70
     0
102
RTVSPropertyOp16
 70
     0
102
RTVSPropertyOp17
 70
     0
102
RTVSPropertyOp18
 70
     0
102
RTVSPropertyOp19
 70
     0
102
RTVSPropertyOp20
 70
     0
102
RTVSPropertyOp21
 70
     0
102
RTVSPropertyOp22
 70
     0
102
RTVSPropertyOp23
 70
     0
102
RTVSPropertyOp24
 70
     0
102
RTVSPropertyOp25
 70
     0
102
RTVSPropertyOp26
 70
     0
102
RTVSPropertyOp27
 70
     0
  0
XRECORD
  5
141A
102
{ACAD_REACTORS
330
1419
102
}
330
1419
100
AcDbXrecord
280
     1
102
RTVSPropertyOp0
 70
     1
102
RTVSPropertyOp1
 70
     1
102
RTVSPropertyOp2
 70
     1
102
RTVSPropertyOp3
 70
     1
102
RTVSPropertyOp4
 70
     1
102
RTVSPropertyOp5
 70
     1
102
RTVSPropertyOp6
 70
     1
102
RTVSPropertyOp7
 70
     1
102
RTVSPropertyOp8
 70
     1
102
RTVSPropertyOp9
 70
     1
102
RTVSPropertyOp10
 70
     1
102
RTVSPropertyOp11
 70
     1
102
RTVSPropertyOp12
 70
     1
102
RTVSPropertyOp13
 70
     1
102
RTVSPropertyOp14
 70
     1
102
RTVSPropertyOp15
 70
     1
102
RTVSPropertyOp16
 70
     1
102
RTVSPropertyOp17
 70
     1
102
RTVSPropertyOp18
 70
     1
102
RTVSPropertyOp19
 70
     1
102
RTVSPropertyOp20
 70
     1
102
RTVSPropertyOp21
 70
     1
102
RTVSPropertyOp22
 70
     1
102
RTVSPropertyOp23
 70
     1
102
RTVSPropertyOp24
 70
     1
102
RTVSPropertyOp25
 70
     1
102
RTVSPropertyOp26
 70
     1
102
RTVSPropertyOp27
 70
     1
  0
XRECORD
  5
13FE
102
{ACAD_REACTORS
330
13FD
102
}
330
13FD
100
AcDbXrecord
280
     1
102
RTVSPropertyOp0
 70
     1
102
RTVSPropertyOp1
 70
     1
102
RTVSPropertyOp2
 70
     1
102
RTVSPropertyOp3
 70
     1
102
RTVSPropertyOp4
 70
     1
102
RTVSPropertyOp5
 70
     1
102
RTVSPropertyOp6
 70
     1
102
RTVSPropertyOp7
 70
     1
102
RTVSPropertyOp8
 70
     1
102
RTVSPropertyOp9
 70
     1
102
RTVSPropertyOp10
 70
     1
102
RTVSPropertyOp11
 70
     1
102
RTVSPropertyOp12
 70
     1
102
RTVSPropertyOp13
 70
     1
102
RTVSPropertyOp14
 70
     1
102
RTVSPropertyOp15
 70
     1
102
RTVSPropertyOp16
 70
     1
102
RTVSPropertyOp17
 70
     1
102
RTVSPropertyOp18
 70
     1
102
RTVSPropertyOp19
 70
     1
102
RTVSPropertyOp20
 70
     1
102
RTVSPropertyOp21
 70
     1
102
RTVSPropertyOp22
 70
     1
102
RTVSPropertyOp23
 70
     1
102
RTVSPropertyOp24
 70
     1
102
RTVSPropertyOp25
 70
     1
102
RTVSPropertyOp26
 70
     1
102
RTVSPropertyOp27
 70
     1
  0
XRECORD
  5
1400
102
{ACAD_REACTORS
330
13FF
102
}
330
13FF
100
AcDbXrecord
280
     1
102
RTVSPropertyOp0
 70
     1
102
RTVSPropertyOp1
 70
     1
102
RTVSPropertyOp2
 70
     1
102
RTVSPropertyOp3
 70
     1
102
RTVSPropertyOp4
 70
     1
102
RTVSPropertyOp5
 70
     1
102
RTVSPropertyOp6
 70
     1
102
RTVSPropertyOp7
 70
     1
102
RTVSPropertyOp8
 70
     1
102
RTVSPropertyOp9
 70
     1
102
RTVSPropertyOp10
 70
     1
102
RTVSPropertyOp11
 70
     1
102
RTVSPropertyOp12
 70
     1
102
RTVSPropertyOp13
 70
     1
102
RTVSPropertyOp14
 70
     1
102
RTVSPropertyOp15
 70
     1
102
RTVSPropertyOp16
 70
     1
102
RTVSPropertyOp17
 70
     1
102
RTVSPropertyOp18
 70
     1
102
RTVSPropertyOp19
 70
     1
102
RTVSPropertyOp20
 70
     1
102
RTVSPropertyOp21
 70
     1
102
RTVSPropertyOp22
 70
     1
102
RTVSPropertyOp23
 70
     1
102
RTVSPropertyOp24
 70
     1
102
RTVSPropertyOp25
 70
     1
102
RTVSPropertyOp26
 70
     1
102
RTVSPropertyOp27
 70
     1
  0
XRECORD
  5
1402
102
{ACAD_REACTORS
330
1401
102
}
330
1401
100
AcDbXrecord
280
     1
102
RTVSPropertyOp0
 70
     1
102
RTVSPropertyOp1
 70
     1
102
RTVSPropertyOp2
 70
     1
102
RTVSPropertyOp3
 70
     1
102
RTVSPropertyOp4
 70
     1
102
RTVSPropertyOp5
 70
     1
102
RTVSPropertyOp6
 70
     1
102
RTVSPropertyOp7
 70
     1
102
RTVSPropertyOp8
 70
     1
102
RTVSPropertyOp9
 70
     1
102
RTVSPropertyOp10
 70
     1
102
RTVSPropertyOp11
 70
     1
102
RTVSPropertyOp12
 70
     1
102
RTVSPropertyOp13
 70
     1
102
RTVSPropertyOp14
 70
     1
102
RTVSPropertyOp15
 70
     1
102
RTVSPropertyOp16
 70
     1
102
RTVSPropertyOp17
 70
     1
102
RTVSPropertyOp18
 70
     1
102
RTVSPropertyOp19
 70
     1
102
RTVSPropertyOp20
 70
     1
102
RTVSPropertyOp21
 70
     1
102
RTVSPropertyOp22
 70
     1
102
RTVSPropertyOp23
 70
     1
102
RTVSPropertyOp24
 70
     1
102
RTVSPropertyOp25
 70
     1
102
RTVSPropertyOp26
 70
     1
102
RTVSPropertyOp27
 70
     1
  0
XRECORD
  5
1404
102
{ACAD_REACTORS
330
1403
102
}
330
1403
100
AcDbXrecord
280
     1
102
RTVSPropertyOp0
 70
     1
102
RTVSPropertyOp1
 70
     1
102
RTVSPropertyOp2
 70
     1
102
RTVSPropertyOp3
 70
     1
102
RTVSPropertyOp4
 70
     1
102
RTVSPropertyOp5
 70
     1
102
RTVSPropertyOp6
 70
     1
102
RTVSPropertyOp7
 70
     1
102
RTVSPropertyOp8
 70
     1
102
RTVSPropertyOp9
 70
     1
102
RTVSPropertyOp10
 70
     1
102
RTVSPropertyOp11
 70
     1
102
RTVSPropertyOp12
 70
     1
102
RTVSPropertyOp13
 70
     1
102
RTVSPropertyOp14
 70
     1
102
RTVSPropertyOp15
 70
     1
102
RTVSPropertyOp16
 70
     1
102
RTVSPropertyOp17
 70
     1
102
RTVSPropertyOp18
 70
     1
102
RTVSPropertyOp19
 70
     1
102
RTVSPropertyOp20
 70
     1
102
RTVSPropertyOp21
 70
     1
102
RTVSPropertyOp22
 70
     1
102
RTVSPropertyOp23
 70
     1
102
RTVSPropertyOp24
 70
     1
102
RTVSPropertyOp25
 70
     1
102
RTVSPropertyOp26
 70
     1
102
RTVSPropertyOp27
 70
     1
  0
XRECORD
  5
141E
102
{ACAD_REACTORS
330
141D
102
}
330
141D
100
AcDbXrecord
280
     1
102
RTVSPropertyOp0
 70
     0
102
RTVSPropertyOp1
 70
     0
102
RTVSPropertyOp2
 70
     0
102
RTVSPropertyOp3
 70
     0
102
RTVSPropertyOp4
 70
     0
102
RTVSPropertyOp5
 70
     0
102
RTVSPropertyOp6
 70
     0
102
RTVSPropertyOp7
 70
     0
102
RTVSPropertyOp8
 70
     0
102
RTVSPropertyOp9
 70
     0
102
RTVSPropertyOp10
 70
     0
102
RTVSPropertyOp11
 70
     0
102
RTVSPropertyOp12
 70
     0
102
RTVSPropertyOp13
 70
     0
102
RTVSPropertyOp14
 70
     2
102
RTVSPropertyOp15
 70
     0
102
RTVSPropertyOp16
 70
     0
102
RTVSPropertyOp17
 70
     0
102
RTVSPropertyOp18
 70
     0
102
RTVSPropertyOp19
 70
     0
102
RTVSPropertyOp20
 70
     0
102
RTVSPropertyOp21
 70
     0
102
RTVSPropertyOp22
 70
     0
102
RTVSPropertyOp23
 70
     0
102
RTVSPropertyOp24
 70
     0
102
RTVSPropertyOp25
 70
     0
102
RTVSPropertyOp26
 70
     0
102
RTVSPropertyOp27
 70
     0
  0
XRECORD
  5
1418
102
{ACAD_REACTORS
330
1417
102
}
330
1417
100
AcDbXrecord
280
     1
102
RTVSPropertyOp0
 70
     1
102
RTVSPropertyOp1
 70
     1
102
RTVSPropertyOp2
 70
     1
102
RTVSPropertyOp3
 70
     1
102
RTVSPropertyOp4
 70
     1
102
RTVSPropertyOp5
 70
     1
102
RTVSPropertyOp6
 70
     1
102
RTVSPropertyOp7
 70
     1
102
RTVSPropertyOp8
 70
     1
102
RTVSPropertyOp9
 70
     1
102
RTVSPropertyOp10
 70
     1
102
RTVSPropertyOp11
 70
     1
102
RTVSPropertyOp12
 70
     1
102
RTVSPropertyOp13
 70
     1
102
RTVSPropertyOp14
 70
     1
102
RTVSPropertyOp15
 70
     1
102
RTVSPropertyOp16
 70
     1
102
RTVSPropertyOp17
 70
     1
102
RTVSPropertyOp18
 70
     1
102
RTVSPropertyOp19
 70
     1
102
RTVSPropertyOp20
 70
     1
102
RTVSPropertyOp21
 70
     1
102
RTVSPropertyOp22
 70
     1
102
RTVSPropertyOp23
 70
     1
102
RTVSPropertyOp24
 70
     1
102
RTVSPropertyOp25
 70
     1
102
RTVSPropertyOp26
 70
     1
102
RTVSPropertyOp27
 70
     1
  0
XRECORD
  5
1420
102
{ACAD_REACTORS
330
141F
102
}
330
141F
100
AcDbXrecord
280
     1
102
RTVSPropertyOp0
 70
     0
102
RTVSPropertyOp1
 70
     0
102
RTVSPropertyOp2
 70
     0
102
RTVSPropertyOp3
 70
     0
102
RTVSPropertyOp4
 70
     0
102
RTVSPropertyOp5
 70
     0
102
RTVSPropertyOp6
 70
     0
102
RTVSPropertyOp7
 70
     0
102
RTVSPropertyOp8
 70
     0
102
RTVSPropertyOp9
 70
     0
102
RTVSPropertyOp10
 70
     0
102
RTVSPropertyOp11
 70
     0
102
RTVSPropertyOp12
 70
     0
102
RTVSPropertyOp13
 70
     0
102
RTVSPropertyOp14
 70
     2
102
RTVSPropertyOp15
 70
     0
102
RTVSPropertyOp16
 70
     0
102
RTVSPropertyOp17
 70
     0
102
RTVSPropertyOp18
 70
     0
102
RTVSPropertyOp19
 70
     0
102
RTVSPropertyOp20
 70
     0
102
RTVSPropertyOp21
 70
     0
102
RTVSPropertyOp22
 70
     0
102
RTVSPropertyOp23
 70
     0
102
RTVSPropertyOp24
 70
     0
102
RTVSPropertyOp25
 70
     0
102
RTVSPropertyOp26
 70
     0
102
RTVSPropertyOp27
 70
     0
  0
XRECORD
  5
1410
102
{ACAD_REACTORS
330
140F
102
}
330
140F
100
AcDbXrecord
280
     1
102
RTVSPropertyOp0
 70
     1
102
RTVSPropertyOp1
 70
     1
102
RTVSPropertyOp2
 70
     1
102
RTVSPropertyOp3
 70
     1
102
RTVSPropertyOp4
 70
     1
102
RTVSPropertyOp5
 70
     1
102
RTVSPropertyOp6
 70
     1
102
RTVSPropertyOp7
 70
     1
102
RTVSPropertyOp8
 70
     1
102
RTVSPropertyOp9
 70
     1
102
RTVSPropertyOp10
 70
     1
102
RTVSPropertyOp11
 70
     1
102
RTVSPropertyOp12
 70
     1
102
RTVSPropertyOp13
 70
     1
102
RTVSPropertyOp14
 70
     1
102
RTVSPropertyOp15
 70
     1
102
RTVSPropertyOp16
 70
     1
102
RTVSPropertyOp17
 70
     1
102
RTVSPropertyOp18
 70
     1
102
RTVSPropertyOp19
 70
     1
102
RTVSPropertyOp20
 70
     1
102
RTVSPropertyOp21
 70
     1
102
RTVSPropertyOp22
 70
     1
102
RTVSPropertyOp23
 70
     1
102
RTVSPropertyOp24
 70
     1
102
RTVSPropertyOp25
 70
     1
102
RTVSPropertyOp26
 70
     1
102
RTVSPropertyOp27
 70
     1
  0
XRECORD
  5
1416
102
{ACAD_REACTORS
330
1415
102
}
330
1415
100
AcDbXrecord
280
     1
102
RTVSPropertyOp0
 70
     1
102
RTVSPropertyOp1
 70
     1
102
RTVSPropertyOp2
 70
     1
102
RTVSPropertyOp3
 70
     1
102
RTVSPropertyOp4
 70
     1
102
RTVSPropertyOp5
 70
     1
102
RTVSPropertyOp6
 70
     1
102
RTVSPropertyOp7
 70
     1
102
RTVSPropertyOp8
 70
     1
102
RTVSPropertyOp9
 70
     1
102
RTVSPropertyOp10
 70
     1
102
RTVSPropertyOp11
 70
     1
102
RTVSPropertyOp12
 70
     1
102
RTVSPropertyOp13
 70
     1
102
RTVSPropertyOp14
 70
     1
102
RTVSPropertyOp15
 70
     1
102
RTVSPropertyOp16
 70
     1
102
RTVSPropertyOp17
 70
     1
102
RTVSPropertyOp18
 70
     1
102
RTVSPropertyOp19
 70
     1
102
RTVSPropertyOp20
 70
     1
102
RTVSPropertyOp21
 70
     1
102
RTVSPropertyOp22
 70
     1
102
RTVSPropertyOp23
 70
     1
102
RTVSPropertyOp24
 70
     1
102
RTVSPropertyOp25
 70
     1
102
RTVSPropertyOp26
 70
     1
102
RTVSPropertyOp27
 70
     1
  0
ENDSEC
  0
EOF
