  0
SECTION
  2
HEADER
  9
$ACADVER
  1
AC1015
  9
$ACADMAINTVER
 70
    20
  9
$DWGCODEPAGE
  3
ANSI_932
  9
$INSBASE
 10
0.0
 20
0.0
 30
0.0
  9
$EXTMIN
 10
-22.91180130892633
 20
-17.17457240781203
 30
-0.00000001
  9
$EXTMAX
 10
401.5406126072958
 20
250.9537504282016
 30
0.00000001
  9
$LIMMIN
 10
-5.027069091796875
 20
-5.027082920074462
  9
$LIMMAX
 10
291.89892578125
 20
204.9462447166443
  9
$ORTHOMODE
 70
     1
  9
$REGENMODE
 70
     1
  9
$FILLMODE
 70
     1
  9
$QTEXTMODE
 70
     0
  9
$MIRRTEXT
 70
     0
  9
$LTSCALE
 40
1.0
  9
$ATTMODE
 70
     1
  9
$TEXTSIZE
 40
2.5
  9
$TRACEWID
 40
1.0
  9
$TEXTSTYLE
  7
STANDARD
  9
$CLAYER
  8
0
  9
$CELTYPE
  6
ByLayer
  9
$CECOLOR
 62
   256
  9
$CELTSCALE
 40
1.0
  9
$DISPSILH
 70
     0
  9
$DIMSCALE
 40
1.0
  9
$DIMASZ
 40
2.5
  9
$DIMEXO
 40
0.5
  9
$DIMDLI
 40
8.0
  9
$DIMRND
 40
0.0
  9
$DIMDLE
 40
0.0
  9
$DIMEXE
 40
1.0
  9
$DIMTP
 40
0.0
  9
$DIMTM
 40
0.0
  9
$DIMTXT
 40
3.5
  9
$DIMCEN
 40
0.0
  9
$DIMTSZ
 40
0.0
  9
$DIMTOL
 70
     0
  9
$DIMLIM
 70
     0
  9
$DIMTIH
 70
     0
  9
$DIMTOH
 70
     0
  9
$DIMSE1
 70
     0
  9
$DIMSE2
 70
     0
  9
$DIMTAD
 70
     3
  9
$DIMZIN
 70
     8
  9
$DIMBLK
  1
Open
  9
$DIMASO
 70
     1
  9
$DIMSHO
 70
     1
  9
$DIMPOST
  1

  9
$DIMAPOST
  1
"
  9
$DIMALT
 70
     0
  9
$DIMALTD
 70
     2
  9
$DIMALTF
 40
0.0393701
  9
$DIMLFAC
 40
1.0
  9
$DIMTOFL
 70
     1
  9
$DIMTVP
 40
0.0
  9
$DIMTIX
 70
     0
  9
$DIMSOXD
 70
     0
  9
$DIMSAH
 70
     0
  9
$DIMBLK1
  1

  9
$DIMBLK2
  1

  9
$DIMSTYLE
  2
AM_JIS
  9
$DIMCLRD
 70
   256
  9
$DIMCLRE
 70
   256
  9
$DIMCLRT
 70
   140
  9
$DIMTFAC
 40
0.55
  9
$DIMGAP
 40
0.8
  9
$DIMJUST
 70
     0
  9
$DIMSD1
 70
     0
  9
$DIMSD2
 70
     0
  9
$DIMTOLJ
 70
     0
  9
$DIMTZIN
 70
     8
  9
$DIMALTZ
 70
     0
  9
$DIMALTTZ
 70
     0
  9
$DIMUPT
 70
     0
  9
$DIMDEC
 70
     1
  9
$DIMTDEC
 70
     3
  9
$DIMALTU
 70
     2
  9
$DIMALTTD
 70
     2
  9
$DIMTXSTY
  7
STANDARD
  9
$DIMAUNIT
 70
     0
  9
$DIMADEC
 70
     0
  9
$DIMALTRND
 40
0.0
  9
$DIMAZIN
 70
     2
  9
$DIMDSEP
 70
    46
  9
$DIMATFIT
 70
     3
  9
$DIMFRAC
 70
     0
  9
$DIMLDRBLK
  1
Open
  9
$DIMLUNIT
 70
     2
  9
$DIMLWD
 70
    -1
  9
$DIMLWE
 70
    -1
  9
$DIMTMOVE
 70
     0
  9
$LUNITS
 70
     2
  9
$LUPREC
 70
     2
  9
$SKETCHINC
 40
1.0
  9
$FILLETRAD
 40
2.5
  9
$AUNITS
 70
     0
  9
$AUPREC
 70
     0
  9
$MENU
  1
.
  9
$ELEVATION
 40
0.0
  9
$PELEVATION
 40
0.0
  9
$THICKNESS
 40
0.0
  9
$LIMCHECK
 70
     0
  9
$CHAMFERA
 40
2.5
  9
$CHAMFERB
 40
2.5
  9
$CHAMFERC
 40
20.0
  9
$CHAMFERD
 40
0.0
  9
$SKPOLY
 70
     0
  9
$TDCREATE
 40
2456512.499609827
  9
$TDUCREATE
 40
2456512.124609826
  9
$TDUPDATE
 40
2457683.626207500
  9
$TDUUPDATE
 40
2457683.251207500
  9
$TDINDWG
 40
0.0142801852
  9
$TDUSRTIMER
 40
0.0142800694
  9
$USRTIMER
 70
     1
  9
$ANGBASE
 50
0.0
  9
$ANGDIR
 70
     0
  9
$PDMODE
 70
     0
  9
$PDSIZE
 40
0.0
  9
$PLINEWID
 40
0.0
  9
$SPLFRAME
 70
     0
  9
$SPLINETYPE
 70
     6
  9
$SPLINESEGS
 70
     8
  9
$HANDSEED
  5
11A4
  9
$SURFTAB1
 70
     6
  9
$SURFTAB2
 70
     6
  9
$SURFTYPE
 70
     6
  9
$SURFU
 70
     6
  9
$SURFV
 70
     6
  9
$UCSBASE
  2

  9
$UCSNAME
  2

  9
$UCSORG
 10
0.0
 20
0.0
 30
0.0
  9
$UCSXDIR
 10
1.0
 20
0.0
 30
0.0
  9
$UCSYDIR
 10
0.0
 20
1.0
 30
0.0
  9
$UCSORTHOREF
  2

  9
$UCSORTHOVIEW
 70
     0
  9
$UCSORGTOP
 10
0.0
 20
0.0
 30
0.0
  9
$UCSORGBOTTOM
 10
0.0
 20
0.0
 30
0.0
  9
$UCSORGLEFT
 10
0.0
 20
0.0
 30
0.0
  9
$UCSORGRIGHT
 10
0.0
 20
0.0
 30
0.0
  9
$UCSORGFRONT
 10
0.0
 20
0.0
 30
0.0
  9
$UCSORGBACK
 10
0.0
 20
0.0
 30
0.0
  9
$PUCSBASE
  2

  9
$PUCSNAME
  2

  9
$PUCSORG
 10
0.0
 20
0.0
 30
0.0
  9
$PUCSXDIR
 10
1.0
 20
0.0
 30
0.0
  9
$PUCSYDIR
 10
0.0
 20
1.0
 30
0.0
  9
$PUCSORTHOREF
  2

  9
$PUCSORTHOVIEW
 70
     0
  9
$PUCSORGTOP
 10
0.0
 20
0.0
 30
0.0
  9
$PUCSORGBOTTOM
 10
0.0
 20
0.0
 30
0.0
  9
$PUCSORGLEFT
 10
0.0
 20
0.0
 30
0.0
  9
$PUCSORGRIGHT
 10
0.0
 20
0.0
 30
0.0
  9
$PUCSORGFRONT
 10
0.0
 20
0.0
 30
0.0
  9
$PUCSORGBACK
 10
0.0
 20
0.0
 30
0.0
  9
$USERI1
 70
     0
  9
$USERI2
 70
     0
  9
$USERI3
 70
     0
  9
$USERI4
 70
     0
  9
$USERI5
 70
     0
  9
$USERR1
 40
0.0
  9
$USERR2
 40
0.0
  9
$USERR3
 40
0.0
  9
$USERR4
 40
0.0
  9
$USERR5
 40
0.0
  9
$WORLDVIEW
 70
     1
  9
$SHADEDGE
 70
     3
  9
$SHADEDIF
 70
    70
  9
$TILEMODE
 70
     1
  9
$MAXACTVP
 70
    64
  9
$PINSBASE
 10
0.0
 20
0.0
 30
0.0
  9
$PLIMCHECK
 70
     0
  9
$PEXTMIN
 10
1.000000000000000E+20
 20
1.000000000000000E+20
 30
1.000000000000000E+20
  9
$PEXTMAX
 10
-1.000000000000000E+20
 20
-1.000000000000000E+20
 30
-1.000000000000000E+20
  9
$PLIMMIN
 10
0.0
 20
0.0
  9
$PLIMMAX
 10
12.0
 20
9.0
  9
$UNITMODE
 70
     0
  9
$VISRETAIN
 70
     1
  9
$PLINEGEN
 70
     0
  9
$PSLTSCALE
 70
     1
  9
$TREEDEPTH
 70
  3020
  9
$CMLSTYLE
  2
Standard
  9
$CMLJUST
 70
     0
  9
$CMLSCALE
 40
20.0
  9
$PROXYGRAPHICS
 70
     1
  9
$MEASUREMENT
 70
     1
  9
$CELWEIGHT
370
    -1
  9
$ENDCAPS
280
     0
  9
$JOINSTYLE
280
     0
  9
$LWDISPLAY
290
     0
  9
$INSUNITS
 70
     4
  9
$HYPERLINKBASE
  1

  9
$STYLESHEET
  1

  9
$XEDIT
290
     1
  9
$CEPSNTYPE
380
     0
  9
$PSTYLEMODE
290
     1
  9
$FINGERPRINTGUID
  2
{2DDB2E83-A2C1-469C-A42C-E937CBE341E4}
  9
$VERSIONGUID
  2
{CF6B8EE9-9866-4250-B2E0-9D8DC4B95AEF}
  9
$EXTNAMES
290
     1
  9
$PSVPSCALE
 40
0.0
  9
$OLESTARTUP
290
     0
  0
ENDSEC
  0
SECTION
  2
CLASSES
  0
CLASS
  1
ACDBDICTIONARYWDFLT
  2
AcDbDictionaryWithDefault
  3
ObjectDBX Classes
 90
        0
280
     0
281
     0
  0
CLASS
  1
MATERIAL
  2
AcDbMaterial
  3
ObjectDBX Classes
 90
     1153
280
     0
281
     0
  0
CLASS
  1
VISUALSTYLE
  2
AcDbVisualStyle
  3
ObjectDBX Classes
 90
     4095
280
     0
281
     0
  0
CLASS
  1
SCALE
  2
AcDbScale
  3
ObjectDBX Classes
 90
     1153
280
     0
281
     0
  0
CLASS
  1
TABLESTYLE
  2
AcDbTableStyle
  3
ObjectDBX Classes
 90
     4095
280
     0
281
     0
  0
CLASS
  1
MLEADERSTYLE
  2
AcDbMLeaderStyle
  3
ACDB_MLEADERSTYLE_CLASS
 90
     4095
280
     0
281
     0
  0
CLASS
  1
DIMASSOC
  2
AcDbDimAssoc
  3
"AcDbDimAssoc|Product Desc:     AcDim ARX App For Dimension|Company:          Autodesk, Inc.|WEB Address:      www.autodesk.com"
 90
        0
280
     0
281
     0
  0
CLASS
  1
SORTENTSTABLE
  2
AcDbSortentsTable
  3
ObjectDBX Classes
 90
        0
280
     0
281
     0
  0
CLASS
  1
DICTIONARYVAR
  2
AcDbDictionaryVar
  3
ObjectDBX Classes
 90
        0
280
     0
281
     0
  0
CLASS
  1
ACME_DOCUMENT
  2
AcMeDbDoc
  3
AcMeServices
 90
     1024
280
     0
281
     0
  0
CLASS
  1
AMGSETTINGSOBJ
  2
AmgSettingsObj
  3
"AcadM|Product Description: AutoCAD Mechanical|Company: Autodesk, Inc."
 90
     1024
280
     0
281
     0
  0
CLASS
  1
AMGOBJPROPCFG
  2
AmgObjPropCfg
  3
"AmgLay|Product Description: AutoCAD Mechanical|Company: Autodesk, Inc."
 90
     1025
280
     0
281
     0
  0
CLASS
  1
ACMESCOPE
  2
AcMeScope
  3
AcMeServices
 90
     1024
280
     0
281
     0
  0
CLASS
  1
ACGREFMASTER
  2
AcGrefMaster
  3
AcAttribServices
 90
     1024
280
     0
281
     0
  0
CLASS
  1
ACMECOMMANDHISTORY
  2
AcMeCommandHistory
  3
AcMeServices
 90
     1024
280
     0
281
     0
  0
CLASS
  1
ACIMSYSVARMAN
  2
AcImSysVarManager
  3
AcMeServices
 90
     1024
280
     0
281
     0
  0
CLASS
  1
ACIMINTSYSVAR
  2
AcImIntSysVar
  3
AcMeServices
 90
     1024
280
     0
281
     0
  0
CLASS
  1
ACMEDRAWINGMAN
  2
AcMeDrawingMan
  3
AcMeServices
 90
     1024
280
     0
281
     0
  0
CLASS
  1
ACMEVIEW
  2
AcMeView
  3
AcMeServices
 90
     1024
280
     0
281
     0
  0
CLASS
  1
ACDBENTITYCACHE
  2
AcMeEntityCache
  3
AcMeServices
 90
     1024
280
     0
281
     0
  0
CLASS
  1
ACMESTATEMGR
  2
AcMeStateMgr
  3
AcMeServices
 90
     1024
280
     0
281
     0
  0
CLASS
  1
AM_DRAWING_MGR
  2
AcDmDwgMgr
  3
AcMechDwgViewMgmt
 90
     1024
280
     0
281
     0
  0
CLASS
  1
AM_DWG_DOCUMENT
  2
AcDmDwgDocument
  3
AcMechDwgViewMgmt
 90
     1024
280
     0
281
     0
  0
CLASS
  1
AM_DWG_SHEET
  2
AcDmSheet
  3
AcMechDwgViewMgmt
 90
     1024
280
     0
281
     0
  0
CLASS
  1
AM_VIEWDIMPARMAP
  2
AcDmViewDimParMap
  3
AcMechDwgViewMgmt
 90
     1024
280
     0
281
     0
  0
CLASS
  1
AMDTINTERNALREACTOR
  2
AmdtInternalReactor
  3
AcMeServices
 90
     1024
280
     0
281
     0
  0
CLASS
  1
ACIMREALSYSVAR
  2
AcImRealSysVar
  3
AcMeServices
 90
     1024
280
     0
281
     0
  0
CLASS
  1
AM_DWGMGR_NAME
  2
AcDmDwgMgrName
  3
AcMechDwgViewMgmt
 90
     1024
280
     0
281
     0
  0
CLASS
  1
ACME_DATABASE
  2
AcMeDbDatabase
  3
AcMeServices
 90
     1024
280
     0
281
     0
  0
CLASS
  1
ACRFINSADJUSTERMGR
  2
AcRfInsAdjusterMgr
  3
AcMeServices
 90
     1024
280
     0
281
     0
  0
CLASS
  1
ACGREFACADMASTER
  2
AcGrefacadMaster
  3
AcGrefServices
 90
     1024
280
     0
281
     0
  0
CLASS
  1
AMDTMENUSTATEMGR
  2
AmdtMenuStateMgr
  3
McadcomServices
 90
     1024
280
     0
281
     0
  0
CLASS
  1
AMDTMCOMMENUSTATE
  2
AmdtMcomMenuState
  3
McadcomServices
 90
     1024
280
     0
281
     0
  0
CLASS
  1
AMIMASTER
  2
AmiMaster
  3
AmiServices
 90
     1024
280
     0
281
     0
  0
CLASS
  1
MAPIAMMOUDLE
  2
MApiAmModule
  3
MApiAmServices
 90
     1024
280
     0
281
     0
  0
CLASS
  1
AMDTWELDINGLIBRARY
  2
AmdtWeldingLibrary
  3
"AcmSymBB|Product Description: AutoCAD Mechanical|Company: Autodesk, Inc."
 90
    36863
280
     0
281
     0
  0
CLASS
  1
AMDTWELDINGLIBOBJECT
  2
AmdtWeldingLibObject
  3
"AcmSymBB|Product Description: AutoCAD Mechanical|Company: Autodesk, Inc."
 90
    36863
280
     0
281
     0
  0
CLASS
  1
AMDTEDGELIBRARY
  2
AmdtEdgeLibrary
  3
"AcmSymBB|Product Description: AutoCAD Mechanical|Company: Autodesk, Inc."
 90
    36863
280
     0
281
     0
  0
CLASS
  1
AMDTEDGELIBOBJECT
  2
AmdtEdgeLibObject
  3
"AcmSymBB|Product Description: AutoCAD Mechanical|Company: Autodesk, Inc."
 90
    36863
280
     0
281
     0
  0
CLASS
  1
AMDTFCFLIBRARY
  2
AmdtFCFLibrary
  3
"AcmSymBB|Product Description: AutoCAD Mechanical|Company: Autodesk, Inc."
 90
    36863
280
     0
281
     0
  0
CLASS
  1
AMDTFCFLIBOBJECT
  2
AmdtFCFLibObject
  3
"AcmSymBB|Product Description: AutoCAD Mechanical|Company: Autodesk, Inc."
 90
    36863
280
     0
281
     0
  0
CLASS
  1
ACMSTANDARDJIS
  2
AcmStandardJIS
  3
"Amdt_StdImp|Product Description: AutoCAD Mechanical|Company: Autodesk, Inc."
 90
     1024
280
     0
281
     0
  0
CLASS
  1
ACMSURFSTANDARDJIS2003
  2
AcmSurfTextStdJIS2003
  3
"Amdt_StdImp|Product Description: AutoCAD Mechanical|Company: Autodesk, Inc."
 90
     1024
280
     0
281
     0
  0
CLASS
  1
ACMFCFSTANDARDJIS98
  2
AcmFCFStdJIS98
  3
"Amdt_StdImp|Product Description: AutoCAD Mechanical|Company: Autodesk, Inc."
 90
     1024
280
     0
281
     0
  0
CLASS
  1
ACMWELDSTANDARDJIS
  2
AcmWeldingStdJIS
  3
"Amdt_StdImp|Product Description: AutoCAD Mechanical|Company: Autodesk, Inc."
 90
     1024
280
     0
281
     0
  0
CLASS
  1
ACMIDSTANDARDJIS
  2
AcmIdStdJIS
  3
"Amdt_StdImp|Product Description: AutoCAD Mechanical|Company: Autodesk, Inc."
 90
     1024
280
     0
281
     0
  0
CLASS
  1
ACMDATUMSTANDARDJIS
  2
AcmDatumStdJIS
  3
"Amdt_StdImp|Product Description: AutoCAD Mechanical|Company: Autodesk, Inc."
 90
     1024
280
     0
281
     0
  0
CLASS
  1
ACMBOMSTANDARDJIS
  2
AcmBOMStdJIS
  3
"Amdt_StdImp|Product Description: AutoCAD Mechanical|Company: Autodesk, Inc."
 90
     1024
280
     0
281
     0
  0
CLASS
  1
ACMDETAILSTANDARDJIS
  2
AmdtDetailSymStdJIS
  3
"Amdt_StdImp|Product Description: AutoCAD Mechanical|Company: Autodesk, Inc."
 90
     1024
280
     0
281
     0
  0
CLASS
  1
ACMSECTIONSTANDARDJIS
  2
AmdtSectionSymStdJIS
  3
"Amdt_StdImp|Product Description: AutoCAD Mechanical|Company: Autodesk, Inc."
 90
     1024
280
     0
281
     0
  0
CLASS
  1
ACMCENTERLINESTANDARDJIS
  2
AmdtCenterLineStdJIS
  3
"Amdt_StdImp|Product Description: AutoCAD Mechanical|Company: Autodesk, Inc."
 90
     1024
280
     0
281
     0
  0
CLASS
  1
ACMTHREADLINESTANDARDJIS
  2
AmdtThreadLineStdJIS
  3
"Amdt_StdImp|Product Description: AutoCAD Mechanical|Company: Autodesk, Inc."
 90
     1024
280
     0
281
     0
  0
CLASS
  1
ACAMGLAYSTD
  2
AcAmgLayStd
  3
"AmgLay|Product Description: AutoCAD Mechanical|Company: Autodesk, Inc."
 90
     1024
280
     0
281
     0
  0
CLASS
  1
ACAMGDIMSTD
  2
AcAmgDimStd
  3
"AmgDim|Product Description: AutoCAD Mechanical|Company: Autodesk, Inc."
 90
     1024
280
     0
281
     0
  0
CLASS
  1
ACAMGTITLESTD
  2
AcAmgTitleStd
  3
"AmgTitle|Product Description: AutoCAD Mechanical|Company: Autodesk, Inc."
 90
     4095
280
     0
281
     0
  0
CLASS
  1
ACMNOTESTANDARDJIS
  2
AmdtNoteStdJIS
  3
"Amdt_StdImp|Product Description: AutoCAD Mechanical|Company: Autodesk, Inc."
 90
     1024
280
     0
281
     0
  0
CLASS
  1
AMDTNOTETEMPLATEDB
  2
AmdtNoteTemplateDB
  3
AcmSymBB|Product Description: AutoCAD Mechanical|Company: Autodesk, Inc.
 90
     1024
280
     0
281
     0
  0
CLASS
  1
ACAMGHOLECHARTSTDJIS
  2
AcAmgHoleChartStdJIS
  3
AmgDim|Product Description: AutoCAD Mechanical|Company: Autodesk, Inc.
 90
     1024
280
     0
281
     0
  0
CLASS
  1
ACMTAPERSTANDARDJIS
  2
AcmTaperStdJIS
  3
"Amdt_StdImp|Product Description: AutoCAD Mechanical|Company: Autodesk, Inc."
 90
     1024
280
     0
281
     0
  0
CLASS
  1
ACMANOOTATIONVIEWSTANDARDJIS
  2
AmdtAnViewStdJIS
  3
"Amdt_StdImp|Product Description: AutoCAD Mechanical|Company: Autodesk, Inc."
 90
     1024
280
     0
281
     0
  0
CLASS
  1
AMDTEDGESTANDARDJIS
  2
AmdtEdgeStdJIS
  3
"Amdt_StdImp|Product Description: AutoCAD Mechanical|Company: Autodesk, Inc."
 90
     1024
280
     0
281
     0
  0
CLASS
  1
ACIMSTRSYSVAR
  2
AcImStrSysVar
  3
AcMeServices
 90
     1024
280
     0
281
     0
  0
CLASS
  1
AMDTADMENUSTATE
  2
AmdtAdMenuState
  3
DesignerServices
 90
     1024
280
     0
281
     0
  0
CLASS
  1
ADAPPL
  2
AcAdAppl
  3
DesignerServices
 90
     1024
280
     0
281
     0
  0
CLASS
  1
DEPMGR
  2
AcAdDepMgr
  3
DesignerServices
 90
     1024
280
     0
281
     0
  0
CLASS
  1
PARAMMGR
  2
AcAdParamMgr
  3
DesignerServices
 90
     1024
280
     0
281
     0
  0
CLASS
  1
PARAMSCOPE
  2
AcAdParamScope
  3
DesignerServices
 90
     1024
280
     0
281
     0
  0
CLASS
  1
NAMEDAPPL
  2
AcAdNamedAppl
  3
DesignerServices
 90
     1024
280
     0
281
     0
  0
CLASS
  1
AMDTDMMENUSTATE
  2
AmdtDmMenuState
  3
AcMechDwgViewMgmt
 90
     1024
280
     0
281
     0
  0
CLASS
  1
AMDTAMMENUSTATE
  2
AmdtAmMenuState
  3
DesignerAssemblies
 90
     1024
280
     0
281
     0
  0
CLASS
  1
ACAMPROJECT
  2
AcAmProject
  3
DesignerAssemblies
 90
     1024
280
     0
281
     0
  0
CLASS
  1
ACAMGRCOMPDEF
  2
AcAmGrCompDef
  3
DesignerAssemblies
 90
     1024
280
     0
281
     0
  0
CLASS
  1
ACAMCOMPDEF
  2
AcAmCompDef
  3
DesignerAssemblies
 90
     1024
280
     0
281
     0
  0
CLASS
  1
ACAMCOMPDEFMGR
  2
AcAmCompDefMgr
  3
DesignerAssemblies
 90
     1024
280
     0
281
     0
  0
CLASS
  1
AMCONTEXTMGR
  2
AcAmContextMgr
  3
DesignerAssemblies
 90
     1024
280
     0
281
     0
  0
CLASS
  1
ACAMCONTEXTMODELER
  2
AcAmContextModeler
  3
DesignerAssemblies
 90
     1024
280
     0
281
     0
  0
CLASS
  1
ACMDATADICTIONARY
  2
AcmDataDictionary
  3
"AcmSymBB|Product Description: AutoCAD Mechanical|Company: Autodesk, Inc."
 90
     1024
280
     0
281
     0
  0
CLASS
  1
CATALOGSTATE
  2
AcAmCatalogState
  3
DesignerAssemblies
 90
     1024
280
     0
281
     0
  0
CLASS
  1
ACAMGRCOMPDEFSET
  2
AcAmGrCompDefSet
  3
DesignerAssemblies
 90
     1024
280
     0
281
     0
  0
CLASS
  1
AMDTBROWSERDBTAB
  2
AmdtBrowserDbTab
  3
McadcomServices
 90
     1024
280
     0
281
     0
  0
CLASS
  1
CBROWSERAPPOBJECT
  2
CBrowserAppObject
  3
McadcomServices
 90
     1024
280
     0
281
     0
  0
CLASS
  1
DM_PLACEHOLDER
  2
AcDmSelsetPlaceholder
  3
AcMechDwgViewMgmt
 90
     1024
280
     0
281
     0
  0
CLASS
  1
EXACXREFPANELOBJECT
  2
ExAcXREFPanelObject
  3
EXAC_ESW
 90
    33793
280
     0
281
     0
  0
CLASS
  1
NPOCOLLECTION
  2
AcDbImpNonPersistentObjectsCollection
  3
ObjectDBX Classes
 90
    33921
280
     0
281
     0
  0
CLASS
  1
ACAMGFILTERDAT
  2
AcAmgFilterDat
  3
"AcadM|Product Description: AutoCAD Mechanical|Company: Autodesk, Inc."
 90
    33792
280
     0
281
     0
  0
CLASS
  1
CELLSTYLEMAP
  2
AcDbCellStyleMap
  3
ObjectDBX Classes
 90
     1152
280
     0
281
     0
  0
CLASS
  1
ACDBPLACEHOLDER
  2
AcDbPlaceHolder
  3
ObjectDBX Classes
 90
        0
280
     0
281
     0
  0
CLASS
  1
LAYOUT
  2
AcDbLayout
  3
ObjectDBX Classes
 90
        0
280
     0
281
     0
  0
CLASS
  1
ACMSTANDARDISO
  2
AcmStandardISO
  3
"Amdt_StdImp|Product Description: AutoCAD Mechanical|Company: Autodesk, Inc."
 90
     1024
280
     0
281
     0
  0
CLASS
  1
AMDTEDGESTANDARDISO13715
  2
AmdtEdgeStdISO13715
  3
"Amdt_StdImp|Product Description: AutoCAD Mechanical|Company: Autodesk, Inc."
 90
     1024
280
     0
281
     0
  0
CLASS
  1
ACMSURFSTANDARDISO2002
  2
AcmSurfTextStdISO2002
  3
"Amdt_StdImp|Product Description: AutoCAD Mechanical|Company: Autodesk, Inc."
 90
     1024
280
     0
281
     0
  0
CLASS
  1
ACMFCFSTANDARDISO
  2
AcmFCFStdISO
  3
"Amdt_StdImp|Product Description: AutoCAD Mechanical|Company: Autodesk, Inc."
 90
     1024
280
     0
281
     0
  0
CLASS
  1
ACMWELDSTANDARDISO
  2
AcmWeldingStdISO
  3
"Amdt_StdImp|Product Description: AutoCAD Mechanical|Company: Autodesk, Inc."
 90
     1024
280
     0
281
     0
  0
CLASS
  1
ACMIDSTANDARDISO
  2
AcmIdStdISO
  3
"Amdt_StdImp|Product Description: AutoCAD Mechanical|Company: Autodesk, Inc."
 90
     1024
280
     0
281
     0
  0
CLASS
  1
ACMDATUMSTANDARDISO
  2
AcmDatumStdISO
  3
"Amdt_StdImp|Product Description: AutoCAD Mechanical|Company: Autodesk, Inc."
 90
     1024
280
     0
281
     0
  0
CLASS
  1
ACMBOMSTANDARDISO
  2
AcmBOMStdISO
  3
"Amdt_StdImp|Product Description: AutoCAD Mechanical|Company: Autodesk, Inc."
 90
     1024
280
     0
281
     0
  0
CLASS
  1
ACMDETAILSTANDARDISO
  2
AmdtDetailSymStdISO
  3
"Amdt_StdImp|Product Description: AutoCAD Mechanical|Company: Autodesk, Inc."
 90
     1024
280
     0
281
     0
  0
CLASS
  1
ACMSECTIONSTANDARDISO2001
  2
AmdtSectionSymStdISO2001
  3
"Amdt_StdImp|Product Description: AutoCAD Mechanical|Company: Autodesk, Inc."
 90
     1024
280
     0
281
     0
  0
CLASS
  1
ACMCENTERLINESTANDARDISO
  2
AmdtCenterLineStdISO
  3
"Amdt_StdImp|Product Description: AutoCAD Mechanical|Company: Autodesk, Inc."
 90
     1024
280
     0
281
     0
  0
CLASS
  1
ACMTHREADLINESTANDARDISO
  2
AmdtThreadLineStdISO
  3
"Amdt_StdImp|Product Description: AutoCAD Mechanical|Company: Autodesk, Inc."
 90
     1024
280
     0
281
     0
  0
CLASS
  1
ACMNOTESTANDARDISO
  2
AmdtNoteStdISO
  3
"Amdt_StdImp|Product Description: AutoCAD Mechanical|Company: Autodesk, Inc."
 90
     1024
280
     0
281
     0
  0
CLASS
  1
ACMTAPERSTANDARDISO
  2
AcmTaperStdISO
  3
"Amdt_StdImp|Product Description: AutoCAD Mechanical|Company: Autodesk, Inc."
 90
     1024
280
     0
281
     0
  0
CLASS
  1
ACMANOOTATIONVIEWSTANDARDISO
  2
AmdtAnViewStdISO
  3
"Amdt_StdImp|Product Description: AutoCAD Mechanical|Company: Autodesk, Inc."
 90
     1024
280
     0
281
     0
  0
CLASS
  1
ACAMGHOLECHARTSTDISO
  2
AcAmgHoleChartStdISO
  3
AmgDim|Product Description: AutoCAD Mechanical|Company: Autodesk, Inc.
 90
     1024
280
     0
281
     0
  0
CLASS
  1
AMDTNOTE
  2
AmdtNote
  3
"AcmSymBB|Product Description: AutoCAD Mechanical|Company: Autodesk, Inc."
 90
     4095
280
     0
281
     1
  0
CLASS
  1
CAMSSTRUCTBTNSTATE
  2
StructBtnState
  3
DesignerAssemblies
 90
     1024
280
     0
281
     0
  0
ENDSEC
  0
SECTION
  2
TABLES
  0
TABLE
  2
VPORT
  5
8
330
0
100
AcDbSymbolTable
 70
     1
  0
VPORT
  5
52
330
8
100
AcDbSymbolTableRecord
100
AcDbViewportTableRecord
  2
*Active
 70
     0
 10
0.0
 20
0.0
 11
1.0
 21
1.0
 12
203.6249804572814
 22
-19.80522296672407
 13
0.0
 23
0.0
 14
10.0
 24
10.0
 15
10.0
 25
10.0
 16
0.0
 26
0.0
 36
1.0
 17
0.0
 27
0.0
 37
0.0
 40
366.781361384329
 41
2.053594771241829
 42
50.0
 43
0.0
 44
0.0
 50
0.0
 51
0.0
 71
     0
 72
  1000
 73
     1
 74
     1
 75
     0
 76
     0
 77
     0
 78
     0
281
     0
 65
     0
110
0.0
120
0.0
130
0.0
111
1.0
121
0.0
131
0.0
112
0.0
122
1.0
132
0.0
 79
     0
146
0.0
  0
ENDTAB
  0
TABLE
  2
LTYPE
  5
5
330
0
100
AcDbSymbolTable
 70
    20
  0
LTYPE
  5
56
330
5
100
AcDbSymbolTableRecord
100
AcDbLinetypeTableRecord
  2
ByBlock
 70
     0
  3

 72
    65
 73
     0
 40
0.0
  0
LTYPE
  5
57
330
5
100
AcDbSymbolTableRecord
100
AcDbLinetypeTableRecord
  2
ByLayer
 70
     0
  3

 72
    65
 73
     0
 40
0.0
  0
LTYPE
  5
58
330
5
100
AcDbSymbolTableRecord
100
AcDbLinetypeTableRecord
  2
Continuous
 70
     0
  3
Solid line
 72
    65
 73
     0
 40
0.0
  0
LTYPE
  5
94
330
5
100
AcDbSymbolTableRecord
100
AcDbLinetypeTableRecord
  2
AM_ISO02W050
 70
     0
  3
__ __ __ __ __ __ __ __ __ __ __ __ __ __ __
 72
    65
 73
     2
 40
7.5
 49
6.0
 74
     0
 49
-1.5
 74
     0
  0
LTYPE
  5
95
330
5
100
AcDbSymbolTableRecord
100
AcDbLinetypeTableRecord
  2
AM_ISO08W050
 70
     0
  3
____ . ____ . ____ . ____ . ____ . ____ . ____
 72
    65
 73
     4
 40
18.0
 49
12.0
 74
     0
 49
-1.5
 74
     0
 49
3.0
 74
     0
 49
-1.5
 74
     0
  0
LTYPE
  5
96
330
5
100
AcDbSymbolTableRecord
100
AcDbLinetypeTableRecord
  2
AM_ISO09W050
 70
     0
  3
_____ . . _____ . . _____ . . ____ .. ____
 72
    65
 73
     6
 40
22.5
 49
12.0
 74
     0
 49
-1.5
 74
     0
 49
3.0
 74
     0
 49
-1.5
 74
     0
 49
3.0
 74
     0
 49
-1.5
 74
     0
  0
LTYPE
  5
97
330
5
100
AcDbSymbolTableRecord
100
AcDbLinetypeTableRecord
  2
Amconstr
 70
     0
  3
_______________________
 72
    65
 73
     2
 40
9999.0
 49
9999.0
 74
     0
 49
0.0
 74
     0
  0
LTYPE
  5
98
330
5
100
AcDbSymbolTableRecord
100
AcDbLinetypeTableRecord
  2
AM_ISO08W050x2
 70
     0
  3
__ . __ . __ . __ . __ . __
 72
    65
 73
     4
 40
9.0
 49
6.0
 74
     0
 49
-0.75
 74
     0
 49
1.5
 74
     0
 49
-0.75
 74
     0
  0
LTYPE
  5
99
330
5
100
AcDbSymbolTableRecord
100
AcDbLinetypeTableRecord
  2
AM_ISO02W050x2
 70
     0
  3
 _ _ _ _ _ _ _ _ _ _ _ _
 72
    65
 73
     2
 40
3.75
 49
3.0
 74
     0
 49
-0.75
 74
     0
  0
LTYPE
  5
9A
330
5
100
AcDbSymbolTableRecord
100
AcDbLinetypeTableRecord
  2
Amzigzag
 70
     0
  3
/\/-/\/-/\/-/\/-/\/-/\/
 72
    65
 73
     2
 40
11.0001
 49
0.0001
 74
     4
 75
   136
340
8B
 46
0.04
 50
0.0
 44
0.0
 45
0.0
 49
-11.0
 74
     0
  0
LTYPE
  5
9B
330
5
100
AcDbSymbolTableRecord
100
AcDbLinetypeTableRecord
  2
ACJISTGB
 70
     0
  3
__ . . __ . .
 72
    65
 73
     6
 40
9.0
 49
4.0
 74
     0
 49
-1.0
 74
     0
 49
1.0
 74
     0
 49
-1.0
 74
     0
 49
1.0
 74
     0
 49
-1.0
 74
     0
  0
LTYPE
  5
9C
330
5
100
AcDbSymbolTableRecord
100
AcDbLinetypeTableRecord
  2
ACJISTGL
 70
     0
  3
_ _ _ _ _
 72
    65
 73
     2
 40
3.0
 49
2.0
 74
     0
 49
-1.0
 74
     0
  0
LTYPE
  5
9D
330
5
100
AcDbSymbolTableRecord
100
AcDbLinetypeTableRecord
  2
HIDDEN
 70
     0
  3
Hidden __ __ __ __ __ __ __ __ __ __ __ __ __ _
 72
    65
 73
     2
 40
9.524999999999996
 49
6.349999999999998
 74
     0
 49
-3.174999999999998
 74
     0
  0
LTYPE
  5
9E
330
5
100
AcDbSymbolTableRecord
100
AcDbLinetypeTableRecord
  2
ACJISWELD
 70
     0
  3
_ _ _ _ _
 72
    65
 73
     2
 40
2.0
 49
2.0
 74
     0
 49
-1.0
 74
     0
  0
LTYPE
  5
9F
330
5
100
AcDbSymbolTableRecord
100
AcDbLinetypeTableRecord
  2
DASH_DOT
 70
     0
  3
Dash dot __ . __ . __ . __ . __ . __ . __ . __
 72
    65
 73
     4
 40
0.37
 49
0.24
 74
     0
 49
-0.06
 74
     0
 49
0.01
 74
     0
 49
-0.06
 74
     0
  0
LTYPE
  5
A0
330
5
100
AcDbSymbolTableRecord
100
AcDbLinetypeTableRecord
  2
PHANTOM2
 70
     0
  3
Phantom (.5x) ___ _ _ ___ _ _ ___ _ _ ___ _ _
 72
    65
 73
     6
 40
31.75
 49
15.875
 74
     0
 49
-3.174999999999998
 74
     0
 49
3.174999999999998
 74
     0
 49
-3.174999999999998
 74
     0
 49
3.174999999999998
 74
     0
 49
-3.174999999999998
 74
     0
  0
LTYPE
  5
A1
330
5
100
AcDbSymbolTableRecord
100
AcDbLinetypeTableRecord
  2
CENTER
 70
     0
  3
Center ____ _ ____ _ ____ _ ____ _ ____ _ ____
 72
    65
 73
     4
 40
50.8
 49
31.75
 74
     0
 49
-6.349999999999998
 74
     0
 49
6.349999999999998
 74
     0
 49
-6.349999999999998
 74
     0
  0
LTYPE
  5
683
330
5
100
AcDbSymbolTableRecord
100
AcDbLinetypeTableRecord
  2
ACISOWELD
 70
     0
  3
_ _ _ _ _
 72
    65
 73
     2
 40
2.0
 49
2.0
 74
     0
 49
-1.0
 74
     0
  0
LTYPE
  5
684
330
5
100
AcDbSymbolTableRecord
100
AcDbLinetypeTableRecord
  2
ACISOTGB
 70
     0
  3
__ . . __ . .
 72
    65
 73
     6
 40
9.0
 49
4.0
 74
     0
 49
-1.0
 74
     0
 49
1.0
 74
     0
 49
-1.0
 74
     0
 49
1.0
 74
     0
 49
-1.0
 74
     0
  0
LTYPE
  5
685
330
5
100
AcDbSymbolTableRecord
100
AcDbLinetypeTableRecord
  2
ACISOTGL
 70
     0
  3
_ _ _ _ _
 72
    65
 73
     2
 40
3.0
 49
2.0
 74
     0
 49
-1.0
 74
     0
  0
LTYPE
  5
733
330
5
100
AcDbSymbolTableRecord
100
AcDbLinetypeTableRecord
  2
CENTERX2
 70
     0
  3
Center (2x) ________  __  ________  __  _____
 72
    65
 73
     4
 40
20.32
 49
12.7
 74
     0
 49
-2.54
 74
     0
 49
2.54
 74
     0
 49
-2.54
 74
     0
  0
ENDTAB
  0
TABLE
  2
LAYER
  5
2
102
{ACAD_XDICTIONARY
360
734
102
}
330
0
100
AcDbSymbolTable
 70
     7
  0
LAYER
  5
4F
102
{ACAD_XDICTIONARY
360
5B1
102
}
330
2
100
AcDbSymbolTableRecord
100
AcDbLayerTableRecord
  2
0
 70
     0
 62
     7
  6
Continuous
370
    -3
390
F
1001
AcAecLayerStandard
1000

1000

  0
LAYER
  5
70
330
2
100
AcDbSymbolTableRecord
100
AcDbLayerTableRecord
  2
Defpoints
 70
     0
 62
     7
  6
Continuous
290
     0
370
    -3
390
F
1001
AcAecLayerStandard
1000

1000

  0
LAYER
  5
C9
102
{ACAD_XDICTIONARY
360
CA
102
}
330
2
100
AcDbSymbolTableRecord
100
AcDbLayerTableRecord
  2
AM_VIEWS
 70
     0
 62
     1
  6
Continuous
290
     0
370
    25
390
F
1001
AcAecLayerStandard
1000

1000

  0
LAYER
  5
D2
102
{ACAD_XDICTIONARY
360
D3
102
}
330
2
100
AcDbSymbolTableRecord
100
AcDbLayerTableRecord
  2
AM_5
 70
     0
 62
    92
  6
Continuous
370
    13
390
F
1001
AcAecLayerStandard
1000

1000

  0
LAYER
  5
F1
102
{ACAD_XDICTIONARY
360
F2
102
}
330
2
100
AcDbSymbolTableRecord
100
AcDbLayerTableRecord
  2
AM_0
 70
     0
 62
     7
  6
Continuous
370
    35
390
F
  0
LAYER
  5
136
102
{ACAD_XDICTIONARY
360
137
102
}
330
2
100
AcDbSymbolTableRecord
100
AcDbLayerTableRecord
  2
AM_7
 70
     0
 62
   142
  6
AM_ISO08W050x2
370
    13
390
F
1001
AcAecLayerStandard
1000

1000

  0
LAYER
  5
200
102
{ACAD_XDICTIONARY
360
5B3
102
}
330
2
100
AcDbSymbolTableRecord
100
AcDbLayerTableRecord
  2
Viewport2ForCustomObjects_0
 70
     0
 62
     7
  6
Continuous
370
    -3
390
F
  0
ENDTAB
  0
TABLE
  2
STYLE
  5
3
330
0
100
AcDbSymbolTable
 70
    14
  0
STYLE
  5
50
330
3
100
AcDbSymbolTableRecord
100
AcDbTextStyleTableRecord
  2
STANDARD
 70
     0
 40
0.0
 41
1.0
 50
0.0
 71
     0
 42
2.5
  3
TAHOMA.TTF
  4

1001
ACAD
1000
Tahoma
1071
       34
  0
STYLE
  5
55
330
3
100
AcDbSymbolTableRecord
100
AcDbTextStyleTableRecord
  2
Annotative
 70
     0
 40
0.0
 41
1.0
 50
0.0
 71
     0
 42
0.2
  3
txt
  4

1001
AcadAnnotative
1000
AnnotativeData
1002
{
1070
     1
1070
     1
1002
}
  0
STYLE
  5
8A
330
3
100
AcDbSymbolTableRecord
100
AcDbTextStyleTableRecord
  2
ACJISGDT
 70
     0
 40
0.0
 41
1.0
 50
0.0
 71
     0
 42
2.5
  3
amgdt.shx
  4
extfont2.shx
  0
STYLE
  5
8B
330
3
100
AcDbSymbolTableRecord
100
AcDbTextStyleTableRecord
  2

 70
     1
 40
0.0
 41
1.0
 50
0.0
 71
     0
 42
2.5
  3
genltshp.shx
  4

  0
STYLE
  5
8C
330
3
100
AcDbSymbolTableRecord
100
AcDbTextStyleTableRecord
  2
Note Text (JIS)
 70
     0
 40
0.0
 41
1.0
 50
0.0
 71
     0
 42
0.2
  3
TAHOMA.TTF
  4

1001
ACAD
1000
Tahoma
1071
      256
  0
STYLE
  5
8D
330
3
100
AcDbSymbolTableRecord
100
AcDbTextStyleTableRecord
  2
CustomTextStyle0
 70
     0
 40
3.5
 41
1.0
 50
0.0
 71
     0
 42
2.5
  3
TAHOMA.TTF
  4

1001
ACAD
1000
Tahoma
1071
      290
  0
STYLE
  5
8E
330
3
100
AcDbSymbolTableRecord
100
AcDbTextStyleTableRecord
  2
CustomTextStyle1
 70
     0
 40
3.5
 41
1.0
 50
0.0
 71
     0
 42
2.5
  3
MS PGothic.ttf
  4

1001
ACAD
1000
MS PGothic
1071
      306
  0
STYLE
  5
8F
330
3
100
AcDbSymbolTableRecord
100
AcDbTextStyleTableRecord
  2
CustomTextStyle2
 70
     0
 40
3.5
 41
1.0
 50
0.0
 71
     0
 42
2.5
  3
TAHOMA.TTF
  4

1001
ACAD
1000
Tahoma
1071
      290
  0
STYLE
  5
90
330
3
100
AcDbSymbolTableRecord
100
AcDbTextStyleTableRecord
  2
CustomTextStyle3
 70
     0
 40
3.5
 41
1.0
 50
0.0
 71
     0
 42
2.5
  3
MS PGothic.ttf
  4

1001
ACAD
1000
MS PGothic
1071
      306
  0
STYLE
  5
91
330
3
100
AcDbSymbolTableRecord
100
AcDbTextStyleTableRecord
  2
CustomTextStyle4
 70
     0
 40
3.5
 41
1.0
 50
0.0
 71
     0
 42
2.5
  3
TAHOMA.TTF
  4

1001
ACAD
1000
Tahoma
1071
      290
  0
STYLE
  5
92
330
3
100
AcDbSymbolTableRecord
100
AcDbTextStyleTableRecord
  2
CustomTextStyle5
 70
     0
 40
3.5
 41
1.0
 50
0.0
 71
     0
 42
2.5
  3
MS PGothic.ttf
  4

1001
ACAD
1000
MS PGothic
1071
      306
  0
STYLE
  5
93
330
3
100
AcDbSymbolTableRecord
100
AcDbTextStyleTableRecord
  2
CustomTextStyle6
 70
     0
 40
3.5
 41
1.0
 50
0.0
 71
     0
 42
2.5
  3
MS PGothic.ttf
  4

1001
ACAD
1000
MS PGothic
1071
      306
  0
STYLE
  5
681
330
3
100
AcDbSymbolTableRecord
100
AcDbTextStyleTableRecord
  2
ACISOTS
 70
     0
 40
1.0
 41
1.0
 50
0.0
 71
     0
 42
2.5
  3
isocp.shx
  4
extfont.shx
  0
STYLE
  5
682
330
3
100
AcDbSymbolTableRecord
100
AcDbTextStyleTableRecord
  2
ACISOGDT
 70
     0
 40
0.0
 41
1.0
 50
0.0
 71
     0
 42
2.5
  3
amgdt.shx
  4

  0
ENDTAB
  0
TABLE
  2
VIEW
  5
6
330
0
100
AcDbSymbolTable
 70
     0
  0
ENDTAB
  0
TABLE
  2
UCS
  5
7
330
0
100
AcDbSymbolTable
 70
     0
  0
ENDTAB
  0
TABLE
  2
APPID
  5
9
330
0
100
AcDbSymbolTable
 70
    45
  0
APPID
  5
51
330
9
100
AcDbSymbolTableRecord
100
AcDbRegAppTableRecord
  2
ACAD
 70
     0
  0
APPID
  5
59
330
9
100
AcDbSymbolTableRecord
100
AcDbRegAppTableRecord
  2
AcadAnnotative
 70
     0
  0
APPID
  5
6F
330
9
100
AcDbSymbolTableRecord
100
AcDbRegAppTableRecord
  2
ACAD_PSEXT
 70
     0
  0
APPID
  5
71
330
9
100
AcDbSymbolTableRecord
100
AcDbRegAppTableRecord
  2
ACAD_DSTYLE_DIMJOGGED_JOGANGLE_SYMBOL
 70
     0
  0
APPID
  5
72
330
9
100
AcDbSymbolTableRecord
100
AcDbRegAppTableRecord
  2
ACAD_DSTYLE_DIMJAG
 70
     0
  0
APPID
  5
73
330
9
100
AcDbSymbolTableRecord
100
AcDbRegAppTableRecord
  2
ACAD_DSTYLE_DIMBREAK
 70
     0
  0
APPID
  5
74
330
9
100
AcDbSymbolTableRecord
100
AcDbRegAppTableRecord
  2
AcAecLayerStandard
 70
     0
  0
APPID
  5
75
330
9
100
AcDbSymbolTableRecord
100
AcDbRegAppTableRecord
  2
GENIUS_GENREC_14
 70
     0
  0
APPID
  5
76
330
9
100
AcDbSymbolTableRecord
100
AcDbRegAppTableRecord
  2
GENIUS_GENODEF_13
 70
     0
  0
APPID
  5
77
330
9
100
AcDbSymbolTableRecord
100
AcDbRegAppTableRecord
  2
GENIUS_GENOBJ-N-REC_13
 70
     0
  0
APPID
  5
78
330
9
100
AcDbSymbolTableRecord
100
AcDbRegAppTableRecord
  2
ACAD_DSTYLE_DIMTALN
 70
     0
  0
APPID
  5
79
330
9
100
AcDbSymbolTableRecord
100
AcDbRegAppTableRecord
  2
GENIUS_GENOENT_13
 70
     0
  0
APPID
  5
7A
330
9
100
AcDbSymbolTableRecord
100
AcDbRegAppTableRecord
  2
GENIUS_GENOBJ-N-FITL_13
 70
     0
  0
APPID
  5
7B
330
9
100
AcDbSymbolTableRecord
100
AcDbRegAppTableRecord
  2
GENIUS_GENOLIS_13
 70
     0
  0
APPID
  5
7C
330
9
100
AcDbSymbolTableRecord
100
AcDbRegAppTableRecord
  2
GENIUS_GENFITL_13
 70
     0
  0
APPID
  5
7D
330
9
100
AcDbSymbolTableRecord
100
AcDbRegAppTableRecord
  2
GENIUS_GENOREF_13
 70
     0
  0
APPID
  5
7E
330
9
100
AcDbSymbolTableRecord
100
AcDbRegAppTableRecord
  2
GENIUS_GENOBJ-N-RSSYM_13
 70
     0
  0
APPID
  5
7F
330
9
100
AcDbSymbolTableRecord
100
AcDbRegAppTableRecord
  2
GENIUS_GENSYMENT_13
 70
     0
  0
APPID
  5
80
330
9
100
AcDbSymbolTableRecord
100
AcDbRegAppTableRecord
  2
ACAD_DSTYLE_DIMINSPECT
 70
     0
  0
APPID
  5
81
330
9
100
AcDbSymbolTableRecord
100
AcDbRegAppTableRecord
  2
ACAD_DSTYLE_DIMRADIAL_EXTENSION
 70
     0
  0
APPID
  5
82
330
9
100
AcDbSymbolTableRecord
100
AcDbRegAppTableRecord
  2
GENIUS_GENSCREG_15
 70
     0
  0
APPID
  5
83
330
9
100
AcDbSymbolTableRecord
100
AcDbRegAppTableRecord
  2
GENIUS_GENOBJ-N-SDF_13
 70
     0
  0
APPID
  5
84
330
9
100
AcDbSymbolTableRecord
100
AcDbRegAppTableRecord
  2
GENIUS_GENOBJ-N-CRS_13
 70
     0
  0
APPID
  5
85
330
9
100
AcDbSymbolTableRecord
100
AcDbRegAppTableRecord
  2
AcDbDynamicBlockGUID
 70
     0
  0
APPID
  5
86
330
9
100
AcDbSymbolTableRecord
100
AcDbRegAppTableRecord
  2
GENIUS_AMGTXT_16
 70
     0
  0
APPID
  5
87
330
9
100
AcDbSymbolTableRecord
100
AcDbRegAppTableRecord
  2
GENIUS_GENOBJ-N-CEN_13
 70
     0
  0
APPID
  5
88
330
9
100
AcDbSymbolTableRecord
100
AcDbRegAppTableRecord
  2
GENIUS_GENCEN_19
 70
     0
  0
APPID
  5
89
330
9
100
AcDbSymbolTableRecord
100
AcDbRegAppTableRecord
  2
ACATTRIBSERVICES
 70
     0
  0
APPID
  5
505
330
9
100
AcDbSymbolTableRecord
100
AcDbRegAppTableRecord
  2
MCAD_NO_VIS
 70
     0
  0
APPID
  5
506
330
9
100
AcDbSymbolTableRecord
100
AcDbRegAppTableRecord
  2
ACAD_TEMP_GRAPHIC
 70
     0
  0
APPID
  5
507
330
9
100
AcDbSymbolTableRecord
100
AcDbRegAppTableRecord
  2
AD_DRAW
 70
     0
  0
APPID
  5
508
330
9
100
AcDbSymbolTableRecord
100
AcDbRegAppTableRecord
  2
DESIGNERASSEMBLIES
 70
     0
  0
APPID
  5
509
330
9
100
AcDbSymbolTableRecord
100
AcDbRegAppTableRecord
  2
ACADM_DIM_EDIT
 70
     0
  0
APPID
  5
50A
330
9
100
AcDbSymbolTableRecord
100
AcDbRegAppTableRecord
  2
AMDT_DM_ADJ
 70
     0
  0
APPID
  5
50B
330
9
100
AcDbSymbolTableRecord
100
AcDbRegAppTableRecord
  2
ACAD_DSTYLE_DIMARC_LENGTH_SYMBOL
 70
     0
  0
APPID
  5
50C
330
9
100
AcDbSymbolTableRecord
100
AcDbRegAppTableRecord
  2
ACAD_MLEADERVER
 70
     0
  0
APPID
  5
50D
330
9
100
AcDbSymbolTableRecord
100
AcDbRegAppTableRecord
  2
ACAD_EXEMPT_FROM_CAD_STANDARDS
 70
     0
  0
APPID
  5
50E
330
9
100
AcDbSymbolTableRecord
100
AcDbRegAppTableRecord
  2
AcadAnnoPO
 70
     0
  0
APPID
  5
50F
330
9
100
AcDbSymbolTableRecord
100
AcDbRegAppTableRecord
  2
GENIUS_GENTRA_14
 70
     0
  0
APPID
  5
510
330
9
100
AcDbSymbolTableRecord
100
AcDbRegAppTableRecord
  2
GENIUS_GENSCSYM_13
 70
     0
  0
APPID
  5
5FA
330
9
100
AcDbSymbolTableRecord
100
AcDbRegAppTableRecord
  2
ACAD_DSTYLE_DIM_LINETYPE
 70
     0
  0
APPID
  5
5FB
330
9
100
AcDbSymbolTableRecord
100
AcDbRegAppTableRecord
  2
ACAD_DSTYLE_DIM_EXT1_LINETYPE
 70
     0
  0
APPID
  5
5FC
330
9
100
AcDbSymbolTableRecord
100
AcDbRegAppTableRecord
  2
ACAD_DSTYLE_DIM_EXT2_LINETYPE
 70
     0
  0
APPID
  5
C8D
330
9
100
AcDbSymbolTableRecord
100
AcDbRegAppTableRecord
  2
GENIUS_GENDTOL_13
 70
     0
  0
APPID
  5
1197
330
9
100
AcDbSymbolTableRecord
100
AcDbRegAppTableRecord
  2
ACAD_DSTYLE_DIMFLIPARROW_WHICH_SYMBOL
 70
     0
  0
ENDTAB
  0
TABLE
  2
DIMSTYLE
  5
A
330
0
100
AcDbSymbolTable
 70
    20
100
AcDbDimStyleTable
 71
     1
340
A3
  0
DIMSTYLE
105
53
330
A
100
AcDbSymbolTableRecord
100
AcDbDimStyleTableRecord
  2
Standard
 70
     0
340
50
  0
DIMSTYLE
105
54
330
A
100
AcDbSymbolTableRecord
100
AcDbDimStyleTableRecord
  2
Annotative
 70
     0
340
50
1001
AcadAnnotative
1000
AnnotativeData
1002
{
1070
     1
1070
     1
1002
}
  0
DIMSTYLE
105
A2
330
A
100
AcDbSymbolTableRecord
100
AcDbDimStyleTableRecord
  2
ISO-25
 70
     0
 41
2.5
 42
0.625
 43
3.75
 44
1.25
 73
     0
 74
     0
 77
     1
 78
     8
140
2.5
141
2.5
143
0.03937007874016
147
0.625
171
     3
172
     1
271
     2
272
     2
274
     3
278
    44
283
     0
284
     8
340
50
  0
DIMSTYLE
105
A3
330
A
100
AcDbSymbolTableRecord
100
AcDbDimStyleTableRecord
  2
AM_JIS
 70
     0
  4
"
 41
2.5
 42
0.5
 43
8.0
 44
1.0
 47
0.1
 48
0.1000000001
 73
     0
 74
     0
 77
     3
 78
     8
 79
     2
140
3.5
141
0.0
143
0.0393701
146
0.55
147
0.8
172
     1
176
   256
177
   256
178
   140
271
     3
272
     3
283
     0
284
     8
340
50
341
A4
342
A4
371
    -1
372
    -1
1001
ACAD_DSTYLE_DIMJOGGED_JOGANGLE_SYMBOL
1070
   384
1040
0.7853981633974483
1001
ACAD_DSTYLE_DIMBREAK
1070
   391
1040
3.75
1001
ACAD_DSTYLE_DIMJAG
1070
   388
1040
1.5
1001
ACAD_DSTYLE_DIMTALN
1070
   392
1070
     0
1001
ACAD_DSTYLE_DIMARC_LENGTH_SYMBOL
1070
   379
1070
     1
1001
ACAD_DSTYLE_DIM_LINETYPE
1070
   380
1005
56
1001
ACAD_DSTYLE_DIM_EXT1_LINETYPE
1070
   381
1005
56
1001
ACAD_DSTYLE_DIM_EXT2_LINETYPE
1070
   382
1005
56
  0
DIMSTYLE
105
AA
330
A
100
AcDbSymbolTableRecord
100
AcDbDimStyleTableRecord
  2
AM_JIS$3
 70
     0
  4
"
 41
2.5
 42
0.5
 43
8.0
 44
1.0
 47
0.1
 48
0.1000000001
 73
     0
 77
     3
 78
     8
 79
     2
140
3.5
141
0.0
143
0.0393701
146
0.55
147
0.8
176
   256
177
   256
178
   140
271
     3
272
     3
283
     0
284
     8
288
     1
289
     0
340
50
341
A4
342
A4
371
    -1
372
    -1
1001
ACAD_DSTYLE_DIMJOGGED_JOGANGLE_SYMBOL
1070
   384
1040
0.7853981633974483
1001
ACAD_DSTYLE_DIMBREAK
1070
   391
1040
3.75
1001
ACAD_DSTYLE_DIMJAG
1070
   388
1040
1.5
1001
ACAD_DSTYLE_DIMTALN
1070
   392
1070
     0
1001
ACAD_DSTYLE_DIMARC_LENGTH_SYMBOL
1070
   379
1070
     1
1001
ACAD_DSTYLE_DIM_LINETYPE
1070
   380
1005
56
1001
ACAD_DSTYLE_DIM_EXT1_LINETYPE
1070
   381
1005
56
1001
ACAD_DSTYLE_DIM_EXT2_LINETYPE
1070
   382
1005
56
  0
DIMSTYLE
105
AB
330
A
100
AcDbSymbolTableRecord
100
AcDbDimStyleTableRecord
  2
AM_JIS$4
 70
     0
  4
"
 41
2.5
 42
0.5
 43
8.0
 44
1.0
 47
0.1
 48
0.1000000001
 73
     0
 74
     0
 77
     3
 78
     8
 79
     2
140
3.5
141
0.0
143
0.0393701
146
0.55
147
0.8
172
     1
176
   256
177
   256
178
   140
271
     3
272
     3
283
     0
284
     8
340
50
341
A4
342
A4
371
    -1
372
    -1
1001
ACAD_DSTYLE_DIMJOGGED_JOGANGLE_SYMBOL
1070
   384
1040
0.7853981633974483
1001
ACAD_DSTYLE_DIMBREAK
1070
   391
1040
3.75
1001
ACAD_DSTYLE_DIMJAG
1070
   388
1040
1.5
1001
ACAD_DSTYLE_DIMTALN
1070
   392
1070
     0
1001
ACAD_DSTYLE_DIMARC_LENGTH_SYMBOL
1070
   379
1070
     1
1001
ACAD_DSTYLE_DIM_LINETYPE
1070
   380
1005
56
1001
ACAD_DSTYLE_DIM_EXT1_LINETYPE
1070
   381
1005
56
1001
ACAD_DSTYLE_DIM_EXT2_LINETYPE
1070
   382
1005
56
  0
DIMSTYLE
105
AC
330
A
100
AcDbSymbolTableRecord
100
AcDbDimStyleTableRecord
  2
AM_JIS$6
 70
     0
  4
"
 41
2.5
 42
0.5
 43
8.0
 44
1.0
 47
0.1
 48
0.1000000001
 73
     0
 74
     0
 78
     8
 79
     2
140
3.5
141
0.0
143
0.0393701
146
0.55
147
0.8
172
     1
176
   256
177
   256
178
   140
271
     3
272
     3
283
     0
284
     8
340
50
341
A4
342
A4
371
    -1
372
    -1
1001
ACAD_DSTYLE_DIMJOGGED_JOGANGLE_SYMBOL
1070
   384
1040
0.7853981633974483
1001
ACAD_DSTYLE_DIMBREAK
1070
   391
1040
3.75
1001
ACAD_DSTYLE_DIMJAG
1070
   388
1040
1.5
1001
ACAD_DSTYLE_DIMTALN
1070
   392
1070
     0
1001
ACAD_DSTYLE_DIMARC_LENGTH_SYMBOL
1070
   379
1070
     1
1001
ACAD_DSTYLE_DIM_LINETYPE
1070
   380
1005
56
1001
ACAD_DSTYLE_DIM_EXT1_LINETYPE
1070
   381
1005
56
1001
ACAD_DSTYLE_DIM_EXT2_LINETYPE
1070
   382
1005
56
  0
DIMSTYLE
105
AD
330
A
100
AcDbSymbolTableRecord
100
AcDbDimStyleTableRecord
  2
AM_JIS$7
 70
     0
  4
"
 41
2.5
 42
0.5
 43
8.0
 44
1.0
 47
0.1
 48
0.1000000001
 73
     0
 74
     0
 77
     3
 78
     8
 79
     2
140
3.5
141
0.0
143
0.0393701
146
0.55
147
0.8
172
     1
176
   256
177
   256
178
   140
271
     3
272
     3
283
     0
284
     8
340
50
341
A4
342
A4
371
    -1
372
    -1
1001
ACAD_DSTYLE_DIMJOGGED_JOGANGLE_SYMBOL
1070
   384
1040
0.7853981633974483
1001
ACAD_DSTYLE_DIMBREAK
1070
   391
1040
3.75
1001
ACAD_DSTYLE_DIMJAG
1070
   388
1040
1.5
1001
ACAD_DSTYLE_DIMTALN
1070
   392
1070
     0
1001
ACAD_DSTYLE_DIMARC_LENGTH_SYMBOL
1070
   379
1070
     1
1001
ACAD_DSTYLE_DIM_LINETYPE
1070
   380
1005
56
1001
ACAD_DSTYLE_DIM_EXT1_LINETYPE
1070
   381
1005
56
1001
ACAD_DSTYLE_DIM_EXT2_LINETYPE
1070
   382
1005
56
  0
DIMSTYLE
105
AE
330
A
100
AcDbSymbolTableRecord
100
AcDbDimStyleTableRecord
  2
AM_JIS$SF
 70
     0
  4
"
 41
2.5
 42
0.5
 43
8.0
 44
1.0
 47
0.1
 48
0.1000000001
 73
     0
 74
     0
 75
     1
 76
     1
 77
     3
 78
     8
 79
     2
140
3.5
141
0.0
143
0.0393701
146
0.55
147
0.8
172
     1
176
   256
177
   256
178
   140
271
     3
272
     3
283
     0
284
     8
340
50
341
A4
342
A4
371
    -1
372
    -1
1001
ACAD_DSTYLE_DIMJOGGED_JOGANGLE_SYMBOL
1070
   384
1040
0.7853981633974483
1001
ACAD_DSTYLE_DIMBREAK
1070
   391
1040
3.75
1001
ACAD_DSTYLE_DIMJAG
1070
   388
1040
1.5
1001
ACAD_DSTYLE_DIMTALN
1070
   392
1070
     0
1001
ACAD_DSTYLE_DIMARC_LENGTH_SYMBOL
1070
   379
1070
     1
1001
ACAD_DSTYLE_DIM_LINETYPE
1070
   380
1005
56
1001
ACAD_DSTYLE_DIM_EXT1_LINETYPE
1070
   381
1005
56
1001
ACAD_DSTYLE_DIM_EXT2_LINETYPE
1070
   382
1005
56
  0
DIMSTYLE
105
AF
330
A
100
AcDbSymbolTableRecord
100
AcDbDimStyleTableRecord
  2
AM_JIS$SH
 70
     0
  4
"
 41
2.5
 42
0.5
 43
8.0
 44
1.0
 47
0.1
 48
0.1000000001
 73
     0
 74
     0
 75
     1
 76
     1
 77
     3
 78
     8
 79
     2
140
3.5
141
0.0
143
0.0393701
144
2.0
146
0.55
147
0.8
172
     1
173
     1
176
   256
177
   256
178
   140
271
     3
272
     3
283
     0
284
     8
340
50
341
A4
342
A4
343
B0
371
    -1
372
    -1
1001
ACAD_DSTYLE_DIMJOGGED_JOGANGLE_SYMBOL
1070
   384
1040
0.7853981633974483
1001
ACAD_DSTYLE_DIMBREAK
1070
   391
1040
3.75
1001
ACAD_DSTYLE_DIMJAG
1070
   388
1040
1.5
1001
ACAD_DSTYLE_DIMTALN
1070
   392
1070
     0
1001
ACAD_DSTYLE_DIMARC_LENGTH_SYMBOL
1070
   379
1070
     1
1001
ACAD_DSTYLE_DIM_LINETYPE
1070
   380
1005
56
1001
ACAD_DSTYLE_DIM_EXT1_LINETYPE
1070
   381
1005
56
1001
ACAD_DSTYLE_DIM_EXT2_LINETYPE
1070
   382
1005
56
  0
DIMSTYLE
105
B4
102
{ACAD_REACTORS
330
983
330
9E1
330
A1E
330
A79
330
AAC
330
ADE
330
B08
330
B66
330
BAE
330
BE1
330
C51
330
CB1
102
}
330
A
100
AcDbSymbolTableRecord
100
AcDbDimStyleTableRecord
  2
AM_JIS$0
 70
     0
  4
"
 41
2.5
 42
0.5
 43
8.0
 44
1.0
 47
0.1
 48
0.1000000001
 73
     0
 74
     0
 77
     3
 78
     8
 79
     2
140
3.5
141
0.0
143
0.0393701
146
0.55
147
0.8
172
     1
176
   256
177
   256
178
   140
271
     3
272
     3
283
     0
284
     8
340
50
341
A4
342
A4
371
    -1
372
    -1
1001
ACAD_DSTYLE_DIMBREAK
1070
   391
1040
3.75
1001
ACAD_DSTYLE_DIMJAG
1070
   388
1040
1.5
1001
ACAD_DSTYLE_DIMTALN
1070
   392
1070
     0
1001
ACAD_DSTYLE_DIMARC_LENGTH_SYMBOL
1070
   379
1070
     1
1001
ACAD_DSTYLE_DIM_LINETYPE
1070
   380
1005
56
1001
ACAD_DSTYLE_DIM_EXT1_LINETYPE
1070
   381
1005
56
1001
ACAD_DSTYLE_DIM_EXT2_LINETYPE
1070
   382
1005
56
  0
DIMSTYLE
105
B5
330
A
100
AcDbSymbolTableRecord
100
AcDbDimStyleTableRecord
  2
AM_JIS$2
 70
     0
  4
"
 41
2.5
 42
0.5
 43
8.0
 44
1.0
 47
0.1
 48
0.1000000001
 73
     0
 74
     0
 77
     3
 78
     8
 79
     2
140
3.5
141
0.0
143
0.0393701
146
0.55
147
0.8
172
     1
176
   256
177
   256
178
   140
271
     3
272
     3
283
     0
284
     8
340
50
341
A4
342
A4
371
    -1
372
    -1
1001
ACAD_DSTYLE_DIMJOGGED_JOGANGLE_SYMBOL
1070
   384
1040
0.7853981633974483
1001
ACAD_DSTYLE_DIMBREAK
1070
   391
1040
3.75
1001
ACAD_DSTYLE_DIMJAG
1070
   388
1040
1.5
1001
ACAD_DSTYLE_DIMTALN
1070
   392
1070
     0
1001
ACAD_DSTYLE_DIMARC_LENGTH_SYMBOL
1070
   379
1070
     1
1001
ACAD_DSTYLE_DIM_LINETYPE
1070
   380
1005
56
1001
ACAD_DSTYLE_DIM_EXT1_LINETYPE
1070
   381
1005
56
1001
ACAD_DSTYLE_DIM_EXT2_LINETYPE
1070
   382
1005
56
  0
DIMSTYLE
105
677
102
{ACAD_REACTORS
330
666
102
}
330
A
100
AcDbSymbolTableRecord
100
AcDbDimStyleTableRecord
  2
AM_ISO
 70
     0
  4
"
 41
3.5
 42
1.0
 43
10.0
 44
1.0
 47
0.1
 48
0.1
 73
     0
 74
     0
 77
     1
 78
     8
 79
     2
140
3.5
141
0.0
143
0.0393701
146
0.71
147
1.5
172
     1
176
   256
177
   256
178
   140
271
     2
272
     3
274
     4
283
     0
284
     8
340
50
371
    -1
372
    -1
1001
ACAD_DSTYLE_DIMJAG
1070
   388
1040
1.5
1001
ACAD_DSTYLE_DIMBREAK
1070
   391
1040
3.75
1001
ACAD_DSTYLE_DIMARC_LENGTH_SYMBOL
1070
   379
1070
     1
1001
ACAD_DSTYLE_DIM_LINETYPE
1070
   380
1005
56
1001
ACAD_DSTYLE_DIM_EXT1_LINETYPE
1070
   381
1005
56
1001
ACAD_DSTYLE_DIM_EXT2_LINETYPE
1070
   382
1005
56
  0
DIMSTYLE
105
679
330
A
100
AcDbSymbolTableRecord
100
AcDbDimStyleTableRecord
  2
AM_ISO$3
 70
     0
  4
"
 41
3.5
 42
1.0
 43
10.0
 44
1.0
 47
0.1
 48
0.1
 73
     0
 77
     1
 78
     8
 79
     2
140
3.5
141
0.0
143
0.0393701
146
0.71
147
1.5
176
   256
177
   256
178
   140
271
     2
272
     3
274
     4
283
     0
284
     8
288
     1
289
     0
340
50
371
    -1
372
    -1
1001
ACAD_DSTYLE_DIMBREAK
1070
   391
1040
3.75
1001
ACAD_DSTYLE_DIMJAG
1070
   388
1040
1.5
1001
ACAD_DSTYLE_DIMARC_LENGTH_SYMBOL
1070
   379
1070
     1
1001
ACAD_DSTYLE_DIM_LINETYPE
1070
   380
1005
56
1001
ACAD_DSTYLE_DIM_EXT1_LINETYPE
1070
   381
1005
56
1001
ACAD_DSTYLE_DIM_EXT2_LINETYPE
1070
   382
1005
56
  0
DIMSTYLE
105
67A
330
A
100
AcDbSymbolTableRecord
100
AcDbDimStyleTableRecord
  2
AM_ISO$4
 70
     0
  4
"
 41
3.5
 42
1.0
 43
10.0
 44
1.0
 47
0.1
 48
0.1
 73
     0
 77
     1
 78
     8
 79
     2
140
3.5
141
0.0
143
0.0393701
146
0.71
147
1.5
176
   256
177
   256
178
   140
271
     2
272
     3
274
     4
283
     0
284
     8
288
     1
289
     0
340
50
371
    -1
372
    -1
1001
ACAD_DSTYLE_DIMBREAK
1070
   391
1040
3.75
1001
ACAD_DSTYLE_DIMJAG
1070
   388
1040
1.5
1001
ACAD_DSTYLE_DIMARC_LENGTH_SYMBOL
1070
   379
1070
     1
1001
ACAD_DSTYLE_DIM_LINETYPE
1070
   380
1005
56
1001
ACAD_DSTYLE_DIM_EXT1_LINETYPE
1070
   381
1005
56
1001
ACAD_DSTYLE_DIM_EXT2_LINETYPE
1070
   382
1005
56
  0
DIMSTYLE
105
67B
330
A
100
AcDbSymbolTableRecord
100
AcDbDimStyleTableRecord
  2
AM_ISO$6
 70
     0
  4
"
 41
3.5
 42
1.0
 43
10.0
 44
1.0
 47
0.1
 48
0.1
 73
     0
 74
     0
 78
     8
 79
     2
140
3.5
141
0.0
143
0.0393701
146
0.71
147
1.5
172
     1
176
   256
177
   256
178
   140
271
     2
272
     3
274
     4
283
     0
284
     8
340
50
371
    -1
372
    -1
1001
ACAD_DSTYLE_DIMBREAK
1070
   391
1040
3.75
1001
ACAD_DSTYLE_DIMJAG
1070
   388
1040
1.5
1001
ACAD_DSTYLE_DIMARC_LENGTH_SYMBOL
1070
   379
1070
     1
1001
ACAD_DSTYLE_DIM_LINETYPE
1070
   380
1005
56
1001
ACAD_DSTYLE_DIM_EXT1_LINETYPE
1070
   381
1005
56
1001
ACAD_DSTYLE_DIM_EXT2_LINETYPE
1070
   382
1005
56
  0
DIMSTYLE
105
67C
330
A
100
AcDbSymbolTableRecord
100
AcDbDimStyleTableRecord
  2
AM_ISO$7
 70
     0
  4
"
 41
3.5
 42
1.0
 43
10.0
 44
1.0
 47
0.1
 48
0.1
 73
     0
 74
     0
 77
     1
 78
     8
 79
     2
140
3.5
141
0.0
143
0.0393701
146
0.71
147
1.5
172
     1
176
   256
177
   256
178
   140
271
     2
272
     3
274
     4
283
     0
284
     8
340
50
371
    -1
372
    -1
1001
ACAD_DSTYLE_DIMBREAK
1070
   391
1040
3.75
1001
ACAD_DSTYLE_DIMJAG
1070
   388
1040
1.5
1001
ACAD_DSTYLE_DIMARC_LENGTH_SYMBOL
1070
   379
1070
     1
1001
ACAD_DSTYLE_DIM_LINETYPE
1070
   380
1005
56
1001
ACAD_DSTYLE_DIM_EXT1_LINETYPE
1070
   381
1005
56
1001
ACAD_DSTYLE_DIM_EXT2_LINETYPE
1070
   382
1005
56
  0
DIMSTYLE
105
67D
330
A
100
AcDbSymbolTableRecord
100
AcDbDimStyleTableRecord
  2
AM_ISO$SF
 70
     0
  4
"
 41
3.5
 42
1.0
 43
10.0
 44
1.0
 47
0.1
 48
0.1
 73
     0
 74
     0
 75
     1
 76
     1
 77
     1
 78
     8
 79
     2
140
3.5
141
0.0
143
0.0393701
146
0.71
147
1.5
172
     1
176
   256
177
   256
178
   140
271
     2
272
     3
274
     4
283
     0
284
     8
340
50
371
    -1
372
    -1
1001
ACAD_DSTYLE_DIMBREAK
1070
   391
1040
3.75
1001
ACAD_DSTYLE_DIMJAG
1070
   388
1040
1.5
1001
ACAD_DSTYLE_DIMARC_LENGTH_SYMBOL
1070
   379
1070
     1
1001
ACAD_DSTYLE_DIM_LINETYPE
1070
   380
1005
56
1001
ACAD_DSTYLE_DIM_EXT1_LINETYPE
1070
   381
1005
56
1001
ACAD_DSTYLE_DIM_EXT2_LINETYPE
1070
   382
1005
56
  0
DIMSTYLE
105
67E
330
A
100
AcDbSymbolTableRecord
100
AcDbDimStyleTableRecord
  2
AM_ISO$SH
 70
     0
  4
"
 41
3.5
 42
1.0
 43
10.0
 44
1.0
 47
0.1
 48
0.1
 73
     0
 74
     0
 75
     1
 76
     1
 77
     1
 78
     8
 79
     2
140
3.5
141
0.0
143
0.0393701
144
2.0
146
0.71
147
1.5
172
     1
173
     1
176
   256
177
   256
178
   140
271
     2
272
     3
274
     4
283
     0
284
     8
340
50
343
B0
371
    -1
372
    -1
1001
ACAD_DSTYLE_DIMBREAK
1070
   391
1040
3.75
1001
ACAD_DSTYLE_DIMJAG
1070
   388
1040
1.5
1001
ACAD_DSTYLE_DIMARC_LENGTH_SYMBOL
1070
   379
1070
     1
1001
ACAD_DSTYLE_DIM_LINETYPE
1070
   380
1005
56
1001
ACAD_DSTYLE_DIM_EXT1_LINETYPE
1070
   381
1005
56
1001
ACAD_DSTYLE_DIM_EXT2_LINETYPE
1070
   382
1005
56
  0
ENDTAB
  0
TABLE
  2
BLOCK_RECORD
  5
1
330
0
100
AcDbSymbolTable
 70
    66
  0
BLOCK_RECORD
  5
67
102
{ACAD_XDICTIONARY
360
470
102
}
330
1
100
AcDbSymbolTableRecord
100
AcDbBlockTableRecord
  2
*Model_Space
340
6A
  0
BLOCK_RECORD
  5
63
330
1
100
AcDbSymbolTableRecord
100
AcDbBlockTableRecord
  2
*Paper_Space
340
66
  0
BLOCK_RECORD
  5
6B
330
1
100
AcDbSymbolTableRecord
100
AcDbBlockTableRecord
  2
*Paper_Space0
340
6E
  0
BLOCK_RECORD
  5
A4
330
1
100
AcDbSymbolTableRecord
100
AcDbBlockTableRecord
  2
_Open
340
0
102
{BLKREFS
331
4E5
331
4E4
331
4DA
331
4D9
331
4CF
331
4CE
331
4C6
331
4C5
331
4BD
331
4BC
331
4B2
331
4B1
331
4A9
331
4A8
331
49F
331
49E
331
494
331
493
331
48B
331
48A
331
47E
331
47D
331
477
331
476
331
9DB
331
9DC
331
A73
331
A74
331
EDC
331
EDD
331
EE7
331
EE8
331
EF1
331
EF2
331
EFA
331
EFB
331
F05
331
F06
331
F0E
331
F0F
331
F19
331
F1A
331
F24
331
F25
331
F2D
331
F2E
331
F36
331
F37
331
F3F
331
F40
331
F4A
331
F4B
102
}
  0
BLOCK_RECORD
  5
B0
330
1
100
AcDbSymbolTableRecord
100
AcDbBlockTableRecord
  2
GENAXEH
340
0
  0
BLOCK_RECORD
  5
201
330
1
100
AcDbSymbolTableRecord
100
AcDbBlockTableRecord
  2
CustomObjectsInViewport2_0
340
0
  0
BLOCK_RECORD
  5
239
330
1
100
AcDbSymbolTableRecord
100
AcDbBlockTableRecord
  2
*D4
340
0
  0
BLOCK_RECORD
  5
244
330
1
100
AcDbSymbolTableRecord
100
AcDbBlockTableRecord
  2
*D5
340
0
  0
BLOCK_RECORD
  5
252
330
1
100
AcDbSymbolTableRecord
100
AcDbBlockTableRecord
  2
*D6
340
0
  0
BLOCK_RECORD
  5
260
330
1
100
AcDbSymbolTableRecord
100
AcDbBlockTableRecord
  2
*D7
340
0
  0
BLOCK_RECORD
  5
26C
330
1
100
AcDbSymbolTableRecord
100
AcDbBlockTableRecord
  2
*D8
340
0
  0
BLOCK_RECORD
  5
27A
330
1
100
AcDbSymbolTableRecord
100
AcDbBlockTableRecord
  2
*D9
340
0
  0
BLOCK_RECORD
  5
287
330
1
100
AcDbSymbolTableRecord
100
AcDbBlockTableRecord
  2
*D10
340
0
  0
BLOCK_RECORD
  5
293
330
1
100
AcDbSymbolTableRecord
100
AcDbBlockTableRecord
  2
*D11
340
0
  0
BLOCK_RECORD
  5
2A1
330
1
100
AcDbSymbolTableRecord
100
AcDbBlockTableRecord
  2
*D12
340
0
  0
BLOCK_RECORD
  5
2AD
330
1
100
AcDbSymbolTableRecord
100
AcDbBlockTableRecord
  2
*D13
340
0
  0
BLOCK_RECORD
  5
2B9
330
1
100
AcDbSymbolTableRecord
100
AcDbBlockTableRecord
  2
*D14
340
0
  0
BLOCK_RECORD
  5
2C7
330
1
100
AcDbSymbolTableRecord
100
AcDbBlockTableRecord
  2
*D15
340
0
  0
BLOCK_RECORD
  5
68F
330
1
100
AcDbSymbolTableRecord
100
AcDbBlockTableRecord
  2
_Open30
340
0
102
{BLKREFS
331
711
331
712
331
71E
331
71F
331
72C
331
72D
331
69A
331
69B
331
6B2
331
6B3
331
6C0
331
6C1
331
6CC
331
6CD
331
6D8
331
6DB
331
6EA
331
6EB
331
6F6
331
6F7
331
703
331
704
331
6A6
331
6A7
331
8C5
331
8C6
331
8CE
331
8CF
331
8D9
331
8DA
331
8E2
331
8E3
331
8EB
331
8EE
331
8FA
331
8FB
331
90D
331
90E
331
916
331
917
331
921
331
922
331
92B
331
92C
331
936
331
937
102
}
  0
BLOCK_RECORD
  5
695
330
1
100
AcDbSymbolTableRecord
100
AcDbBlockTableRecord
  2
*D18
340
0
  0
BLOCK_RECORD
  5
6A1
330
1
100
AcDbSymbolTableRecord
100
AcDbBlockTableRecord
  2
*D19
340
0
  0
BLOCK_RECORD
  5
6AD
330
1
100
AcDbSymbolTableRecord
100
AcDbBlockTableRecord
  2
*D20
340
0
  0
BLOCK_RECORD
  5
6B9
330
1
100
AcDbSymbolTableRecord
100
AcDbBlockTableRecord
  2
*D21
340
0
  0
BLOCK_RECORD
  5
6C7
330
1
100
AcDbSymbolTableRecord
100
AcDbBlockTableRecord
  2
*D22
340
0
  0
BLOCK_RECORD
  5
6D3
330
1
100
AcDbSymbolTableRecord
100
AcDbBlockTableRecord
  2
*D23
340
0
  0
BLOCK_RECORD
  5
6E3
330
1
100
AcDbSymbolTableRecord
100
AcDbBlockTableRecord
  2
*D24
340
0
  0
BLOCK_RECORD
  5
6F1
330
1
100
AcDbSymbolTableRecord
100
AcDbBlockTableRecord
  2
*D25
340
0
  0
BLOCK_RECORD
  5
6FD
330
1
100
AcDbSymbolTableRecord
100
AcDbBlockTableRecord
  2
*D26
340
0
  0
BLOCK_RECORD
  5
70A
330
1
100
AcDbSymbolTableRecord
100
AcDbBlockTableRecord
  2
*D27
340
0
  0
BLOCK_RECORD
  5
718
330
1
100
AcDbSymbolTableRecord
100
AcDbBlockTableRecord
  2
*D28
340
0
  0
BLOCK_RECORD
  5
725
330
1
100
AcDbSymbolTableRecord
100
AcDbBlockTableRecord
  2
*D29
340
0
  0
BLOCK_RECORD
  5
824
330
1
100
AcDbSymbolTableRecord
100
AcDbBlockTableRecord
  2
*D31
340
0
  0
BLOCK_RECORD
  5
830
330
1
100
AcDbSymbolTableRecord
100
AcDbBlockTableRecord
  2
*D32
340
0
  0
BLOCK_RECORD
  5
83C
330
1
100
AcDbSymbolTableRecord
100
AcDbBlockTableRecord
  2
*D33
340
0
  0
BLOCK_RECORD
  5
84A
330
1
100
AcDbSymbolTableRecord
100
AcDbBlockTableRecord
  2
*D34
340
0
  0
BLOCK_RECORD
  5
856
330
1
100
AcDbSymbolTableRecord
100
AcDbBlockTableRecord
  2
*D35
340
0
  0
BLOCK_RECORD
  5
866
330
1
100
AcDbSymbolTableRecord
100
AcDbBlockTableRecord
  2
*D36
340
0
  0
BLOCK_RECORD
  5
874
330
1
100
AcDbSymbolTableRecord
100
AcDbBlockTableRecord
  2
*D37
340
0
  0
BLOCK_RECORD
  5
880
330
1
100
AcDbSymbolTableRecord
100
AcDbBlockTableRecord
  2
*D38
340
0
  0
BLOCK_RECORD
  5
88D
330
1
100
AcDbSymbolTableRecord
100
AcDbBlockTableRecord
  2
*D39
340
0
  0
BLOCK_RECORD
  5
899
330
1
100
AcDbSymbolTableRecord
100
AcDbBlockTableRecord
  2
*D40
340
0
  0
BLOCK_RECORD
  5
8A7
330
1
100
AcDbSymbolTableRecord
100
AcDbBlockTableRecord
  2
*D41
340
0
  0
BLOCK_RECORD
  5
8B4
330
1
100
AcDbSymbolTableRecord
100
AcDbBlockTableRecord
  2
*D42
340
0
  0
BLOCK_RECORD
  5
93D
330
1
100
AcDbSymbolTableRecord
100
AcDbBlockTableRecord
  2
*S6743
340
0
102
{BLKREFS
331
948
102
}
  0
BLOCK_RECORD
  5
984
330
1
100
AcDbSymbolTableRecord
100
AcDbBlockTableRecord
  2
*D47
340
0
  0
BLOCK_RECORD
  5
9AE
330
1
100
AcDbSymbolTableRecord
100
AcDbBlockTableRecord
  2
*D48
340
0
  0
BLOCK_RECORD
  5
9E2
330
1
100
AcDbSymbolTableRecord
100
AcDbBlockTableRecord
  2
*D49
340
0
  0
BLOCK_RECORD
  5
A1F
330
1
100
AcDbSymbolTableRecord
100
AcDbBlockTableRecord
  2
*D50
340
0
  0
BLOCK_RECORD
  5
A53
330
1
100
AcDbSymbolTableRecord
100
AcDbBlockTableRecord
  2
*D51
340
0
  0
BLOCK_RECORD
  5
A7A
330
1
100
AcDbSymbolTableRecord
100
AcDbBlockTableRecord
  2
*D52
340
0
  0
BLOCK_RECORD
  5
AAD
330
1
100
AcDbSymbolTableRecord
100
AcDbBlockTableRecord
  2
*D53
340
0
  0
BLOCK_RECORD
  5
ADF
330
1
100
AcDbSymbolTableRecord
100
AcDbBlockTableRecord
  2
*D54
340
0
  0
BLOCK_RECORD
  5
B09
330
1
100
AcDbSymbolTableRecord
100
AcDbBlockTableRecord
  2
*D55
340
0
  0
BLOCK_RECORD
  5
B67
330
1
100
AcDbSymbolTableRecord
100
AcDbBlockTableRecord
  2
*D56
340
0
  0
BLOCK_RECORD
  5
BAF
330
1
100
AcDbSymbolTableRecord
100
AcDbBlockTableRecord
  2
*D57
340
0
  0
BLOCK_RECORD
  5
BE2
330
1
100
AcDbSymbolTableRecord
100
AcDbBlockTableRecord
  2
*D58
340
0
  0
BLOCK_RECORD
  5
C52
330
1
100
AcDbSymbolTableRecord
100
AcDbBlockTableRecord
  2
*D59
340
0
  0
BLOCK_RECORD
  5
CB2
330
1
100
AcDbSymbolTableRecord
100
AcDbBlockTableRecord
  2
*D60
340
0
  0
BLOCK_RECORD
  5
112D
330
1
100
AcDbSymbolTableRecord
100
AcDbBlockTableRecord
  2
*S62
340
0
  0
BLOCK_RECORD
  5
1138
330
1
100
AcDbSymbolTableRecord
100
AcDbBlockTableRecord
  2
*S63
340
0
  0
BLOCK_RECORD
  5
1142
330
1
100
AcDbSymbolTableRecord
100
AcDbBlockTableRecord
  2
*S64
340
0
  0
BLOCK_RECORD
  5
114C
330
1
100
AcDbSymbolTableRecord
100
AcDbBlockTableRecord
  2
*S65
340
0
  0
ENDTAB
  0
ENDSEC
  0
SECTION
  2
BLOCKS
  0
BLOCK
  5
68
330
67
100
AcDbEntity
  8
0
100
AcDbBlockBegin
  2
*Model_Space
 70
     0
 10
0.0
 20
0.0
 30
0.0
  3
*Model_Space
  1

  0
ENDBLK
  5
69
330
67
100
AcDbEntity
  8
0
100
AcDbBlockEnd
  0
BLOCK
  5
64
330
63
100
AcDbEntity
 67
     1
  8
0
100
AcDbBlockBegin
  2
*Paper_Space
 70
     0
 10
0.0
 20
0.0
 30
0.0
  3
*Paper_Space
  1

  0
ENDBLK
  5
65
330
63
100
AcDbEntity
 67
     1
  8
0
100
AcDbBlockEnd
  0
BLOCK
  5
6C
330
6B
100
AcDbEntity
 67
     1
  8
0
100
AcDbBlockBegin
  2
*Paper_Space0
 70
     0
 10
0.0
 20
0.0
 30
0.0
  3
*Paper_Space0
  1

  0
ENDBLK
  5
6D
330
6B
100
AcDbEntity
 67
     1
  8
0
100
AcDbBlockEnd
  0
BLOCK
  5
573
330
A4
100
AcDbEntity
  8
0
100
AcDbBlockBegin
  2
_Open
 70
     0
 10
0.0
 20
0.0
 30
0.0
  3
_Open
  1

  0
LINE
  5
574
330
A4
100
AcDbEntity
  8
0
  6
ByBlock
 62
     0
370
    -2
100
AcDbLine
 10
-1.0
 20
0.1666666666666666
 30
0.0
 11
0.0
 21
0.0
 31
0.0
  0
LINE
  5
575
330
A4
100
AcDbEntity
  8
0
  6
ByBlock
 62
     0
370
    -2
100
AcDbLine
 10
-1.0
 20
-0.1666666666666666
 30
0.0
 11
0.0
 21
0.0
 31
0.0
  0
LINE
  5
576
330
A4
100
AcDbEntity
  8
0
  6
ByBlock
 62
     0
370
    -2
100
AcDbLine
 10
0.0
 20
0.0
 30
0.0
 11
-1.0
 21
0.0
 31
0.0
  0
ENDBLK
  5
577
330
A4
100
AcDbEntity
  8
0
100
AcDbBlockEnd
  0
BLOCK
  5
580
330
B0
100
AcDbEntity
  8
0
100
AcDbBlockBegin
  2
GENAXEH
 70
     0
 10
0.0
 20
0.0
 30
0.0
  3
GENAXEH
  1

  0
LINE
  5
581
330
B0
100
AcDbEntity
  8
0
100
AcDbLine
 10
-1.0
 20
0.0
 30
0.0
 11
1.0
 21
0.0
 31
0.0
  0
ENDBLK
  5
582
330
B0
100
AcDbEntity
  8
0
100
AcDbBlockEnd
  0
BLOCK
  5
202
330
201
100
AcDbEntity
  8
0
100
AcDbBlockBegin
  2
CustomObjectsInViewport2_0
 70
     0
 10
0.0
 20
0.0
 30
0.0
  3
CustomObjectsInViewport2_0
  1

  0
LINE
  5
203
330
201
100
AcDbEntity
  8
AM_5
100
AcDbLine
 10
36.50708839609264
 20
70.30145156297493
 30
0.0
 11
7.653323666866184
 21
70.30145156297493
 31
0.0
  0
LINE
  5
204
330
201
100
AcDbEntity
  8
AM_5
100
AcDbLine
 10
7.653323666866184
 20
70.30145156297493
 30
0.0
 11
18.10203862914302
 21
40.31340262127389
 31
0.0
  0
LINE
  5
205
330
201
100
AcDbEntity
  8
AM_5
  6
Continuous
100
AcDbLine
 10
18.10203862914302
 20
40.3134026212739
 30
0.0
 11
18.92461044876609
 21
37.9526028412074
 31
0.0
  0
LINE
  5
206
330
201
100
AcDbEntity
  8
AM_5
  6
Continuous
100
AcDbLine
 10
17.7085720148706
 20
40.17630732348719
 30
0.0
 11
18.92461044876609
 21
37.9526028412074
 31
0.0
  0
LINE
  5
207
330
201
100
AcDbEntity
  8
AM_5
  6
Continuous
100
AcDbLine
 10
18.92461044876609
 20
37.9526028412074
 30
0.0
 11
18.49550524341544
 21
40.4504979190606
 31
0.0
  0
TEXT
  5
208
330
201
100
AcDbEntity
  8
AM_5
 62
   140
100
AcDbText
 10
10.92531829413281
 20
71.01602510226304
 30
0.0
 40
3.5
  1
3-M2.6
  7
CustomTextStyle0
100
AcDbText
  0
TEXT
  5
209
330
201
100
AcDbEntity
  8
AM_5
 62
   140
100
AcDbText
 10
10.87491457595709
 20
64.54632813256607
 30
0.0
 40
3.5
  1
有効深さ
  7
CustomTextStyle1
100
AcDbText
  0
TEXT
  5
20A
330
201
100
AcDbEntity
  8
AM_5
 62
   140
100
AcDbText
 10
30.04536912141164
 20
64.54632813256607
 30
0.0
 40
3.5
  1
2.5
  7
CustomTextStyle2
100
AcDbText
  0
LINE
  5
20B
330
201
100
AcDbEntity
  8
AM_5
100
AcDbLine
 10
11.15332366686618
 20
70.30145156297493
 30
0.0
 11
36.50708839609264
 21
70.30145156297493
 31
0.0
  0
LINE
  5
20C
330
201
100
AcDbEntity
  8
AM_5
100
AcDbLine
 10
109.9388381353721
 20
59.0954577977011
 30
0.0
 11
86.69167904446306
 21
59.0954577977011
 31
0.0
  0
LINE
  5
20D
330
201
100
AcDbEntity
  8
AM_5
100
AcDbLine
 10
86.69167904446306
 20
59.0954577977011
 30
0.0
 11
93.47845946816065
 21
51.46473962129692
 31
0.0
  0
LWPOLYLINE
  5
20E
330
201
100
AcDbEntity
  8
AM_5
  6
Continuous
100
AcDbPolyline
 90
        2
 70
   129
 43
0.4464285714285758
 10
94.91669076170834
 20
49.59669289084535
 42
1.0
 10
95.36311933313694
 20
49.59669289084535
 42
1.0
  0
LINE
  5
20F
330
201
100
AcDbEntity
  8
AM_5
  6
Continuous
100
AcDbLine
 10
94.84321833684013
 20
49.93027266414028
 30
0.0
 11
93.47845946816065
 21
51.46473962129692
 31
0.0
  0
TEXT
  5
210
330
201
100
AcDbEntity
  8
AM_5
 62
   140
100
AcDbText
 10
89.85361086264488
 20
61.36250325224655
 30
0.0
 40
3.5
  1
定格銘板
  7
CustomTextStyle3
100
AcDbText
  0
LINE
  5
211
330
201
100
AcDbEntity
  8
AM_5
100
AcDbLine
 10
152.5078352147938
 20
5.106938544382898
 30
0.0
 11
169.0246688890107
 21
5.106938544382898
 31
0.0
  0
LINE
  5
212
330
201
100
AcDbEntity
  8
AM_5
100
AcDbLine
 10
169.0246688890107
 20
5.106938544382898
 30
0.0
 11
161.5909850777264
 21
22.38252702174868
 31
0.0
  0
LINE
  5
213
330
201
100
AcDbEntity
  8
AM_5
  6
Continuous
100
AcDbLine
 10
161.5909850777264
 20
22.38252702174868
 30
0.0
 11
160.6028345250639
 21
24.67894999787325
 31
0.0
  0
LINE
  5
214
330
201
100
AcDbEntity
  8
AM_5
  6
Continuous
100
AcDbLine
 10
161.9737222251043
 20
22.54721877393809
 30
0.0
 11
160.6028345250639
 21
24.67894999787325
 31
0.0
  0
LINE
  5
215
330
201
100
AcDbEntity
  8
AM_5
  6
Continuous
100
AcDbLine
 10
160.6028345250639
 20
24.67894999787325
 30
0.0
 11
161.2082479303485
 21
22.21783526955927
 31
0.0
  0
TEXT
  5
216
330
201
100
AcDbEntity
  8
AM_5
 62
   140
100
AcDbText
 10
152.1387955908851
 20
7.2944385443829
 30
0.0
 40
3.5
  1
+
  7
CustomTextStyle4
100
AcDbText
  0
TEXT
  5
217
330
201
100
AcDbEntity
  8
AM_5
 62
   140
100
AcDbText
 10
155.641146161738
 20
7.2944385443829
 30
0.0
 40
3.5
  1
端子
  7
CustomTextStyle5
100
AcDbText
  0
LINE
  5
218
330
201
100
AcDbEntity
  8
AM_5
100
AcDbLine
 10
147.0752184127211
 20
8.782334989777892
 30
0.0
 11
123.828059321812
 21
8.782334989777892
 31
0.0
  0
LINE
  5
219
330
201
100
AcDbEntity
  8
AM_5
100
AcDbLine
 10
123.828059321812
 20
8.782334989777892
 30
0.0
 11
115.8992807638025
 21
21.89581430909989
 31
0.0
  0
LINE
  5
21A
330
201
100
AcDbEntity
  8
AM_5
  6
Continuous
100
AcDbLine
 10
115.8992807638025
 20
21.89581430909989
 30
0.0
 11
114.6057684903683
 21
24.03516607972461
 31
0.0
  0
LINE
  5
21B
330
201
100
AcDbEntity
  8
AM_5
  6
Continuous
100
AcDbLine
 10
116.2558393779776
 20
22.11139967938218
 30
0.0
 11
114.6057684903683
 21
24.03516607972461
 31
0.0
  0
LINE
  5
21C
330
201
100
AcDbEntity
  8
AM_5
  6
Continuous
100
AcDbLine
 10
114.6057684903683
 20
24.03516607972461
 30
0.0
 11
115.5427221496274
 21
21.6802289388176
 31
0.0
  0
TEXT
  5
21D
330
201
100
AcDbEntity
  8
AM_5
 62
   140
100
AcDbText
 10
127.0098775036302
 20
10.96983498977789
 30
0.0
 40
3.5
  1
入力端子
  7
CustomTextStyle6
100
AcDbText
  0
ENDBLK
  5
21E
330
201
100
AcDbEntity
  8
0
100
AcDbBlockEnd
  0
BLOCK
  5
23A
330
239
100
AcDbEntity
  8
0
100
AcDbBlockBegin
  2
*D4
 70
     1
 10
0.0
 20
0.0
 30
0.0
  3
*D4
  1

  0
LINE
  5
472
330
239
100
AcDbEntity
  8
AM_5
  6
ByBlock
100
AcDbLine
 10
58.94790839432534
 20
70.19529650090861
 30
0.0
 11
42.04998721260702
 21
48.89298031526335
 31
0.0
  0
LINE
  5
473
330
239
100
AcDbEntity
  8
AM_5
  6
ByBlock
100
AcDbLine
 10
22.78466509403983
 20
24.60620688469327
 30
0.0
 11
21.23101008447795
 21
22.64759612416343
 31
0.0
  0
MTEXT
  5
474
102
{ACAD_XDICTIONARY
360
118B
102
}
330
239
100
AcDbEntity
  8
AM_5
 62
   140
100
AcDbMText
 10
49.5955082570493
 20
62.72550151713132
 30
0.0
 40
3.5
 41
0.0
 71
     5
 72
     1
  1
P.C.D.\U+220526
 11
0.6214620038247488
 21
0.7834443042119382
 31
0.0
 73
     1
 44
1.0
1001
ACAD
1000
MTEXTBEGIN
1070
    73
1070
     1
1070
    44
1040
1.0
1070
    74
1070
     0
1000
MTEXTEND
  0
LINE
  5
475
330
239
100
AcDbEntity
  8
AM_5
  6
ByBlock
100
AcDbLine
 10
24.3383201036017
 20
26.56481764522312
 30
0.0
 11
40.49633220304515
 21
46.93436955473351
 31
0.0
  0
INSERT
  5
476
330
239
100
AcDbEntity
  8
AM_5
100
AcDbBlockReference
  2
_Open
 10
24.3383201036017
 20
26.56481764522312
 30
0.0
 41
2.5
 42
2.5
 43
2.5
 50
51.57702348416949
  0
INSERT
  5
477
330
239
100
AcDbEntity
  8
AM_5
100
AcDbBlockReference
  2
_Open
 10
40.49633220304515
 20
46.93436955473351
 30
0.0
 41
2.5
 42
2.5
 43
2.5
 50
231.5770234841695
  0
POINT
  5
478
330
239
100
AcDbEntity
  8
Defpoints
 62
     0
100
AcDbPoint
 10
40.49633220304515
 20
46.93436955473351
 30
0.0
  0
POINT
  5
479
330
239
100
AcDbEntity
  8
Defpoints
 62
     0
100
AcDbPoint
 10
24.3383201036017
 20
26.56481764522312
 30
0.0
  0
ENDBLK
  5
23B
330
239
100
AcDbEntity
  8
0
100
AcDbBlockEnd
  0
BLOCK
  5
245
330
244
100
AcDbEntity
  8
0
100
AcDbBlockBegin
  2
*D5
 70
     1
 10
0.0
 20
0.0
 30
0.0
  3
*D5
  1

  0
LINE
  5
47A
330
244
100
AcDbEntity
  8
AM_5
  6
ByBlock
100
AcDbLine
 10
11.21732615332341
 20
36.74959359997831
 30
0.0
 11
5.419744703154139
 21
36.74959359997831
 31
0.0
  0
LINE
  5
47B
330
244
100
AcDbEntity
  8
AM_5
  6
ByBlock
100
AcDbLine
 10
40.66732615332332
 20
22.46017443753425
 30
0.0
 11
45.91611687840734
 21
13.36900222339178
 31
0.0
  0
ARC
  5
47C
330
244
100
AcDbEntity
  8
AM_5
  6
ByBlock
100
AcDbCircle
 10
32.41732615332342
 20
36.74959359997831
 30
0.0
 40
25.99758145016928
100
AcDbArc
 50
185.5118472156348
 51
294.4881527843634
  0
INSERT
  5
47D
330
244
100
AcDbEntity
  8
AM_5
100
AcDbBlockReference
  2
_Open
 10
6.419744703154138
 20
36.74959359997831
 30
0.0
 41
2.5
 42
2.5
 43
2.5
 50
92.75592360781741
  0
INSERT
  5
47E
330
244
100
AcDbEntity
  8
AM_5
100
AcDbBlockReference
  2
_Open
 10
45.41611687840736
 20
14.23502762717624
 30
0.0
 41
2.5
 42
2.5
 43
2.5
 50
27.2440763921808
  0
MTEXT
  5
47F
102
{ACAD_XDICTIONARY
360
118D
102
}
330
244
100
AcDbEntity
  8
AM_5
 62
   140
100
AcDbMText
 10
21.07996927645876
 20
17.11271546570902
 30
0.0
 40
3.5
 41
0.0
 71
     5
 72
     1
  1
3-120\U+00B0
 11
0.8660254037844309
 21
-0.5000000000000135
 31
0.0
 73
     1
 44
1.0
1001
ACAD
1000
MTEXTBEGIN
1070
    73
1070
     1
1070
    44
1040
1.0
1070
    74
1070
     0
1000
MTEXTEND
  0
POINT
  5
480
330
244
100
AcDbEntity
  8
Defpoints
 62
     0
100
AcDbPoint
 10
12.50202334888805
 20
20.03867036199308
 30
0.0
  0
POINT
  5
481
330
244
100
AcDbEntity
  8
Defpoints
 62
     0
100
AcDbPoint
 10
30.91732615332349
 20
39.34766981133168
 30
0.0
  0
POINT
  5
482
330
244
100
AcDbEntity
  8
Defpoints
 62
     0
100
AcDbPoint
 10
32.41732615332342
 20
36.74959359997831
 30
0.0
  0
POINT
  5
483
330
244
100
AcDbEntity
  8
Defpoints
 62
     0
100
AcDbPoint
 10
11.71732615332341
 20
36.7495935999783
 30
0.0
  0
POINT
  5
484
330
244
100
AcDbEntity
  8
Defpoints
 62
     0
100
AcDbPoint
 10
40.41732615332334
 20
22.89318713942647
 30
0.0
  0
ENDBLK
  5
246
330
244
100
AcDbEntity
  8
0
100
AcDbBlockEnd
  0
BLOCK
  5
253
330
252
100
AcDbEntity
  8
0
100
AcDbBlockBegin
  2
*D6
 70
     1
 10
0.0
 20
0.0
 30
0.0
  3
*D6
  1

  0
LINE
  5
485
330
252
100
AcDbEntity
  8
AM_5
  6
ByBlock
100
AcDbLine
 10
76.98410032622098
 20
35.74959359997831
 30
0.0
 11
68.48410032622098
 21
35.74959359997831
 31
0.0
  0
LINE
  5
486
330
252
100
AcDbEntity
  8
AM_5
  6
ByBlock
100
AcDbLine
 10
76.98410032622098
 20
37.74959359997831
 30
0.0
 11
68.48410032622098
 21
37.74959359997831
 31
0.0
  0
LINE
  5
487
330
252
100
AcDbEntity
  8
AM_5
  6
ByBlock
100
AcDbLine
 10
69.48410032622098
 20
33.24959359997831
 30
0.0
 11
69.48410032622096
 21
30.74959359997831
 31
0.0
  0
LINE
  5
488
330
252
100
AcDbEntity
  8
AM_5
  6
ByBlock
100
AcDbLine
 10
69.48410032622098
 20
40.24959359997831
 30
0.0
 11
69.48410032622098
 21
49.56598043678154
 31
0.0
  0
LINE
  5
489
330
252
100
AcDbEntity
  8
AM_5
  6
ByBlock
100
AcDbLine
 10
69.48410032622098
 20
35.74959359997831
 30
0.0
 11
69.48410032622098
 21
37.74959359997831
 31
0.0
  0
INSERT
  5
48A
330
252
100
AcDbEntity
  8
AM_5
100
AcDbBlockReference
  2
_Open
 10
69.48410032622098
 20
35.74959359997831
 30
0.0
 41
2.5
 42
2.5
 43
2.5
 50
90.0
  0
INSERT
  5
48B
330
252
100
AcDbEntity
  8
AM_5
100
AcDbBlockReference
  2
_Open
 10
69.48410032622098
 20
37.74959359997831
 30
0.0
 41
2.5
 42
2.5
 43
2.5
 50
270.0
  0
MTEXT
  5
48C
330
252
100
AcDbEntity
  8
AM_5
 62
   140
100
AcDbMText
 10
66.89766647800069
 20
46.15778701837991
 30
0.0
 40
3.5
 41
0.0
 71
     5
 72
     1
  1
%%c2
 11
0.0000000000000001
 21
1.0
 31
0.0
 73
     1
 44
1.0
1001
ACAD
1000
MTEXTBEGIN
1070
    73
1070
     1
1070
    44
1040
1.0
1070
    74
1070
     0
1000
MTEXTEND
  0
POINT
  5
48D
330
252
100
AcDbEntity
  8
Defpoints
 62
     0
100
AcDbPoint
 10
77.48410032622098
 20
35.74959359997831
 30
0.0
  0
POINT
  5
48E
330
252
100
AcDbEntity
  8
Defpoints
 62
     0
100
AcDbPoint
 10
77.48410032622098
 20
37.74959359997831
 30
0.0
  0
POINT
  5
48F
330
252
100
AcDbEntity
  8
Defpoints
 62
     0
100
AcDbPoint
 10
69.48410032622098
 20
37.74959359997831
 30
0.0
  0
ENDBLK
  5
254
330
252
100
AcDbEntity
  8
0
100
AcDbBlockEnd
  0
BLOCK
  5
261
330
260
100
AcDbEntity
  8
0
100
AcDbBlockBegin
  2
*D7
 70
     1
 10
0.0
 20
0.0
 30
0.0
  3
*D7
  1

  0
LINE
  5
490
330
260
100
AcDbEntity
  8
AM_5
  6
ByBlock
100
AcDbLine
 10
81.48410032622109
 20
31.74959359997831
 30
0.0
 11
60.48410032622098
 21
31.74959359997832
 31
0.0
  0
LINE
  5
491
330
260
100
AcDbEntity
  8
AM_5
  6
ByBlock
100
AcDbLine
 10
81.48410032622107
 20
41.7495935999783
 30
0.0
 11
60.48410032622098
 21
41.7495935999783
 31
0.0
  0
LINE
  5
492
330
260
100
AcDbEntity
  8
AM_5
  6
ByBlock
100
AcDbLine
 10
61.48410032622098
 20
34.24959359997831
 30
0.0
 11
61.48410032622098
 21
39.24959359997831
 31
0.0
  0
INSERT
  5
493
330
260
100
AcDbEntity
  8
AM_5
100
AcDbBlockReference
  2
_Open
 10
61.48410032622098
 20
31.74959359997832
 30
0.0
 41
2.5
 42
2.5
 43
2.5
 50
270.0
  0
INSERT
  5
494
330
260
100
AcDbEntity
  8
AM_5
100
AcDbBlockReference
  2
_Open
 10
61.48410032622098
 20
41.7495935999783
 30
0.0
 41
2.5
 42
2.5
 43
2.5
 50
90.0
  0
MTEXT
  5
495
330
260
100
AcDbEntity
  8
AM_5
 62
   140
100
AcDbMText
 10
58.86240791520688
 20
36.74959359997832
 30
0.0
 40
3.5
 41
0.0
 71
     5
 72
     1
  1
%%c10
 11
0.0000000000000001
 21
1.0
 31
0.0
 73
     1
 44
1.0
1001
ACAD
1000
MTEXTBEGIN
1070
    73
1070
     1
1070
    44
1040
1.0
1070
    74
1070
     0
1000
MTEXTEND
  0
POINT
  5
496
330
260
100
AcDbEntity
  8
Defpoints
 62
     0
100
AcDbPoint
 10
81.9841003262211
 20
31.74959359997831
 30
0.0
  0
POINT
  5
497
330
260
100
AcDbEntity
  8
Defpoints
 62
     0
100
AcDbPoint
 10
81.98410032622108
 20
41.7495935999783
 30
0.0
  0
POINT
  5
498
330
260
100
AcDbEntity
  8
Defpoints
 62
     0
100
AcDbPoint
 10
61.48410032622098
 20
41.7495935999783
 30
0.0
  0
ENDBLK
  5
262
330
260
100
AcDbEntity
  8
0
100
AcDbBlockEnd
  0
BLOCK
  5
26D
330
26C
100
AcDbEntity
  8
0
100
AcDbBlockBegin
  2
*D8
 70
     1
 10
0.0
 20
0.0
 30
0.0
  3
*D8
  1

  0
LINE
  5
499
330
26C
100
AcDbEntity
  8
AM_5
  6
ByBlock
100
AcDbLine
 10
84.78410032622111
 20
51.74959359997831
 30
0.0
 11
84.78410032622111
 21
65.24959359997831
 31
0.0
  0
LINE
  5
49A
330
26C
100
AcDbEntity
  8
AM_5
  6
ByBlock
100
AcDbLine
 10
81.9841003262211
 20
42.24959359997831
 30
0.0
 11
81.9841003262211
 21
65.24959359997831
 31
0.0
  0
LINE
  5
49B
330
26C
100
AcDbEntity
  8
AM_5
  6
ByBlock
100
AcDbLine
 10
87.28410032622111
 20
64.24959359997831
 30
0.0
 11
89.78410032622111
 21
64.24959359997831
 31
0.0
  0
LINE
  5
49C
330
26C
100
AcDbEntity
  8
AM_5
  6
ByBlock
100
AcDbLine
 10
79.4841003262211
 20
64.24959359997831
 30
0.0
 11
69.10102443636214
 21
64.24959359997831
 31
0.0
  0
LINE
  5
49D
330
26C
100
AcDbEntity
  8
AM_5
  6
ByBlock
100
AcDbLine
 10
84.78410032622111
 20
64.24959359997831
 30
0.0
 11
81.9841003262211
 21
64.24959359997831
 31
0.0
  0
INSERT
  5
49E
330
26C
100
AcDbEntity
  8
AM_5
100
AcDbBlockReference
  2
_Open
 10
84.78410032622111
 20
64.24959359997831
 30
0.0
 41
2.5
 42
2.5
 43
2.5
 50
180.0
  0
INSERT
  5
49F
330
26C
100
AcDbEntity
  8
AM_5
100
AcDbBlockReference
  2
_Open
 10
81.9841003262211
 20
64.24959359997831
 30
0.0
 41
2.5
 42
2.5
 43
2.5
  0
MTEXT
  5
4A0
330
26C
100
AcDbEntity
  8
AM_5
 62
   140
100
AcDbMText
 10
73.04256238129163
 20
66.87951300897764
 30
0.0
 40
3.5
 41
0.0
 71
     5
 72
     1
  1
2.8
 73
     1
 44
1.0
1001
ACAD
1000
MTEXTBEGIN
1070
    73
1070
     1
1070
    44
1040
1.0
1070
    74
1070
     0
1000
MTEXTEND
  0
POINT
  5
4A1
330
26C
100
AcDbEntity
  8
Defpoints
 62
     0
100
AcDbPoint
 10
84.78410032622111
 20
51.24959359997831
 30
0.0
  0
POINT
  5
4A2
330
26C
100
AcDbEntity
  8
Defpoints
 62
     0
100
AcDbPoint
 10
81.9841003262211
 20
41.7495935999783
 30
0.0
  0
POINT
  5
4A3
330
26C
100
AcDbEntity
  8
Defpoints
 62
     0
100
AcDbPoint
 10
81.9841003262211
 20
64.24959359997831
 30
0.0
  0
ENDBLK
  5
26E
330
26C
100
AcDbEntity
  8
0
100
AcDbBlockEnd
  0
BLOCK
  5
27B
330
27A
100
AcDbEntity
  8
0
100
AcDbBlockBegin
  2
*D9
 70
     1
 10
0.0
 20
0.0
 30
0.0
  3
*D9
  1

  0
LINE
  5
4A4
330
27A
100
AcDbEntity
  8
AM_5
  6
ByBlock
100
AcDbLine
 10
84.78410032622111
 20
51.74959359997831
 30
0.0
 11
84.78410032622111
 21
73.24959359997828
 31
0.0
  0
LINE
  5
4A5
330
27A
100
AcDbEntity
  8
AM_5
  6
ByBlock
100
AcDbLine
 10
76.98410032622098
 20
37.74959359997831
 30
0.0
 11
76.98410032622098
 21
73.24959359997828
 31
0.0
  0
LINE
  5
4A6
330
27A
100
AcDbEntity
  8
AM_5
  6
ByBlock
100
AcDbLine
 10
82.28410032622111
 20
72.24959359997829
 30
0.0
 11
79.48410032622098
 21
72.24959359997829
 31
0.0
  0
LINE
  5
4A7
330
27A
100
AcDbEntity
  8
AM_5
  6
ByBlock
100
AcDbLine
 10
76.98410032622098
 20
72.24959359997829
 30
0.0
 11
66.57751872783278
 21
72.24959359997829
 31
0.0
  0
INSERT
  5
4A8
330
27A
100
AcDbEntity
  8
AM_5
100
AcDbBlockReference
  2
_Open
 10
84.78410032622111
 20
72.24959359997829
 30
0.0
 41
2.5
 42
2.5
 43
2.5
  0
INSERT
  5
4A9
330
27A
100
AcDbEntity
  8
AM_5
100
AcDbBlockReference
  2
_Open
 10
76.98410032622098
 20
72.24959359997829
 30
0.0
 41
2.5
 42
2.5
 43
2.5
 50
180.0
  0
MTEXT
  5
4AA
330
27A
100
AcDbEntity
  8
AM_5
 62
   140
100
AcDbMText
 10
70.53080952702689
 20
74.87951300897761
 30
0.0
 40
3.5
 41
0.0
 71
     5
 72
     1
  1
7.8
 73
     1
 44
1.0
1001
ACAD
1000
MTEXTBEGIN
1070
    73
1070
     1
1070
    44
1040
1.0
1070
    74
1070
     0
1000
MTEXTEND
  0
POINT
  5
4AB
330
27A
100
AcDbEntity
  8
Defpoints
 62
     0
100
AcDbPoint
 10
84.78410032622111
 20
51.24959359997831
 30
0.0
  0
POINT
  5
4AC
330
27A
100
AcDbEntity
  8
Defpoints
 62
     0
100
AcDbPoint
 10
76.98410032622098
 20
37.24959359997831
 30
0.0
  0
POINT
  5
4AD
330
27A
100
AcDbEntity
  8
Defpoints
 62
     0
100
AcDbPoint
 10
76.98410032622098
 20
72.24959359997829
 30
0.0
  0
ENDBLK
  5
27C
330
27A
100
AcDbEntity
  8
0
100
AcDbBlockEnd
  0
BLOCK
  5
288
330
287
100
AcDbEntity
  8
0
100
AcDbBlockBegin
  2
*D10
 70
     1
 10
0.0
 20
0.0
 30
0.0
  3
*D10
  1

  0
LINE
  5
4AE
330
287
100
AcDbEntity
  8
AM_5
  6
ByBlock
100
AcDbLine
 10
84.78410032622111
 20
51.74959359997831
 30
0.0
 11
84.78410032622111
 21
73.24959359997824
 31
0.0
  0
LINE
  5
4AF
330
287
100
AcDbEntity
  8
AM_5
  6
ByBlock
100
AcDbLine
 10
110.9841003262211
 20
54.94959359997904
 30
0.0
 11
110.9841003262211
 21
73.24959359997824
 31
0.0
  0
LINE
  5
4B0
330
287
100
AcDbEntity
  8
AM_5
  6
ByBlock
100
AcDbLine
 10
87.28410032622111
 20
72.24959359997824
 30
0.0
 11
108.4841003262211
 21
72.24959359997824
 31
0.0
  0
INSERT
  5
4B1
330
287
100
AcDbEntity
  8
AM_5
100
AcDbBlockReference
  2
_Open
 10
84.78410032622111
 20
72.24959359997824
 30
0.0
 41
2.5
 42
2.5
 43
2.5
 50
180.0
  0
INSERT
  5
4B2
330
287
100
AcDbEntity
  8
AM_5
100
AcDbBlockReference
  2
_Open
 10
110.9841003262211
 20
72.24959359997824
 30
0.0
 41
2.5
 42
2.5
 43
2.5
  0
MTEXT
  5
4B3
330
287
100
AcDbEntity
  8
AM_5
 62
   140
100
AcDbMText
 10
97.88410032622111
 20
74.87246129641881
 30
0.0
 40
3.5
 41
0.0
 71
     5
 72
     1
  1
26.2
 73
     1
 44
1.0
1001
ACAD
1000
MTEXTBEGIN
1070
    73
1070
     1
1070
    44
1040
1.0
1070
    74
1070
     0
1000
MTEXTEND
  0
POINT
  5
4B4
330
287
100
AcDbEntity
  8
Defpoints
 62
     0
100
AcDbPoint
 10
84.78410032622111
 20
51.24959359997831
 30
0.0
  0
POINT
  5
4B5
330
287
100
AcDbEntity
  8
Defpoints
 62
     0
100
AcDbPoint
 10
110.9841003262211
 20
54.44959359997904
 30
0.0
  0
POINT
  5
4B6
330
287
100
AcDbEntity
  8
Defpoints
 62
     0
100
AcDbPoint
 10
110.9841003262211
 20
72.24959359997824
 30
0.0
  0
ENDBLK
  5
289
330
287
100
AcDbEntity
  8
0
100
AcDbBlockEnd
  0
BLOCK
  5
294
330
293
100
AcDbEntity
  8
0
100
AcDbBlockBegin
  2
*D11
 70
     1
 10
0.0
 20
0.0
 30
0.0
  3
*D11
  1

  0
LINE
  5
4B7
330
293
100
AcDbEntity
  8
AM_5
  6
ByBlock
100
AcDbLine
 10
110.9841003262211
 20
54.94959359997904
 30
0.0
 11
110.9841003262211
 21
73.24959359997818
 31
0.0
  0
LINE
  5
4B8
330
293
100
AcDbEntity
  8
AM_5
  6
ByBlock
100
AcDbLine
 10
114.4841003262211
 20
41.7495935999783
 30
0.0
 11
114.4841003262211
 21
73.24959359997818
 31
0.0
  0
LINE
  5
4B9
330
293
100
AcDbEntity
  8
AM_5
  6
ByBlock
100
AcDbLine
 10
108.4841003262211
 20
72.2495935999782
 30
0.0
 11
105.984100326221
 21
72.2495935999782
 31
0.0
  0
LINE
  5
4BA
330
293
100
AcDbEntity
  8
AM_5
  6
ByBlock
100
AcDbLine
 10
116.9841003262211
 20
72.2495935999782
 30
0.0
 11
127.3178142281687
 21
72.2495935999782
 31
0.0
  0
LINE
  5
4BB
330
293
100
AcDbEntity
  8
AM_5
  6
ByBlock
100
AcDbLine
 10
110.9841003262211
 20
72.2495935999782
 30
0.0
 11
114.4841003262211
 21
72.2495935999782
 31
0.0
  0
INSERT
  5
4BC
330
293
100
AcDbEntity
  8
AM_5
100
AcDbBlockReference
  2
_Open
 10
110.9841003262211
 20
72.2495935999782
 30
0.0
 41
2.5
 42
2.5
 43
2.5
  0
INSERT
  5
4BD
330
293
100
AcDbEntity
  8
AM_5
100
AcDbBlockReference
  2
_Open
 10
114.4841003262211
 20
72.2495935999782
 30
0.0
 41
2.5
 42
2.5
 43
2.5
 50
180.0
  0
MTEXT
  5
4BE
330
293
100
AcDbEntity
  8
AM_5
 62
   140
100
AcDbMText
 10
123.4009572771949
 20
74.87246129641876
 30
0.0
 40
3.5
 41
0.0
 71
     5
 72
     1
  1
3.5
 73
     1
 44
1.0
1001
ACAD
1000
MTEXTBEGIN
1070
    73
1070
     1
1070
    44
1040
1.0
1070
    74
1070
     0
1000
MTEXTEND
  0
POINT
  5
4BF
330
293
100
AcDbEntity
  8
Defpoints
 62
     0
100
AcDbPoint
 10
110.9841003262211
 20
54.44959359997904
 30
0.0
  0
POINT
  5
4C0
330
293
100
AcDbEntity
  8
Defpoints
 62
     0
100
AcDbPoint
 10
114.4841003262211
 20
41.24959359997831
 30
0.0
  0
POINT
  5
4C1
330
293
100
AcDbEntity
  8
Defpoints
 62
     0
100
AcDbPoint
 10
114.4841003262211
 20
72.2495935999782
 30
0.0
  0
ENDBLK
  5
295
330
293
100
AcDbEntity
  8
0
100
AcDbBlockEnd
  0
BLOCK
  5
2A2
330
2A1
100
AcDbEntity
  8
0
100
AcDbBlockBegin
  2
*D12
 70
     1
 10
0.0
 20
0.0
 30
0.0
  3
*D12
  1

  0
LINE
  5
4C2
330
2A1
100
AcDbEntity
  8
AM_5
  6
ByBlock
100
AcDbLine
 10
114.284100326221
 20
31.74959359997831
 30
0.0
 11
122.7841003262211
 21
31.74959359997831
 31
0.0
  0
LINE
  5
4C3
330
2A1
100
AcDbEntity
  8
AM_5
  6
ByBlock
100
AcDbLine
 10
114.284100326221
 20
41.7495935999783
 30
0.0
 11
122.7841003262211
 21
41.7495935999783
 31
0.0
  0
LINE
  5
4C4
330
2A1
100
AcDbEntity
  8
AM_5
  6
ByBlock
100
AcDbLine
 10
121.7841003262211
 20
34.24959359997831
 30
0.0
 11
121.7841003262211
 21
39.24959359997831
 31
0.0
  0
INSERT
  5
4C5
330
2A1
100
AcDbEntity
  8
AM_5
100
AcDbBlockReference
  2
_Open
 10
121.7841003262211
 20
31.74959359997831
 30
0.0
 41
2.5
 42
2.5
 43
2.5
 50
270.0
  0
INSERT
  5
4C6
330
2A1
100
AcDbEntity
  8
AM_5
100
AcDbBlockReference
  2
_Open
 10
121.7841003262211
 20
41.7495935999783
 30
0.0
 41
2.5
 42
2.5
 43
2.5
 50
90.0
  0
MTEXT
  5
4C7
330
2A1
100
AcDbEntity
  8
AM_5
 62
   140
100
AcDbMText
 10
119.162407915207
 20
36.74959359997834
 30
0.0
 40
3.5
 41
0.0
 71
     5
 72
     1
  1
%%c10
 11
0.0000000000000001
 21
1.0
 31
0.0
 73
     1
 44
1.0
1001
ACAD
1000
MTEXTBEGIN
1070
    73
1070
     1
1070
    44
1040
1.0
1070
    74
1070
     0
1000
MTEXTEND
  0
POINT
  5
4C8
330
2A1
100
AcDbEntity
  8
Defpoints
 62
     0
100
AcDbPoint
 10
113.7841003262211
 20
31.74959359997831
 30
0.0
  0
POINT
  5
4C9
330
2A1
100
AcDbEntity
  8
Defpoints
 62
     0
100
AcDbPoint
 10
113.7841003262211
 20
41.7495935999783
 30
0.0
  0
POINT
  5
4CA
330
2A1
100
AcDbEntity
  8
Defpoints
 62
     0
100
AcDbPoint
 10
121.7841003262211
 20
41.7495935999783
 30
0.0
  0
ENDBLK
  5
2A3
330
2A1
100
AcDbEntity
  8
0
100
AcDbBlockEnd
  0
BLOCK
  5
2AE
330
2AD
100
AcDbEntity
  8
0
100
AcDbBlockBegin
  2
*D13
 70
     1
 10
0.0
 20
0.0
 30
0.0
  3
*D13
  1

  0
LINE
  5
4CB
330
2AD
100
AcDbEntity
  8
AM_5
  6
ByBlock
100
AcDbLine
 10
111.4841003262211
 20
54.44959359997904
 30
0.0
 11
130.784100326221
 21
54.44959359997903
 31
0.0
  0
LINE
  5
4CC
330
2AD
100
AcDbEntity
  8
AM_5
  6
ByBlock
100
AcDbLine
 10
111.4841003262211
 20
19.04959359997848
 30
0.0
 11
130.784100326221
 21
19.04959359997848
 31
0.0
  0
LINE
  5
4CD
330
2AD
100
AcDbEntity
  8
AM_5
  6
ByBlock
100
AcDbLine
 10
129.784100326221
 20
51.94959359997903
 30
0.0
 11
129.784100326221
 21
21.54959359997849
 31
0.0
  0
INSERT
  5
4CE
330
2AD
100
AcDbEntity
  8
AM_5
100
AcDbBlockReference
  2
_Open
 10
129.784100326221
 20
54.44959359997903
 30
0.0
 41
2.5
 42
2.5
 43
2.5
 50
90.0
  0
INSERT
  5
4CF
330
2AD
100
AcDbEntity
  8
AM_5
100
AcDbBlockReference
  2
_Open
 10
129.784100326221
 20
19.04959359997848
 30
0.0
 41
2.5
 42
2.5
 43
2.5
 50
270.0
  0
MTEXT
  5
4D0
330
2AD
100
AcDbEntity
  8
AM_5
 62
   140
100
AcDbMText
 10
127.1612326297805
 20
36.74959359997878
 30
0.0
 40
3.5
 41
0.0
 71
     5
 72
     1
  1
%%c35.4
 11
0.0000000000000001
 21
1.0
 31
0.0
 73
     1
 44
1.0
1001
ACAD
1000
MTEXTBEGIN
1070
    73
1070
     1
1070
    44
1040
1.0
1070
    74
1070
     0
1000
MTEXTEND
  0
POINT
  5
4D1
330
2AD
100
AcDbEntity
  8
Defpoints
 62
     0
100
AcDbPoint
 10
110.9841003262211
 20
54.44959359997904
 30
0.0
  0
POINT
  5
4D2
330
2AD
100
AcDbEntity
  8
Defpoints
 62
     0
100
AcDbPoint
 10
110.9841003262211
 20
19.04959359997848
 30
0.0
  0
POINT
  5
4D3
330
2AD
100
AcDbEntity
  8
Defpoints
 62
     0
100
AcDbPoint
 10
129.784100326221
 20
19.04959359997848
 30
0.0
  0
ENDBLK
  5
2AF
330
2AD
100
AcDbEntity
  8
0
100
AcDbBlockEnd
  0
BLOCK
  5
2BA
330
2B9
100
AcDbEntity
  8
0
100
AcDbBlockBegin
  2
*D14
 70
     1
 10
0.0
 20
0.0
 30
0.0
  3
*D14
  1

  0
LINE
  5
4D4
330
2B9
100
AcDbEntity
  8
AM_5
  6
ByBlock
100
AcDbLine
 10
115.1841003262197
 20
24.34273893773355
 30
0.0
 11
115.1841003262197
 21
10.04959259997849
 31
0.0
  0
LINE
  5
4D5
330
2B9
100
AcDbEntity
  8
AM_5
  6
ByBlock
100
AcDbLine
 10
110.9841003262211
 20
18.54959359997848
 30
0.0
 11
110.9841003262211
 21
10.04959259997849
 31
0.0
  0
LINE
  5
4D6
330
2B9
100
AcDbEntity
  8
AM_5
  6
ByBlock
100
AcDbLine
 10
117.6841003262197
 20
11.04959259997849
 30
0.0
 11
120.1841003262197
 21
11.04959259997849
 31
0.0
  0
LINE
  5
4D7
330
2B9
100
AcDbEntity
  8
AM_5
  6
ByBlock
100
AcDbLine
 10
108.4841003262211
 20
11.04959259997849
 30
0.0
 11
98.57819031950525
 21
11.04959259997849
 31
0.0
  0
LINE
  5
4D8
330
2B9
100
AcDbEntity
  8
AM_5
  6
ByBlock
100
AcDbLine
 10
115.1841003262197
 20
11.04959259997849
 30
0.0
 11
110.9841003262211
 21
11.04959259997849
 31
0.0
  0
INSERT
  5
4D9
330
2B9
100
AcDbEntity
  8
AM_5
100
AcDbBlockReference
  2
_Open
 10
115.1841003262197
 20
11.04959259997849
 30
0.0
 41
2.5
 42
2.5
 43
2.5
 50
180.0
  0
INSERT
  5
4DA
330
2B9
100
AcDbEntity
  8
AM_5
100
AcDbBlockReference
  2
_Open
 10
110.9841003262211
 20
11.04959259997849
 30
0.0
 41
2.5
 42
2.5
 43
2.5
  0
MTEXT
  5
4DB
330
2B9
100
AcDbEntity
  8
AM_5
 62
   140
100
AcDbMText
 10
102.2811453228632
 20
14.16255431925317
 30
0.0
 40
3.5
 41
0.0
 71
     5
 72
     1
  1
(4)
 73
     1
 44
1.0
1001
ACAD
1000
MTEXTBEGIN
1070
    73
1070
     1
1070
    44
1040
1.0
1070
    74
1070
     0
1000
MTEXTEND
  0
POINT
  5
4DC
330
2B9
100
AcDbEntity
  8
Defpoints
 62
     0
100
AcDbPoint
 10
115.1841003262197
 20
24.84273893773355
 30
0.0
  0
POINT
  5
4DD
330
2B9
100
AcDbEntity
  8
Defpoints
 62
     0
100
AcDbPoint
 10
110.9841003262211
 20
19.04959359997848
 30
0.0
  0
POINT
  5
4DE
330
2B9
100
AcDbEntity
  8
Defpoints
 62
     0
100
AcDbPoint
 10
110.9841003262211
 20
11.04959259997849
 30
0.0
  0
ENDBLK
  5
2BB
330
2B9
100
AcDbEntity
  8
0
100
AcDbBlockEnd
  0
BLOCK
  5
2C8
330
2C7
100
AcDbEntity
  8
0
100
AcDbBlockBegin
  2
*D15
 70
     1
 10
0.0
 20
0.0
 30
0.0
  3
*D15
  1

  0
LINE
  5
4DF
330
2C7
100
AcDbEntity
  8
AM_5
  6
ByBlock
100
AcDbLine
 10
155.8768906291005
 20
57.94959359997831
 30
0.0
 11
155.8768906291005
 21
64.65305500190628
 31
0.0
  0
LINE
  5
4E0
330
2C7
100
AcDbEntity
  8
AM_5
  6
ByBlock
100
AcDbLine
 10
150.3058356249811
 20
52.05594142633604
 30
0.0
 11
146.3333447611308
 21
62.97027037375443
 31
0.0
  0
ARC
  5
4E1
330
2C7
100
AcDbEntity
  8
AM_5
  6
ByBlock
100
AcDbCircle
 10
155.8768906291005
 20
36.74959359997833
 30
0.0
 40
26.90346140192796
100
AcDbArc
 50
79.34776211194935
 51
84.67388105597462
  0
ARC
  5
4E2
330
2C7
100
AcDbEntity
  8
AM_5
  6
ByBlock
100
AcDbCircle
 10
155.8768906291005
 20
36.74959359997833
 30
0.0
 40
26.90346140192796
100
AcDbArc
 50
115.3261189440253
 51
120.6522378880505
  0
ARC
  5
4E3
330
2C7
100
AcDbEntity
  8
AM_5
  6
ByBlock
100
AcDbCircle
 10
155.8768906291005
 20
36.74959359997833
 30
0.0
 40
26.90346140192796
100
AcDbArc
 50
89.99999999999991
 51
110.0
  0
INSERT
  5
4E4
330
2C7
100
AcDbEntity
  8
AM_5
100
AcDbBlockReference
  2
_Open
 10
155.8768906291005
 20
63.65305500190629
 30
0.0
 41
2.5
 42
2.5
 43
2.5
 50
177.3369405279871
  0
INSERT
  5
4E5
330
2C7
100
AcDbEntity
  8
AM_5
100
AcDbBlockReference
  2
_Open
 10
146.6753649044565
 20
62.03057775296854
 30
0.0
 41
2.5
 42
2.5
 43
2.5
 50
22.66305947201265
  0
MTEXT
  5
4E6
102
{ACAD_XDICTIONARY
360
118F
102
}
330
2C7
100
AcDbEntity
  8
AM_5
 62
   140
100
AcDbMText
 10
150.7496973879747
 20
65.8273514140416
 30
0.0
 40
3.5
 41
0.0
 71
     5
 72
     1
  1
20\U+00B0
 11
0.9848077530122079
 21
0.173648177666931
 31
0.0
 73
     1
 44
1.0
1001
ACAD
1000
MTEXTBEGIN
1070
    73
1070
     1
1070
    44
1040
1.0
1070
    74
1070
     0
1000
MTEXTEND
  0
POINT
  5
4E7
330
2C7
100
AcDbEntity
  8
Defpoints
 62
     0
100
AcDbPoint
 10
152.753589394895
 20
63.471143420403
 30
0.0
  0
POINT
  5
4E8
330
2C7
100
AcDbEntity
  8
Defpoints
 62
     0
100
AcDbPoint
 10
150.4768456966439
 20
51.5860951159431
 30
0.0
  0
POINT
  5
4E9
330
2C7
100
AcDbEntity
  8
Defpoints
 62
     0
100
AcDbPoint
 10
155.8768906291005
 20
36.74959359997831
 30
0.0
  0
POINT
  5
4EA
330
2C7
100
AcDbEntity
  8
Defpoints
 62
     0
100
AcDbPoint
 10
155.8768906291005
 20
57.44959359997832
 30
0.0
  0
POINT
  5
4EB
330
2C7
100
AcDbEntity
  8
Defpoints
 62
     0
100
AcDbPoint
 10
161.276935561557
 20
21.91309208401376
 30
0.0
  0
ENDBLK
  5
2C9
330
2C7
100
AcDbEntity
  8
0
100
AcDbBlockEnd
  0
BLOCK
  5
690
330
68F
100
AcDbEntity
  8
0
100
AcDbBlockBegin
  2
_Open30
 70
     0
 10
0.0
 20
0.0
 30
0.0
  3
_Open30
  1

  0
LINE
  5
691
330
68F
100
AcDbEntity
  8
0
  6
ByBlock
 62
     0
370
    -2
100
AcDbLine
 10
-1.0
 20
0.26794919
 30
0.0
 11
0.0
 21
0.0
 31
0.0
  0
LINE
  5
692
330
68F
100
AcDbEntity
  8
0
  6
ByBlock
 62
     0
370
    -2
100
AcDbLine
 10
0.0
 20
0.0
 30
0.0
 11
-1.0
 21
-0.26794919
 31
0.0
  0
LINE
  5
693
330
68F
100
AcDbEntity
  8
0
  6
ByBlock
 62
     0
370
    -2
100
AcDbLine
 10
0.0
 20
0.0
 30
0.0
 11
-1.0
 21
0.0
 31
0.0
  0
ENDBLK
  5
694
330
68F
100
AcDbEntity
  8
0
100
AcDbBlockEnd
  0
BLOCK
  5
696
330
695
100
AcDbEntity
  8
0
370
    30
100
AcDbBlockBegin
  2
*D18
 70
     1
 10
0.0
 20
0.0
 30
0.0
  3
*D18
  1

  0
LINE
  5
697
330
695
100
AcDbEntity
  8
0
 62
     0
370
     0
100
AcDbLine
 10
743.2418824641026
 20
5652.427476820097
 30
0.0
 11
743.2418824641026
 21
5609.845040027241
 31
0.0
  0
LINE
  5
698
330
695
100
AcDbEntity
  8
0
 62
     0
370
     0
100
AcDbLine
 10
701.2418824641026
 20
5652.427476820097
 30
0.0
 11
701.2418824641026
 21
5609.845040027241
 31
0.0
  0
LINE
  5
699
330
695
100
AcDbEntity
  8
0
 62
     0
370
     0
100
AcDbLine
 10
738.2418824641026
 20
5611.845040027241
 30
0.0
 11
706.2418824641026
 21
5611.845040027241
 31
0.0
  0
INSERT
  5
69A
330
695
100
AcDbEntity
  8
0
 62
     0
370
     0
100
AcDbBlockReference
  2
_Open30
 10
743.2418824641026
 20
5611.845040027241
 30
0.0
 41
5.0
 42
5.0
 43
5.0
  0
INSERT
  5
69B
330
695
100
AcDbEntity
  8
0
 62
     0
370
     0
100
AcDbBlockReference
  2
_Open30
 10
701.2418824641026
 20
5611.845040027241
 30
0.0
 41
5.0
 42
5.0
 43
5.0
 50
180.0
  0
MTEXT
  5
69C
330
695
100
AcDbEntity
  8
0
 62
     0
100
AcDbMText
 10
722.2418824641026
 20
5616.345040027241
 30
0.0
 40
7.0
 41
0.0
 71
     5
 72
     1
  1
21
 73
     1
 44
1.0
1001
ACAD
1000
MTEXTBEGIN
1070
    73
1070
     1
1070
    44
1040
1.0
1070
    74
1070
     0
1000
MTEXTEND
  0
POINT
  5
69D
330
695
100
AcDbEntity
  8
Defpoints
 62
     0
370
    30
100
AcDbPoint
 10
743.2418824641026
 20
5653.427476820098
 30
0.0
  0
POINT
  5
69E
330
695
100
AcDbEntity
  8
Defpoints
 62
     0
370
    30
100
AcDbPoint
 10
701.2418824641026
 20
5653.427476820098
 30
0.0
  0
POINT
  5
69F
330
695
100
AcDbEntity
  8
Defpoints
 62
     0
370
    30
100
AcDbPoint
 10
701.2418824641026
 20
5611.845040027241
 30
0.0
  0
ENDBLK
  5
6A0
330
695
100
AcDbEntity
  8
0
370
    30
100
AcDbBlockEnd
  0
BLOCK
  5
6A2
330
6A1
100
AcDbEntity
  8
0
370
    30
100
AcDbBlockBegin
  2
*D19
 70
     1
 10
0.0
 20
0.0
 30
0.0
  3
*D19
  1

  0
LINE
  5
6A3
330
6A1
100
AcDbEntity
  8
0
 62
     0
370
     0
100
AcDbLine
 10
796.7125957861044
 20
5664.597476820098
 30
0.0
 11
796.7125957861044
 21
5736.677476820098
 31
0.0
  0
LINE
  5
6A4
330
6A1
100
AcDbEntity
  8
0
 62
     0
370
     0
100
AcDbLine
 10
814.7125957861046
 20
5690.827476820097
 30
0.0
 11
814.7125957861046
 21
5736.677476820098
 31
0.0
  0
LINE
  5
6A5
330
6A1
100
AcDbEntity
  8
0
 62
     0
370
     0
100
AcDbLine
 10
801.7125957861043
 20
5734.677476820099
 30
0.0
 11
809.7125957861047
 21
5734.677476820099
 31
0.0
  0
INSERT
  5
6A6
330
6A1
100
AcDbEntity
  8
0
 62
     0
370
     0
100
AcDbBlockReference
  2
_Open30
 10
796.7125957861044
 20
5734.677476820099
 30
0.0
 41
5.0
 42
5.0
 43
5.0
 50
180.0
  0
INSERT
  5
6A7
330
6A1
100
AcDbEntity
  8
0
 62
     0
370
     0
100
AcDbBlockReference
  2
_Open30
 10
814.7125957861046
 20
5734.677476820099
 30
0.0
 41
5.0
 42
5.0
 43
5.0
  0
MTEXT
  5
6A8
330
6A1
100
AcDbEntity
  8
0
 62
     0
100
AcDbMText
 10
806.0507245366752
 20
5739.177476820099
 30
0.0
 40
7.0
 41
0.0
 71
     5
 72
     1
  1
9
 73
     1
 44
1.0
1001
ACAD
1000
MTEXTBEGIN
1070
    73
1070
     1
1070
    44
1040
1.0
1070
    74
1070
     0
1000
MTEXTEND
  0
POINT
  5
6A9
330
6A1
100
AcDbEntity
  8
Defpoints
 62
     0
370
    30
100
AcDbPoint
 10
796.7125957861044
 20
5663.597476820098
 30
0.0
  0
POINT
  5
6AA
330
6A1
100
AcDbEntity
  8
Defpoints
 62
     0
370
    30
100
AcDbPoint
 10
814.7125957861046
 20
5689.827476820097
 30
0.0
  0
POINT
  5
6AB
330
6A1
100
AcDbEntity
  8
Defpoints
 62
     0
370
    30
100
AcDbPoint
 10
814.7125957861046
 20
5734.677476820099
 30
0.0
  0
ENDBLK
  5
6AC
330
6A1
100
AcDbEntity
  8
0
370
    30
100
AcDbBlockEnd
  0
BLOCK
  5
6AE
330
6AD
100
AcDbEntity
  8
0
370
    30
100
AcDbBlockBegin
  2
*D20
 70
     1
 10
0.0
 20
0.0
 30
0.0
  3
*D20
  1

  0
LINE
  5
6AF
330
6AD
100
AcDbEntity
  8
0
 62
     0
370
     0
100
AcDbLine
 10
814.7125948732529
 20
5699.677476820096
 30
0.0
 11
814.7125948732529
 21
5736.677476820098
 31
0.0
  0
LINE
  5
6B0
330
6AD
100
AcDbEntity
  8
0
 62
     0
370
     0
100
AcDbLine
 10
918.7125957861047
 20
5692.827476820096
 30
0.0
 11
918.7125957861047
 21
5736.677476820098
 31
0.0
  0
LINE
  5
6B1
330
6AD
100
AcDbEntity
  8
0
 62
     0
370
     0
100
AcDbLine
 10
819.712594873253
 20
5734.677476820099
 30
0.0
 11
913.7125957861046
 21
5734.677476820099
 31
0.0
  0
INSERT
  5
6B2
330
6AD
100
AcDbEntity
  8
0
 62
     0
370
     0
100
AcDbBlockReference
  2
_Open30
 10
814.7125948732529
 20
5734.677476820099
 30
0.0
 41
5.0
 42
5.0
 43
5.0
 50
180.0
  0
INSERT
  5
6B3
330
6AD
100
AcDbEntity
  8
0
 62
     0
370
     0
100
AcDbBlockReference
  2
_Open30
 10
918.7125957861047
 20
5734.677476820099
 30
0.0
 41
5.0
 42
5.0
 43
5.0
  0
MTEXT
  5
6B4
330
6AD
100
AcDbEntity
  8
0
 62
     0
100
AcDbMText
 10
866.7125957861046
 20
5739.177476820099
 30
0.0
 40
7.0
 41
0.0
 71
     5
 72
     1
  1
52
 73
     1
 44
1.0
1001
ACAD
1000
MTEXTBEGIN
1070
    73
1070
     1
1070
    44
1040
1.0
1070
    74
1070
     0
1000
MTEXTEND
  0
POINT
  5
6B5
330
6AD
100
AcDbEntity
  8
Defpoints
 62
     0
370
    30
100
AcDbPoint
 10
814.7125948732529
 20
5698.677476820097
 30
0.0
  0
POINT
  5
6B6
330
6AD
100
AcDbEntity
  8
Defpoints
 62
     0
370
    30
100
AcDbPoint
 10
918.7125957861047
 20
5691.827476820097
 30
0.0
  0
POINT
  5
6B7
330
6AD
100
AcDbEntity
  8
Defpoints
 62
     0
370
    30
100
AcDbPoint
 10
918.7125957861047
 20
5734.677476820099
 30
0.0
  0
ENDBLK
  5
6B8
330
6AD
100
AcDbEntity
  8
0
370
    30
100
AcDbBlockEnd
  0
BLOCK
  5
6BA
330
6B9
100
AcDbEntity
  8
0
370
    30
100
AcDbBlockBegin
  2
*D21
 70
     1
 10
0.0
 20
0.0
 30
0.0
  3
*D21
  1

  0
LINE
  5
6BB
330
6B9
100
AcDbEntity
  8
0
 62
     0
370
     0
100
AcDbLine
 10
923.9125957861045
 20
5671.427476820096
 30
0.0
 11
923.9125957861045
 21
5720.731317510811
 31
0.0
  0
LINE
  5
6BC
330
6B9
100
AcDbEntity
  8
0
 62
     0
370
     0
100
AcDbLine
 10
918.7125957861047
 20
5692.827476820096
 30
0.0
 11
918.7125957861047
 21
5720.731317510811
 31
0.0
  0
LINE
  5
6BD
330
6B9
100
AcDbEntity
  8
0
 62
     0
370
     0
100
AcDbLine
 10
928.9125957861044
 20
5718.731317510811
 30
0.0
 11
933.9125957861044
 21
5718.731317510811
 31
0.0
  0
LINE
  5
6BE
330
6B9
100
AcDbEntity
  8
0
 62
     0
370
     0
100
AcDbLine
 10
913.7125957861046
 20
5718.731317510811
 30
0.0
 11
883.3792624527713
 21
5718.731317510811
 31
0.0
  0
LINE
  5
6BF
330
6B9
100
AcDbEntity
  8
0
 62
     0
370
     0
100
AcDbLine
 10
923.9125957861045
 20
5718.731317510811
 30
0.0
 11
918.7125957861047
 21
5718.731317510811
 31
0.0
  0
INSERT
  5
6C0
330
6B9
100
AcDbEntity
  8
0
 62
     0
370
     0
100
AcDbBlockReference
  2
_Open30
 10
923.9125957861045
 20
5718.731317510811
 30
0.0
 41
5.0
 42
5.0
 43
5.0
 50
180.0
  0
INSERT
  5
6C1
330
6B9
100
AcDbEntity
  8
0
 62
     0
370
     0
100
AcDbBlockReference
  2
_Open30
 10
918.7125957861047
 20
5718.731317510811
 30
0.0
 41
5.0
 42
5.0
 43
5.0
  0
MTEXT
  5
6C2
330
6B9
100
AcDbEntity
  8
0
 62
     0
100
AcDbMText
 10
896.045929119438
 20
5723.231317510811
 30
0.0
 40
7.0
 41
0.0
 71
     5
 72
     1
  1
(2.6)
 73
     1
 44
1.0
1001
ACAD
1000
MTEXTBEGIN
1070
    73
1070
     1
1070
    44
1040
1.0
1070
    74
1070
     0
1000
MTEXTEND
  0
POINT
  5
6C3
330
6B9
100
AcDbEntity
  8
Defpoints
 62
     0
370
    30
100
AcDbPoint
 10
923.9125957861045
 20
5670.427476820097
 30
0.0
  0
POINT
  5
6C4
330
6B9
100
AcDbEntity
  8
Defpoints
 62
     0
370
    30
100
AcDbPoint
 10
918.7125957861047
 20
5691.827476820097
 30
0.0
  0
POINT
  5
6C5
330
6B9
100
AcDbEntity
  8
Defpoints
 62
     0
370
    30
100
AcDbPoint
 10
918.7125957861047
 20
5718.731317510811
 30
0.0
  0
ENDBLK
  5
6C6
330
6B9
100
AcDbEntity
  8
0
370
    30
100
AcDbBlockEnd
  0
BLOCK
  5
6C8
330
6C7
100
AcDbEntity
  8
0
370
    30
100
AcDbBlockBegin
  2
*D22
 70
     1
 10
0.0
 20
0.0
 30
0.0
  3
*D22
  1

  0
LINE
  5
6C9
330
6C7
100
AcDbEntity
  8
0
 62
     0
370
     0
100
AcDbLine
 10
919.7125957861047
 20
5631.027476820097
 30
0.0
 11
966.0686107403607
 21
5631.027476820097
 31
0.0
  0
LINE
  5
6CA
330
6C7
100
AcDbEntity
  8
0
 62
     0
370
     0
100
AcDbLine
 10
919.7125957861047
 20
5691.827476820097
 30
0.0
 11
966.0686107403607
 21
5691.827476820097
 31
0.0
  0
LINE
  5
6CB
330
6C7
100
AcDbEntity
  8
0
 62
     0
370
     0
100
AcDbLine
 10
964.0686107403608
 20
5636.027476820097
 30
0.0
 11
964.0686107403608
 21
5686.827476820096
 31
0.0
  0
INSERT
  5
6CC
330
6C7
100
AcDbEntity
  8
0
 62
     0
370
     0
100
AcDbBlockReference
  2
_Open30
 10
964.0686107403608
 20
5631.027476820097
 30
0.0
 41
5.0
 42
5.0
 43
5.0
 50
270.0
  0
INSERT
  5
6CD
330
6C7
100
AcDbEntity
  8
0
 62
     0
370
     0
100
AcDbBlockReference
  2
_Open30
 10
964.0686107403608
 20
5691.827476820097
 30
0.0
 41
5.0
 42
5.0
 43
5.0
 50
90.0
  0
MTEXT
  5
6CE
330
6C7
100
AcDbEntity
  8
0
 62
     0
100
AcDbMText
 10
959.5686107403599
 20
5661.427476820146
 30
0.0
 40
7.0
 41
0.0
 71
     5
 72
     1
  1
%%C30.4
 11
0.0000000000000001
 21
1.0
 31
0.0
 73
     1
 44
1.0
1001
ACAD
1000
MTEXTBEGIN
1070
    73
1070
     1
1070
    44
1040
1.0
1070
    74
1070
     0
1000
MTEXTEND
  0
POINT
  5
6CF
330
6C7
100
AcDbEntity
  8
Defpoints
 62
     0
370
    30
100
AcDbPoint
 10
918.7125957861047
 20
5631.027476820097
 30
0.0
  0
POINT
  5
6D0
330
6C7
100
AcDbEntity
  8
Defpoints
 62
     0
370
    30
100
AcDbPoint
 10
918.7125957861047
 20
5691.827476820097
 30
0.0
  0
POINT
  5
6D1
330
6C7
100
AcDbEntity
  8
Defpoints
 62
     0
370
    30
100
AcDbPoint
 10
964.0686107403608
 20
5691.827476820097
 30
0.0
  0
ENDBLK
  5
6D2
330
6C7
100
AcDbEntity
  8
0
370
    30
100
AcDbBlockEnd
  0
BLOCK
  5
6D4
330
6D3
100
AcDbEntity
  8
0
370
    30
100
AcDbBlockBegin
  2
*D23
 70
     1
 10
0.0
 20
0.0
 30
0.0
  3
*D23
  1

  0
LINE
  5
6D5
330
6D3
100
AcDbEntity
  8
0
 62
     0
370
     0
100
AcDbLine
 10
923.9125957861045
 20
5671.427476820159
 30
0.0
 11
951.1523353379461
 21
5671.427476820159
 31
0.0
  0
LINE
  5
6D6
330
6D3
100
AcDbEntity
  8
0
 62
     0
370
     0
100
AcDbLine
 10
923.9125957861045
 20
5651.427476820132
 30
0.0
 11
951.1523353379461
 21
5651.427476820132
 31
0.0
  0
LINE
  5
6D7
330
6D3
100
AcDbEntity
  8
0
 62
     0
370
     0
100
AcDbLine
 10
949.1523353379461
 20
5666.427476820159
 30
0.0
 11
949.1523353379461
 21
5656.427476820132
 31
0.0
  0
INSERT
  5
6D8
330
6D3
100
AcDbEntity
  8
0
 62
     0
370
     0
100
AcDbBlockReference
  2
_Open30
 10
949.1523353379461
 20
5671.427476820159
 30
0.0
 41
5.0
 42
5.0
 43
5.0
 50
270.0
  0
LINE
  5
6D9
330
6D3
100
AcDbEntity
  8
0
 62
     0
370
     0
100
AcDbLine
 10
949.1523353379461
 20
5676.427476820159
 30
0.0
 11
949.1523353379461
 21
5681.427476820159
 31
0.0
  0
LINE
  5
6DA
330
6D3
100
AcDbEntity
  8
0
 62
     0
370
     0
100
AcDbLine
 10
949.1523353379461
 20
5671.427476820159
 30
0.0
 11
949.1523353379461
 21
5666.427476820159
 31
0.0
  0
INSERT
  5
6DB
330
6D3
100
AcDbEntity
  8
0
 62
     0
370
     0
100
AcDbBlockReference
  2
_Open30
 10
949.1523353379461
 20
5651.427476820132
 30
0.0
 41
5.0
 42
5.0
 43
5.0
 50
90.0
  0
LINE
  5
6DC
330
6D3
100
AcDbEntity
  8
0
 62
     0
370
     0
100
AcDbLine
 10
949.1523353379461
 20
5646.427476820132
 30
0.0
 11
949.1523353379461
 21
5641.427476820132
 31
0.0
  0
LINE
  5
6DD
330
6D3
100
AcDbEntity
  8
0
 62
     0
370
     0
100
AcDbLine
 10
949.1523353379461
 20
5651.427476820132
 30
0.0
 11
949.1523353379461
 21
5656.427476820132
 31
0.0
  0
MTEXT
  5
6DE
330
6D3
100
AcDbEntity
  8
0
 62
     0
100
AcDbMText
 10
944.6523353379452
 20
5661.427476820146
 30
0.0
 40
7.0
 41
0.0
 71
     5
 72
     1
  1
%%C10
 11
0.0000000000000001
 21
1.0
 31
0.0
 73
     1
 44
1.0
1001
ACAD
1000
MTEXTBEGIN
1070
    73
1070
     1
1070
    44
1040
1.0
1070
    74
1070
     0
1000
MTEXTEND
  0
POINT
  5
6DF
330
6D3
100
AcDbEntity
  8
Defpoints
 62
     0
370
    30
100
AcDbPoint
 10
922.9125957861045
 20
5671.427476820159
 30
0.0
  0
POINT
  5
6E0
330
6D3
100
AcDbEntity
  8
Defpoints
 62
     0
370
    30
100
AcDbPoint
 10
922.9125957861045
 20
5651.427476820132
 30
0.0
  0
POINT
  5
6E1
330
6D3
100
AcDbEntity
  8
Defpoints
 62
     0
370
    30
100
AcDbPoint
 10
949.1523353379461
 20
5651.427476820132
 30
0.0
  0
ENDBLK
  5
6E2
330
6D3
100
AcDbEntity
  8
0
370
    30
100
AcDbBlockEnd
  0
BLOCK
  5
6E4
330
6E3
100
AcDbEntity
  8
0
370
    30
100
AcDbBlockBegin
  2
*D24
 70
     1
 10
0.0
 20
0.0
 30
0.0
  3
*D24
  1

  0
LINE
  5
6E5
330
6E3
100
AcDbEntity
  8
0
 62
     0
370
     0
100
AcDbLine
 10
918.7125957861047
 20
5630.027476820097
 30
0.0
 11
918.7125957861047
 21
5610.77430142182
 31
0.0
  0
LINE
  5
6E6
330
6E3
100
AcDbEntity
  8
0
 62
     0
370
     0
100
AcDbLine
 10
928.7125957861119
 20
5658.627476820096
 30
0.0
 11
928.7125957861119
 21
5610.77430142182
 31
0.0
  0
LINE
  5
6E7
330
6E3
100
AcDbEntity
  8
0
 62
     0
370
     0
100
AcDbLine
 10
933.7125957861118
 20
5612.77430142182
 30
0.0
 11
938.7125957861119
 21
5612.77430142182
 31
0.0
  0
LINE
  5
6E8
330
6E3
100
AcDbEntity
  8
0
 62
     0
370
     0
100
AcDbLine
 10
913.7125957861046
 20
5612.77430142182
 30
0.0
 11
889.5459291194381
 21
5612.77430142182
 31
0.0
  0
LINE
  5
6E9
330
6E3
100
AcDbEntity
  8
0
 62
     0
370
     0
100
AcDbLine
 10
928.7125957861119
 20
5612.77430142182
 30
0.0
 11
918.7125957861047
 21
5612.77430142182
 31
0.0
  0
INSERT
  5
6EA
330
6E3
100
AcDbEntity
  8
0
 62
     0
370
     0
100
AcDbBlockReference
  2
_Open30
 10
928.7125957861119
 20
5612.77430142182
 30
0.0
 41
5.0
 42
5.0
 43
5.0
 50
180.0
  0
INSERT
  5
6EB
330
6E3
100
AcDbEntity
  8
0
 62
     0
370
     0
100
AcDbBlockReference
  2
_Open30
 10
918.7125957861047
 20
5612.77430142182
 30
0.0
 41
5.0
 42
5.0
 43
5.0
  0
MTEXT
  5
6EC
330
6E3
100
AcDbEntity
  8
0
 62
     0
100
AcDbMText
 10
897.5459291194381
 20
5617.27430142182
 30
0.0
 40
7.0
 41
0.0
 71
     5
 72
     1
  1
(5)
 73
     1
 44
1.0
1001
ACAD
1000
MTEXTBEGIN
1070
    73
1070
     1
1070
    44
1040
1.0
1070
    74
1070
     0
1000
MTEXTEND
  0
POINT
  5
6ED
330
6E3
100
AcDbEntity
  8
Defpoints
 62
     0
370
    30
100
AcDbPoint
 10
918.7125957861047
 20
5631.027476820097
 30
0.0
  0
POINT
  5
6EE
330
6E3
100
AcDbEntity
  8
Defpoints
 62
     0
370
    30
100
AcDbPoint
 10
928.7125957861119
 20
5659.627476820095
 30
0.0
  0
POINT
  5
6EF
330
6E3
100
AcDbEntity
  8
Defpoints
 62
     0
370
    30
100
AcDbPoint
 10
928.7125957861119
 20
5612.77430142182
 30
0.0
  0
ENDBLK
  5
6F0
330
6E3
100
AcDbEntity
  8
0
370
    30
100
AcDbBlockEnd
  0
BLOCK
  5
6F2
330
6F1
100
AcDbEntity
  8
0
370
    30
100
AcDbBlockBegin
  2
*D25
 70
     1
 10
0.0
 20
0.0
 30
0.0
  3
*D25
  1

  0
LINE
  5
6F3
330
6F1
100
AcDbEntity
  8
0
 62
     0
370
     0
100
AcDbLine
 10
885.7125957861056
 20
5628.06207557869
 30
0.0
 11
980.9848861428045
 21
5628.06207557869
 31
0.0
  0
LINE
  5
6F4
330
6F1
100
AcDbEntity
  8
0
 62
     0
370
     0
100
AcDbLine
 10
885.7125957861047
 20
5694.927476820097
 30
0.0
 11
980.9848861428045
 21
5694.927476820097
 31
0.0
  0
LINE
  5
6F5
330
6F1
100
AcDbEntity
  8
0
 62
     0
370
     0
100
AcDbLine
 10
978.9848861428044
 20
5633.06207557869
 30
0.0
 11
978.9848861428044
 21
5689.927476820097
 31
0.0
  0
INSERT
  5
6F6
330
6F1
100
AcDbEntity
  8
0
 62
     0
370
     0
100
AcDbBlockReference
  2
_Open30
 10
978.9848861428044
 20
5628.06207557869
 30
0.0
 41
5.0
 42
5.0
 43
5.0
 50
270.0
  0
INSERT
  5
6F7
330
6F1
100
AcDbEntity
  8
0
 62
     0
370
     0
100
AcDbBlockReference
  2
_Open30
 10
978.9848861428044
 20
5694.927476820097
 30
0.0
 41
5.0
 42
5.0
 43
5.0
 50
90.0
  0
MTEXT
  5
6F8
330
6F1
100
AcDbEntity
  8
0
 62
     0
100
AcDbMText
 10
974.4848861428035
 20
5661.427476820144
 30
0.0
 40
7.0
 41
0.0
 71
     5
 72
     1
  1
%%C33.5MAX
 11
0.0000000000000001
 21
1.0
 31
0.0
 73
     1
 44
1.0
1001
ACAD
1000
MTEXTBEGIN
1070
    73
1070
     1
1070
    44
1040
1.0
1070
    74
1070
     0
1000
MTEXTEND
  0
POINT
  5
6F9
330
6F1
100
AcDbEntity
  8
Defpoints
 62
     0
370
    30
100
AcDbPoint
 10
884.7125957861056
 20
5628.06207557869
 30
0.0
  0
POINT
  5
6FA
330
6F1
100
AcDbEntity
  8
Defpoints
 62
     0
370
    30
100
AcDbPoint
 10
884.7125957861047
 20
5694.927476820097
 30
0.0
  0
POINT
  5
6FB
330
6F1
100
AcDbEntity
  8
Defpoints
 62
     0
370
    30
100
AcDbPoint
 10
978.9848861428044
 20
5694.927476820097
 30
0.0
  0
ENDBLK
  5
6FC
330
6F1
100
AcDbEntity
  8
0
370
    30
100
AcDbBlockEnd
  0
BLOCK
  5
6FE
330
6FD
100
AcDbEntity
  8
0
370
    30
100
AcDbBlockBegin
  2
*D26
 70
     1
 10
0.0
 20
0.0
 30
0.0
  3
*D26
  1

  0
LINE
  5
6FF
330
6FD
100
AcDbEntity
  8
0
 62
     0
370
     0
100
AcDbLine
 10
918.7125957861047
 20
5692.827476820096
 30
0.0
 11
918.7125957861047
 21
5736.677476820098
 31
0.0
  0
LINE
  5
700
330
6FD
100
AcDbEntity
  8
0
 62
     0
370
     0
100
AcDbLine
 10
930.7125957861046
 20
5664.597476820097
 30
0.0
 11
930.7125957861046
 21
5736.677476820098
 31
0.0
  0
LINE
  5
701
330
6FD
100
AcDbEntity
  8
0
 62
     0
370
     0
100
AcDbLine
 10
923.7125957861046
 20
5734.677476820099
 30
0.0
 11
925.7125957861047
 21
5734.677476820099
 31
0.0
  0
LINE
  5
702
330
6FD
100
AcDbEntity
  8
0
 62
     0
370
     0
100
AcDbLine
 10
930.7125957861046
 20
5734.677476820099
 30
0.0
 11
951.7125957861047
 21
5734.677476820099
 31
0.0
  0
INSERT
  5
703
330
6FD
100
AcDbEntity
  8
0
 62
     0
370
     0
100
AcDbBlockReference
  2
_Open30
 10
918.7125957861047
 20
5734.677476820099
 30
0.0
 41
5.0
 42
5.0
 43
5.0
 50
180.0
  0
INSERT
  5
704
330
6FD
100
AcDbEntity
  8
0
 62
     0
370
     0
100
AcDbBlockReference
  2
_Open30
 10
930.7125957861046
 20
5734.677476820099
 30
0.0
 41
5.0
 42
5.0
 43
5.0
  0
MTEXT
  5
705
330
6FD
100
AcDbEntity
  8
0
 62
     0
100
AcDbMText
 10
943.7125957861047
 20
5739.177476820099
 30
0.0
 40
7.0
 41
0.0
 71
     5
 72
     1
  1
(6)
 73
     1
 44
1.0
1001
ACAD
1000
MTEXTBEGIN
1070
    73
1070
     1
1070
    44
1040
1.0
1070
    74
1070
     0
1000
MTEXTEND
  0
POINT
  5
706
330
6FD
100
AcDbEntity
  8
Defpoints
 62
     0
370
    30
100
AcDbPoint
 10
918.7125957861047
 20
5691.827476820097
 30
0.0
  0
POINT
  5
707
330
6FD
100
AcDbEntity
  8
Defpoints
 62
     0
370
    30
100
AcDbPoint
 10
930.7125957861046
 20
5663.597476820097
 30
0.0
  0
POINT
  5
708
330
6FD
100
AcDbEntity
  8
Defpoints
 62
     0
370
    30
100
AcDbPoint
 10
930.7125957861046
 20
5734.677476820099
 30
0.0
  0
ENDBLK
  5
709
330
6FD
100
AcDbEntity
  8
0
370
    30
100
AcDbBlockEnd
  0
BLOCK
  5
70B
330
70A
100
AcDbEntity
  8
0
370
    30
100
AcDbBlockBegin
  2
*D27
 70
     1
 10
0.0
 20
0.0
 30
0.0
  3
*D27
  1

  0
LINE
  5
70C
330
70A
100
AcDbEntity
  8
0
 62
     0
370
     0
100
AcDbLine
 10
796.7125957861045
 20
5664.597476820098
 30
0.0
 11
784.7147127030184
 21
5664.597476820098
 31
0.0
  0
LINE
  5
70D
330
70A
100
AcDbEntity
  8
0
 62
     0
370
     0
100
AcDbLine
 10
796.7125957861044
 20
5658.257476820098
 30
0.0
 11
784.7147127030184
 21
5658.257476820098
 31
0.0
  0
LINE
  5
70E
330
70A
100
AcDbEntity
  8
0
 62
     0
370
     0
100
AcDbLine
 10
786.7147127030184
 20
5653.257476820098
 30
0.0
 11
786.7147127030184
 21
5648.257476820099
 31
0.0
  0
LINE
  5
70F
330
70A
100
AcDbEntity
  8
0
 62
     0
370
     0
100
AcDbLine
 10
786.7147127030184
 20
5669.597476820097
 30
0.0
 11
786.7147127030184
 21
5702.264143486765
 31
0.0
  0
LINE
  5
710
330
70A
100
AcDbEntity
  8
0
 62
     0
370
     0
100
AcDbLine
 10
786.7147127030184
 20
5658.257476820098
 30
0.0
 11
786.7147127030184
 21
5664.597476820098
 31
0.0
  0
INSERT
  5
711
330
70A
100
AcDbEntity
  8
0
 62
     0
370
     0
100
AcDbBlockReference
  2
_Open30
 10
786.7147127030184
 20
5658.257476820098
 30
0.0
 41
5.0
 42
5.0
 43
5.0
 50
90.0
  0
INSERT
  5
712
330
70A
100
AcDbEntity
  8
0
 62
     0
370
     0
100
AcDbBlockReference
  2
_Open30
 10
786.7147127030184
 20
5664.597476820098
 30
0.0
 41
5.0
 42
5.0
 43
5.0
 50
270.0
  0
MTEXT
  5
713
330
70A
100
AcDbEntity
  8
0
 62
     0
100
AcDbMText
 10
782.2147127030175
 20
5688.43081015343
 30
0.0
 40
7.0
 41
0.0
 71
     5
 72
     1
  1
%%C3.17
 11
0.0000000000000001
 21
1.0
 31
0.0
 73
     1
 44
1.0
1001
ACAD
1000
MTEXTBEGIN
1070
    73
1070
     1
1070
    44
1040
1.0
1070
    74
1070
     0
1000
MTEXTEND
  0
POINT
  5
714
330
70A
100
AcDbEntity
  8
Defpoints
 62
     0
370
    30
100
AcDbPoint
 10
797.7125957861045
 20
5664.597476820098
 30
0.0
  0
POINT
  5
715
330
70A
100
AcDbEntity
  8
Defpoints
 62
     0
370
    30
100
AcDbPoint
 10
797.7125957861044
 20
5658.257476820098
 30
0.0
  0
POINT
  5
716
330
70A
100
AcDbEntity
  8
Defpoints
 62
     0
370
    30
100
AcDbPoint
 10
786.7147127030184
 20
5658.257476820098
 30
0.0
  0
ENDBLK
  5
717
330
70A
100
AcDbEntity
  8
0
370
    30
100
AcDbBlockEnd
  0
BLOCK
  5
719
330
718
100
AcDbEntity
  8
0
370
    30
100
AcDbBlockBegin
  2
*D28
 70
     1
 10
0.0
 20
0.0
 30
0.0
  3
*D28
  1

  0
LINE
  5
71A
330
718
100
AcDbEntity
  8
0
 62
     0
370
     0
100
AcDbLine
 10
807.5125957861045
 20
5651.527476820096
 30
0.0
 11
769.7305802600458
 21
5651.527476820096
 31
0.0
  0
LINE
  5
71B
330
718
100
AcDbEntity
  8
0
 62
     0
370
     0
100
AcDbLine
 10
807.5125957861045
 20
5671.327476820097
 30
0.0
 11
769.7305802600458
 21
5671.327476820097
 31
0.0
  0
LINE
  5
71C
330
718
100
AcDbEntity
  8
0
 62
     0
370
     0
100
AcDbLine
 10
771.7305802600458
 20
5656.527476820096
 30
0.0
 11
771.7305802600458
 21
5666.327476820097
 31
0.0
  0
LINE
  5
71D
330
718
100
AcDbEntity
  8
0
 62
     0
370
     0
100
AcDbLine
 10
771.7305802600458
 20
5671.327476820097
 30
0.0
 11
771.7305802600458
 21
5699.327476820098
 31
0.0
  0
INSERT
  5
71E
330
718
100
AcDbEntity
  8
0
 62
     0
370
     0
100
AcDbBlockReference
  2
_Open30
 10
771.7305802600458
 20
5651.527476820096
 30
0.0
 41
5.0
 42
5.0
 43
5.0
 50
270.0
  0
INSERT
  5
71F
330
718
100
AcDbEntity
  8
0
 62
     0
370
     0
100
AcDbBlockReference
  2
_Open30
 10
771.7305802600458
 20
5671.327476820097
 30
0.0
 41
5.0
 42
5.0
 43
5.0
 50
90.0
  0
MTEXT
  5
720
330
718
100
AcDbEntity
  8
0
 62
     0
100
AcDbMText
 10
767.2305802600448
 20
5687.827476820097
 30
0.0
 40
7.0
 41
0.0
 71
     5
 72
     1
  1
%%C9.9
 11
0.0000000000000001
 21
1.0
 31
0.0
 73
     1
 44
1.0
1001
ACAD
1000
MTEXTBEGIN
1070
    73
1070
     1
1070
    44
1040
1.0
1070
    74
1070
     0
1000
MTEXTEND
  0
POINT
  5
721
330
718
100
AcDbEntity
  8
Defpoints
 62
     0
370
    30
100
AcDbPoint
 10
808.5125957861047
 20
5651.527476820096
 30
0.0
  0
POINT
  5
722
330
718
100
AcDbEntity
  8
Defpoints
 62
     0
370
    30
100
AcDbPoint
 10
808.5125957861047
 20
5671.327476820097
 30
0.0
  0
POINT
  5
723
330
718
100
AcDbEntity
  8
Defpoints
 62
     0
370
    30
100
AcDbPoint
 10
771.7305802600458
 20
5671.327476820097
 30
0.0
  0
ENDBLK
  5
724
330
718
100
AcDbEntity
  8
0
370
    30
100
AcDbBlockEnd
  0
BLOCK
  5
726
330
725
100
AcDbEntity
  8
0
370
    30
100
AcDbBlockBegin
  2
*D29
 70
     1
 10
0.0
 20
0.0
 30
0.0
  3
*D29
  1

  0
LINE
  5
727
330
725
100
AcDbEntity
  8
0
 62
     0
370
     0
100
AcDbLine
 10
807.5125957861045
 20
5671.327476820097
 30
0.0
 11
807.5125957861045
 21
5720.69317202003
 31
0.0
  0
LINE
  5
728
330
725
100
AcDbEntity
  8
0
 62
     0
370
     0
100
AcDbLine
 10
814.7125957861048
 20
5690.827476820097
 30
0.0
 11
814.7125957861048
 21
5720.69317202003
 31
0.0
  0
LINE
  5
729
330
725
100
AcDbEntity
  8
0
 62
     0
370
     0
100
AcDbLine
 10
802.5125957861046
 20
5718.69317202003
 30
0.0
 11
797.5125957861046
 21
5718.69317202003
 31
0.0
  0
LINE
  5
72A
330
725
100
AcDbEntity
  8
0
 62
     0
370
     0
100
AcDbLine
 10
819.7125957861047
 20
5718.69317202003
 30
0.0
 11
840.7125957861047
 21
5718.69317202003
 31
0.0
  0
LINE
  5
72B
330
725
100
AcDbEntity
  8
0
 62
     0
370
     0
100
AcDbLine
 10
807.5125957861045
 20
5718.69317202003
 30
0.0
 11
814.7125957861048
 21
5718.69317202003
 31
0.0
  0
INSERT
  5
72C
330
725
100
AcDbEntity
  8
0
 62
     0
370
     0
100
AcDbBlockReference
  2
_Open30
 10
807.5125957861045
 20
5718.69317202003
 30
0.0
 41
5.0
 42
5.0
 43
5.0
  0
INSERT
  5
72D
330
725
100
AcDbEntity
  8
0
 62
     0
370
     0
100
AcDbBlockReference
  2
_Open30
 10
814.7125957861048
 20
5718.69317202003
 30
0.0
 41
5.0
 42
5.0
 43
5.0
 50
180.0
  0
MTEXT
  5
72E
330
725
100
AcDbEntity
  8
0
 62
     0
100
AcDbMText
 10
832.7125957861047
 20
5723.19317202003
 30
0.0
 40
7.0
 41
0.0
 71
     5
 72
     1
  1
3.6
 73
     1
 44
1.0
1001
ACAD
1000
MTEXTBEGIN
1070
    73
1070
     1
1070
    44
1040
1.0
1070
    74
1070
     0
1000
MTEXTEND
  0
POINT
  5
72F
330
725
100
AcDbEntity
  8
Defpoints
 62
     0
370
    30
100
AcDbPoint
 10
807.5125957861045
 20
5670.327476820097
 30
0.0
  0
POINT
  5
730
330
725
100
AcDbEntity
  8
Defpoints
 62
     0
370
    30
100
AcDbPoint
 10
814.7125957861048
 20
5689.827476820097
 30
0.0
  0
POINT
  5
731
330
725
100
AcDbEntity
  8
Defpoints
 62
     0
370
    30
100
AcDbPoint
 10
814.7125957861048
 20
5718.69317202003
 30
0.0
  0
ENDBLK
  5
732
330
725
100
AcDbEntity
  8
0
370
    30
100
AcDbBlockEnd
  0
BLOCK
  5
825
330
824
100
AcDbEntity
  8
0
100
AcDbBlockBegin
  2
*D31
 70
     1
 10
0.0
 20
0.0
 30
0.0
  3
*D31
  1

  0
LINE
  5
8C2
330
824
100
AcDbEntity
  8
0
 62
     0
370
    -2
100
AcDbLine
 10
80.1665903582923
 20
156.1342406901214
 30
0.0
 11
80.1665903582923
 21
113.5518038972652
 31
0.0
  0
LINE
  5
8C3
330
824
100
AcDbEntity
  8
0
 62
     0
370
    -2
100
AcDbLine
 10
38.1665903582923
 20
156.1342406901214
 30
0.0
 11
38.1665903582923
 21
113.5518038972652
 31
0.0
  0
LINE
  5
8C4
330
824
100
AcDbEntity
  8
0
 62
     0
370
    -2
100
AcDbLine
 10
75.1665903582923
 20
115.5518038972652
 30
0.0
 11
43.16659035829229
 21
115.5518038972652
 31
0.0
  0
INSERT
  5
8C5
330
824
100
AcDbEntity
  8
0
 62
     0
370
    -2
100
AcDbBlockReference
  2
_Open30
 10
80.1665903582923
 20
115.5518038972652
 30
0.0
 41
5.0
 42
5.0
 43
5.0
  0
INSERT
  5
8C6
330
824
100
AcDbEntity
  8
0
 62
     0
370
    -2
100
AcDbBlockReference
  2
_Open30
 10
38.1665903582923
 20
115.5518038972652
 30
0.0
 41
5.0
 42
5.0
 43
5.0
 50
180.0
  0
MTEXT
  5
8C7
330
824
100
AcDbEntity
  8
0
 62
     0
100
AcDbMText
 10
59.1665903582923
 20
120.1246715937057
 30
0.0
 40
7.0
 41
0.0
 71
     5
 72
     1
  1
21
 73
     1
 44
1.0
1001
ACAD
1000
MTEXTBEGIN
1070
    73
1070
     1
1070
    44
1040
1.0
1070
    74
1070
     0
1000
MTEXTEND
  0
POINT
  5
8C8
330
824
100
AcDbEntity
  8
Defpoints
 62
     0
100
AcDbPoint
 10
80.1665903582923
 20
157.1342406901214
 30
0.0
  0
POINT
  5
8C9
330
824
100
AcDbEntity
  8
Defpoints
 62
     0
100
AcDbPoint
 10
38.1665903582923
 20
157.1342406901214
 30
0.0
  0
POINT
  5
8CA
330
824
100
AcDbEntity
  8
Defpoints
 62
     0
100
AcDbPoint
 10
38.1665903582923
 20
115.5518038972652
 30
0.0
  0
ENDBLK
  5
826
330
824
100
AcDbEntity
  8
0
100
AcDbBlockEnd
  0
BLOCK
  5
831
330
830
100
AcDbEntity
  8
0
100
AcDbBlockBegin
  2
*D32
 70
     1
 10
0.0
 20
0.0
 30
0.0
  3
*D32
  1

  0
LINE
  5
8CB
330
830
100
AcDbEntity
  8
0
 62
     0
370
    -2
100
AcDbLine
 10
151.6373027674426
 20
203.3842406901205
 30
0.0
 11
151.6373027674426
 21
240.3842406901223
 31
0.0
  0
LINE
  5
8CC
330
830
100
AcDbEntity
  8
0
 62
     0
370
    -2
100
AcDbLine
 10
255.6373036802943
 20
196.5342406901201
 30
0.0
 11
255.6373036802943
 21
240.3842406901223
 31
0.0
  0
LINE
  5
8CD
330
830
100
AcDbEntity
  8
0
 62
     0
370
    -2
100
AcDbLine
 10
156.6373027674426
 20
238.3842406901223
 30
0.0
 11
250.6373036802943
 21
238.3842406901223
 31
0.0
  0
INSERT
  5
8CE
330
830
100
AcDbEntity
  8
0
 62
     0
370
    -2
100
AcDbBlockReference
  2
_Open30
 10
151.6373027674426
 20
238.3842406901223
 30
0.0
 41
5.0
 42
5.0
 43
5.0
 50
180.0
  0
INSERT
  5
8CF
330
830
100
AcDbEntity
  8
0
 62
     0
370
    -2
100
AcDbBlockReference
  2
_Open30
 10
255.6373036802943
 20
238.3842406901223
 30
0.0
 41
5.0
 42
5.0
 43
5.0
  0
MTEXT
  5
8D0
330
830
100
AcDbEntity
  8
0
 62
     0
100
AcDbMText
 10
203.6373036802943
 20
243.0299760830035
 30
0.0
 40
7.0
 41
0.0
 71
     5
 72
     1
  1
52
 73
     1
 44
1.0
1001
ACAD
1000
MTEXTBEGIN
1070
    73
1070
     1
1070
    44
1040
1.0
1070
    74
1070
     0
1000
MTEXTEND
  0
POINT
  5
8D1
330
830
100
AcDbEntity
  8
Defpoints
 62
     0
100
AcDbPoint
 10
151.6373027674426
 20
202.3842406901205
 30
0.0
  0
POINT
  5
8D2
330
830
100
AcDbEntity
  8
Defpoints
 62
     0
100
AcDbPoint
 10
255.6373036802943
 20
195.5342406901201
 30
0.0
  0
POINT
  5
8D3
330
830
100
AcDbEntity
  8
Defpoints
 62
     0
100
AcDbPoint
 10
255.6373036802943
 20
238.3842406901223
 30
0.0
  0
ENDBLK
  5
832
330
830
100
AcDbEntity
  8
0
100
AcDbBlockEnd
  0
BLOCK
  5
83D
330
83C
100
AcDbEntity
  8
0
100
AcDbBlockBegin
  2
*D33
 70
     1
 10
0.0
 20
0.0
 30
0.0
  3
*D33
  1

  0
LINE
  5
8D4
330
83C
100
AcDbEntity
  8
0
 62
     0
370
    -2
100
AcDbLine
 10
260.8373036802941
 20
175.1342406901205
 30
0.0
 11
260.8373036802941
 21
224.438081380835
 31
0.0
  0
LINE
  5
8D5
330
83C
100
AcDbEntity
  8
0
 62
     0
370
    -2
100
AcDbLine
 10
255.6373036802943
 20
196.5342406901201
 30
0.0
 11
255.6373036802943
 21
224.438081380835
 31
0.0
  0
LINE
  5
8D6
330
83C
100
AcDbEntity
  8
0
 62
     0
370
    -2
100
AcDbLine
 10
265.8373036802941
 20
222.438081380835
 30
0.0
 11
270.8373036802941
 21
222.438081380835
 31
0.0
  0
LINE
  5
8D7
330
83C
100
AcDbEntity
  8
0
 62
     0
370
    -2
100
AcDbLine
 10
250.6373036802943
 20
222.438081380835
 30
0.0
 11
223.8548993821076
 21
222.438081380835
 31
0.0
  0
LINE
  5
8D8
330
83C
100
AcDbEntity
  8
0
 62
     0
370
    -2
100
AcDbLine
 10
260.8373036802941
 20
222.438081380835
 30
0.0
 11
255.6373036802943
 21
222.438081380835
 31
0.0
  0
INSERT
  5
8D9
330
83C
100
AcDbEntity
  8
0
 62
     0
370
    -2
100
AcDbBlockReference
  2
_Open30
 10
260.8373036802941
 20
222.438081380835
 30
0.0
 41
5.0
 42
5.0
 43
5.0
 50
180.0
  0
INSERT
  5
8DA
330
83C
100
AcDbEntity
  8
0
 62
     0
370
    -2
100
AcDbBlockReference
  2
_Open30
 10
255.6373036802943
 20
222.438081380835
 30
0.0
 41
5.0
 42
5.0
 43
5.0
  0
MTEXT
  5
8DB
330
83C
100
AcDbEntity
  8
0
 62
     0
100
AcDbMText
 10
234.7461015312009
 20
228.0640048193843
 30
0.0
 40
7.0
 41
0.0
 71
     5
 72
     1
  1
(2.6)
 73
     1
 44
1.0
1001
ACAD
1000
MTEXTBEGIN
1070
    73
1070
     1
1070
    44
1040
1.0
1070
    74
1070
     0
1000
MTEXTEND
  0
POINT
  5
8DC
330
83C
100
AcDbEntity
  8
Defpoints
 62
     0
100
AcDbPoint
 10
260.8373036802941
 20
174.1342406901205
 30
0.0
  0
POINT
  5
8DD
330
83C
100
AcDbEntity
  8
Defpoints
 62
     0
100
AcDbPoint
 10
255.6373036802943
 20
195.5342406901201
 30
0.0
  0
POINT
  5
8DE
330
83C
100
AcDbEntity
  8
Defpoints
 62
     0
100
AcDbPoint
 10
255.6373036802943
 20
222.438081380835
 30
0.0
  0
ENDBLK
  5
83E
330
83C
100
AcDbEntity
  8
0
100
AcDbBlockEnd
  0
BLOCK
  5
84B
330
84A
100
AcDbEntity
  8
0
100
AcDbBlockBegin
  2
*D34
 70
     1
 10
0.0
 20
0.0
 30
0.0
  3
*D34
  1

  0
LINE
  5
8DF
330
84A
100
AcDbEntity
  8
0
 62
     0
370
    -2
100
AcDbLine
 10
256.6373036802943
 20
134.7342406901208
 30
0.0
 11
302.9933186345496
 21
134.7342406901208
 31
0.0
  0
LINE
  5
8E0
330
84A
100
AcDbEntity
  8
0
 62
     0
370
    -2
100
AcDbLine
 10
256.6373036802943
 20
195.5342406901201
 30
0.0
 11
302.9933186345496
 21
195.5342406901201
 31
0.0
  0
LINE
  5
8E1
330
84A
100
AcDbEntity
  8
0
 62
     0
370
    -2
100
AcDbLine
 10
300.9933186345496
 20
139.7342406901209
 30
0.0
 11
300.9933186345496
 21
190.5342406901201
 31
0.0
  0
INSERT
  5
8E2
330
84A
100
AcDbEntity
  8
0
 62
     0
370
    -2
100
AcDbBlockReference
  2
_Open30
 10
300.9933186345496
 20
134.7342406901208
 30
0.0
 41
5.0
 42
5.0
 43
5.0
 50
270.0
  0
INSERT
  5
8E3
330
84A
100
AcDbEntity
  8
0
 62
     0
370
    -2
100
AcDbBlockReference
  2
_Open30
 10
300.9933186345496
 20
195.5342406901201
 30
0.0
 41
5.0
 42
5.0
 43
5.0
 50
90.0
  0
MTEXT
  5
8E4
330
84A
100
AcDbEntity
  8
0
 62
     0
100
AcDbMText
 10
296.3475832416683
 20
165.1342406901696
 30
0.0
 40
7.0
 41
0.0
 71
     5
 72
     1
  1
%%C30.4
 11
0.0000000000000001
 21
1.0
 31
0.0
 73
     1
 44
1.0
1001
ACAD
1000
MTEXTBEGIN
1070
    73
1070
     1
1070
    44
1040
1.0
1070
    74
1070
     0
1000
MTEXTEND
  0
POINT
  5
8E5
330
84A
100
AcDbEntity
  8
Defpoints
 62
     0
100
AcDbPoint
 10
255.6373036802943
 20
134.7342406901208
 30
0.0
  0
POINT
  5
8E6
330
84A
100
AcDbEntity
  8
Defpoints
 62
     0
100
AcDbPoint
 10
255.6373036802943
 20
195.5342406901201
 30
0.0
  0
POINT
  5
8E7
330
84A
100
AcDbEntity
  8
Defpoints
 62
     0
100
AcDbPoint
 10
300.9933186345496
 20
195.5342406901201
 30
0.0
  0
ENDBLK
  5
84C
330
84A
100
AcDbEntity
  8
0
100
AcDbBlockEnd
  0
BLOCK
  5
857
330
856
100
AcDbEntity
  8
0
100
AcDbBlockBegin
  2
*D35
 70
     1
 10
0.0
 20
0.0
 30
0.0
  3
*D35
  1

  0
LINE
  5
8E8
330
856
100
AcDbEntity
  8
0
 62
     0
370
    -2
100
AcDbLine
 10
260.8373036802941
 20
175.1342406901833
 30
0.0
 11
288.0770432321349
 21
175.1342406901833
 31
0.0
  0
LINE
  5
8E9
330
856
100
AcDbEntity
  8
0
 62
     0
370
    -2
100
AcDbLine
 10
260.8373036802941
 20
155.134240690156
 30
0.0
 11
288.0770432321349
 21
155.134240690156
 31
0.0
  0
LINE
  5
8EA
330
856
100
AcDbEntity
  8
0
 62
     0
370
    -2
100
AcDbLine
 10
286.0770432321349
 20
170.1342406901833
 30
0.0
 11
286.0770432321349
 21
160.134240690156
 31
0.0
  0
INSERT
  5
8EB
330
856
100
AcDbEntity
  8
0
 62
     0
370
    -2
100
AcDbBlockReference
  2
_Open30
 10
286.0770432321349
 20
175.1342406901833
 30
0.0
 41
5.0
 42
5.0
 43
5.0
 50
270.0
  0
LINE
  5
8EC
330
856
100
AcDbEntity
  8
0
 62
     0
370
    -2
100
AcDbLine
 10
286.0770432321349
 20
180.1342406901833
 30
0.0
 11
286.0770432321349
 21
185.1342406901832
 31
0.0
  0
LINE
  5
8ED
330
856
100
AcDbEntity
  8
0
 62
     0
370
    -2
100
AcDbLine
 10
286.0770432321349
 20
175.1342406901833
 30
0.0
 11
286.0770432321349
 21
170.1342406901833
 31
0.0
  0
INSERT
  5
8EE
330
856
100
AcDbEntity
  8
0
 62
     0
370
    -2
100
AcDbBlockReference
  2
_Open30
 10
286.0770432321349
 20
155.134240690156
 30
0.0
 41
5.0
 42
5.0
 43
5.0
 50
90.0
  0
LINE
  5
8EF
330
856
100
AcDbEntity
  8
0
 62
     0
370
    -2
100
AcDbLine
 10
286.0770432321349
 20
150.134240690156
 30
0.0
 11
286.0770432321349
 21
145.134240690156
 31
0.0
  0
LINE
  5
8F0
330
856
100
AcDbEntity
  8
0
 62
     0
370
    -2
100
AcDbLine
 10
286.0770432321349
 20
155.134240690156
 30
0.0
 11
286.0770432321349
 21
160.134240690156
 31
0.0
  0
MTEXT
  5
8F1
330
856
100
AcDbEntity
  8
0
 62
     0
100
AcDbMText
 10
281.4336584101067
 20
165.1342406901696
 30
0.0
 40
7.0
 41
0.0
 71
     5
 72
     1
  1
%%C10
 11
0.0000000000000001
 21
1.0
 31
0.0
 73
     1
 44
1.0
1001
ACAD
1000
MTEXTBEGIN
1070
    73
1070
     1
1070
    44
1040
1.0
1070
    74
1070
     0
1000
MTEXTEND
  0
POINT
  5
8F2
330
856
100
AcDbEntity
  8
Defpoints
 62
     0
100
AcDbPoint
 10
259.8373036802941
 20
175.1342406901833
 30
0.0
  0
POINT
  5
8F3
330
856
100
AcDbEntity
  8
Defpoints
 62
     0
100
AcDbPoint
 10
259.8373036802941
 20
155.134240690156
 30
0.0
  0
POINT
  5
8F4
330
856
100
AcDbEntity
  8
Defpoints
 62
     0
100
AcDbPoint
 10
286.0770432321349
 20
155.134240690156
 30
0.0
  0
ENDBLK
  5
858
330
856
100
AcDbEntity
  8
0
100
AcDbBlockEnd
  0
BLOCK
  5
867
330
866
100
AcDbEntity
  8
0
100
AcDbBlockBegin
  2
*D36
 70
     1
 10
0.0
 20
0.0
 30
0.0
  3
*D36
  1

  0
LINE
  5
8F5
330
866
100
AcDbEntity
  8
0
 62
     0
370
    -2
100
AcDbLine
 10
255.6373036802943
 20
133.7342406901209
 30
0.0
 11
255.6373036802943
 21
114.4810652918442
 31
0.0
  0
LINE
  5
8F6
330
866
100
AcDbEntity
  8
0
 62
     0
370
    -2
100
AcDbLine
 10
265.6373036803016
 20
162.3342406901194
 30
0.0
 11
265.6373036803016
 21
114.4810652918442
 31
0.0
  0
LINE
  5
8F7
330
866
100
AcDbEntity
  8
0
 62
     0
370
    -2
100
AcDbLine
 10
270.6373036803015
 20
116.4810652918442
 30
0.0
 11
275.6373036803016
 21
116.4810652918442
 31
0.0
  0
LINE
  5
8F8
330
866
100
AcDbEntity
  8
0
 62
     0
370
    -2
100
AcDbLine
 10
250.6373036802943
 20
116.4810652918442
 30
0.0
 11
227.6647270069119
 21
116.4810652918442
 31
0.0
  0
LINE
  5
8F9
330
866
100
AcDbEntity
  8
0
 62
     0
370
    -2
100
AcDbLine
 10
265.6373036803016
 20
116.4810652918442
 30
0.0
 11
255.6373036802943
 21
116.4810652918442
 31
0.0
  0
INSERT
  5
8FA
330
866
100
AcDbEntity
  8
0
 62
     0
370
    -2
100
AcDbBlockReference
  2
_Open30
 10
265.6373036803016
 20
116.4810652918442
 30
0.0
 41
5.0
 42
5.0
 43
5.0
 50
180.0
  0
INSERT
  5
8FB
330
866
100
AcDbEntity
  8
0
 62
     0
370
    -2
100
AcDbBlockReference
  2
_Open30
 10
255.6373036802943
 20
116.4810652918442
 30
0.0
 41
5.0
 42
5.0
 43
5.0
  0
MTEXT
  5
8FC
330
866
100
AcDbEntity
  8
0
 62
     0
100
AcDbMText
 10
234.4706370136278
 20
122.1069887303936
 30
0.0
 40
7.0
 41
0.0
 71
     5
 72
     1
  1
(5)
 73
     1
 44
1.0
1001
ACAD
1000
MTEXTBEGIN
1070
    73
1070
     1
1070
    44
1040
1.0
1070
    74
1070
     0
1000
MTEXTEND
  0
POINT
  5
8FD
330
866
100
AcDbEntity
  8
Defpoints
 62
     0
100
AcDbPoint
 10
255.6373036802943
 20
134.7342406901208
 30
0.0
  0
POINT
  5
8FE
330
866
100
AcDbEntity
  8
Defpoints
 62
     0
100
AcDbPoint
 10
265.6373036803016
 20
163.3342406901194
 30
0.0
  0
POINT
  5
8FF
330
866
100
AcDbEntity
  8
Defpoints
 62
     0
100
AcDbPoint
 10
265.6373036803016
 20
116.4810652918442
 30
0.0
  0
ENDBLK
  5
868
330
866
100
AcDbEntity
  8
0
100
AcDbBlockEnd
  0
BLOCK
  5
875
330
874
100
AcDbEntity
  8
0
100
AcDbBlockBegin
  2
*D37
 70
     1
 10
0.0
 20
0.0
 30
0.0
  3
*D37
  1

  0
LINE
  5
900
330
874
100
AcDbEntity
  8
0
 62
     0
370
    -2
100
AcDbLine
 10
222.2623036802952
 20
131.7688394487142
 30
0.0
 11
317.1595940369933
 21
131.7688394487142
 31
0.0
  0
LINE
  5
901
330
874
100
AcDbEntity
  8
0
 62
     0
370
    -2
100
AcDbLine
 10
222.2623036802943
 20
198.6342406901205
 30
0.0
 11
317.1595940369933
 21
198.6342406901205
 31
0.0
  0
LINE
  5
902
330
874
100
AcDbEntity
  8
0
 62
     0
370
    -2
100
AcDbLine
 10
315.9095940369933
 20
134.2688394487142
 30
0.0
 11
315.9095940369933
 21
196.1342406901205
 31
0.0
  0
SOLID
  5
903
330
874
100
AcDbEntity
  8
0
 62
     0
100
AcDbTrace
 10
315.4929273703266
 20
134.2688394487142
 30
0.0
 11
316.32626070366
 21
134.2688394487142
 31
0.0
 12
315.9095940369933
 22
131.7688394487142
 32
0.0
 13
315.9095940369933
 23
131.7688394487142
 33
0.0
  0
SOLID
  5
904
330
874
100
AcDbEntity
  8
0
 62
     0
100
AcDbTrace
 10
315.4929273703266
 20
196.1342406901205
 30
0.0
 11
316.32626070366
 21
196.1342406901205
 31
0.0
 12
315.9095940369933
 22
198.6342406901205
 32
0.0
 13
315.9095940369933
 23
198.6342406901205
 33
0.0
  0
MTEXT
  5
905
330
874
100
AcDbEntity
  8
0
 62
     0
100
AcDbMText
 10
313.6075456823928
 20
165.1342406901678
 30
0.0
 40
2.5
 41
0.0
 71
     5
 72
     1
  1
%%C33.5MAX
 11
0.0000000000000001
 21
1.0
 31
0.0
 73
     1
 44
1.0
1001
ACAD
1000
MTEXTBEGIN
1070
    73
1070
     1
1070
    44
1040
1.0
1070
    74
1070
     0
1000
MTEXTEND
  0
POINT
  5
906
330
874
100
AcDbEntity
  8
Defpoints
 62
     0
100
AcDbPoint
 10
221.6373036802952
 20
131.7688394487142
 30
0.0
  0
POINT
  5
907
330
874
100
AcDbEntity
  8
Defpoints
 62
     0
100
AcDbPoint
 10
221.6373036802943
 20
198.6342406901205
 30
0.0
  0
POINT
  5
908
330
874
100
AcDbEntity
  8
Defpoints
 62
     0
100
AcDbPoint
 10
315.9095940369933
 20
198.6342406901205
 30
0.0
  0
ENDBLK
  5
876
330
874
100
AcDbEntity
  8
0
100
AcDbBlockEnd
  0
BLOCK
  5
881
330
880
100
AcDbEntity
  8
0
100
AcDbBlockBegin
  2
*D38
 70
     1
 10
0.0
 20
0.0
 30
0.0
  3
*D38
  1

  0
LINE
  5
909
330
880
100
AcDbEntity
  8
0
 62
     0
370
    -2
100
AcDbLine
 10
255.6373036802943
 20
196.5342406901201
 30
0.0
 11
255.6373036802943
 21
240.3842406901223
 31
0.0
  0
LINE
  5
90A
330
880
100
AcDbEntity
  8
0
 62
     0
370
    -2
100
AcDbLine
 10
267.6373036802943
 20
168.3042406901206
 30
0.0
 11
267.6373036802943
 21
240.3842406901223
 31
0.0
  0
LINE
  5
90B
330
880
100
AcDbEntity
  8
0
 62
     0
370
    -2
100
AcDbLine
 10
260.6373036802943
 20
238.3842406901223
 30
0.0
 11
262.6373036802943
 21
238.3842406901223
 31
0.0
  0
LINE
  5
90C
330
880
100
AcDbEntity
  8
0
 62
     0
370
    -2
100
AcDbLine
 10
267.6373036802943
 20
238.3842406901223
 30
0.0
 11
287.4432136870102
 21
238.3842406901223
 31
0.0
  0
INSERT
  5
90D
330
880
100
AcDbEntity
  8
0
 62
     0
370
    -2
100
AcDbBlockReference
  2
_Open30
 10
255.6373036802943
 20
238.3842406901223
 30
0.0
 41
5.0
 42
5.0
 43
5.0
 50
180.0
  0
INSERT
  5
90E
330
880
100
AcDbEntity
  8
0
 62
     0
370
    -2
100
AcDbBlockReference
  2
_Open30
 10
267.6373036802943
 20
238.3842406901223
 30
0.0
 41
5.0
 42
5.0
 43
5.0
  0
MTEXT
  5
90F
330
880
100
AcDbEntity
  8
0
 62
     0
100
AcDbMText
 10
280.6373036802943
 20
244.0101641286717
 30
0.0
 40
7.0
 41
0.0
 71
     5
 72
     1
  1
(6)
 73
     1
 44
1.0
1001
ACAD
1000
MTEXTBEGIN
1070
    73
1070
     1
1070
    44
1040
1.0
1070
    74
1070
     0
1000
MTEXTEND
  0
POINT
  5
910
330
880
100
AcDbEntity
  8
Defpoints
 62
     0
100
AcDbPoint
 10
255.6373036802943
 20
195.5342406901201
 30
0.0
  0
POINT
  5
911
330
880
100
AcDbEntity
  8
Defpoints
 62
     0
100
AcDbPoint
 10
267.6373036802943
 20
167.3042406901206
 30
0.0
  0
POINT
  5
912
330
880
100
AcDbEntity
  8
Defpoints
 62
     0
100
AcDbPoint
 10
267.6373036802943
 20
238.3842406901223
 30
0.0
  0
ENDBLK
  5
882
330
880
100
AcDbEntity
  8
0
100
AcDbBlockEnd
  0
BLOCK
  5
88E
330
88D
100
AcDbEntity
  8
0
100
AcDbBlockBegin
  2
*D39
 70
     1
 10
0.0
 20
0.0
 30
0.0
  3
*D39
  1

  0
LINE
  5
913
330
88D
100
AcDbEntity
  8
0
 62
     0
370
    -2
100
AcDbLine
 10
133.637303680294
 20
168.3042406901215
 30
0.0
 11
133.637303680294
 21
240.3842406901223
 31
0.0
  0
LINE
  5
914
330
88D
100
AcDbEntity
  8
0
 62
     0
370
    -2
100
AcDbLine
 10
151.6373036802943
 20
194.534240690121
 30
0.0
 11
151.6373036802943
 21
240.3842406901223
 31
0.0
  0
LINE
  5
915
330
88D
100
AcDbEntity
  8
0
 62
     0
370
    -2
100
AcDbLine
 10
138.637303680294
 20
238.3842406901223
 30
0.0
 11
146.6373036802943
 21
238.3842406901223
 31
0.0
  0
INSERT
  5
916
330
88D
100
AcDbEntity
  8
0
 62
     0
370
    -2
100
AcDbBlockReference
  2
_Open30
 10
133.637303680294
 20
238.3842406901223
 30
0.0
 41
5.0
 42
5.0
 43
5.0
 50
180.0
  0
INSERT
  5
917
330
88D
100
AcDbEntity
  8
0
 62
     0
370
    -2
100
AcDbBlockReference
  2
_Open30
 10
151.6373036802943
 20
238.3842406901223
 30
0.0
 41
5.0
 42
5.0
 43
5.0
  0
MTEXT
  5
918
330
88D
100
AcDbEntity
  8
0
 62
     0
100
AcDbMText
 10
142.9754324308649
 20
243.0229243704447
 30
0.0
 40
7.0
 41
0.0
 71
     5
 72
     1
  1
9
 73
     1
 44
1.0
1001
ACAD
1000
MTEXTBEGIN
1070
    73
1070
     1
1070
    44
1040
1.0
1070
    74
1070
     0
1000
MTEXTEND
  0
POINT
  5
919
330
88D
100
AcDbEntity
  8
Defpoints
 62
     0
100
AcDbPoint
 10
133.637303680294
 20
167.3042406901215
 30
0.0
  0
POINT
  5
91A
330
88D
100
AcDbEntity
  8
Defpoints
 62
     0
100
AcDbPoint
 10
151.6373036802943
 20
193.534240690121
 30
0.0
  0
POINT
  5
91B
330
88D
100
AcDbEntity
  8
Defpoints
 62
     0
100
AcDbPoint
 10
151.6373036802943
 20
238.3842406901223
 30
0.0
  0
ENDBLK
  5
88F
330
88D
100
AcDbEntity
  8
0
100
AcDbBlockEnd
  0
BLOCK
  5
89A
330
899
100
AcDbEntity
  8
0
100
AcDbBlockBegin
  2
*D40
 70
     1
 10
0.0
 20
0.0
 30
0.0
  3
*D40
  1

  0
LINE
  5
91C
330
899
100
AcDbEntity
  8
0
 62
     0
370
    -2
100
AcDbLine
 10
133.6373036802941
 20
168.3042406901215
 30
0.0
 11
121.6394205972072
 21
168.3042406901215
 31
0.0
  0
LINE
  5
91D
330
899
100
AcDbEntity
  8
0
 62
     0
370
    -2
100
AcDbLine
 10
133.637303680294
 20
161.9642406901222
 30
0.0
 11
121.6394205972072
 21
161.9642406901222
 31
0.0
  0
LINE
  5
91E
330
899
100
AcDbEntity
  8
0
 62
     0
370
    -2
100
AcDbLine
 10
123.6394205972072
 20
156.9642406901222
 30
0.0
 11
123.6394205972072
 21
151.9642406901222
 31
0.0
  0
LINE
  5
91F
330
899
100
AcDbEntity
  8
0
 62
     0
370
    -2
100
AcDbLine
 10
123.6394205972072
 20
173.3042406901215
 30
0.0
 11
123.6394205972072
 21
205.1048003498481
 31
0.0
  0
LINE
  5
920
330
899
100
AcDbEntity
  8
0
 62
     0
370
    -2
100
AcDbLine
 10
123.6394205972072
 20
161.9642406901222
 30
0.0
 11
123.6394205972072
 21
168.3042406901215
 31
0.0
  0
INSERT
  5
921
330
899
100
AcDbEntity
  8
0
 62
     0
370
    -2
100
AcDbBlockReference
  2
_Open30
 10
123.6394205972072
 20
161.9642406901222
 30
0.0
 41
5.0
 42
5.0
 43
5.0
 50
90.0
  0
INSERT
  5
922
330
899
100
AcDbEntity
  8
0
 62
     0
370
    -2
100
AcDbBlockReference
  2
_Open30
 10
123.6394205972072
 20
168.3042406901215
 30
0.0
 41
5.0
 42
5.0
 43
5.0
 50
270.0
  0
MTEXT
  5
923
330
899
100
AcDbEntity
  8
0
 62
     0
100
AcDbMText
 10
118.993685204326
 20
192.1375740234545
 30
0.0
 40
7.0
 41
0.0
 71
     5
 72
     1
  1
%%C3.17
 11
0.0000000000000001
 21
1.0
 31
0.0
 73
     1
 44
1.0
1001
ACAD
1000
MTEXTBEGIN
1070
    73
1070
     1
1070
    44
1040
1.0
1070
    74
1070
     0
1000
MTEXTEND
  0
POINT
  5
924
330
899
100
AcDbEntity
  8
Defpoints
 62
     0
100
AcDbPoint
 10
134.6373036802941
 20
168.3042406901215
 30
0.0
  0
POINT
  5
925
330
899
100
AcDbEntity
  8
Defpoints
 62
     0
100
AcDbPoint
 10
134.637303680294
 20
161.9642406901222
 30
0.0
  0
POINT
  5
926
330
899
100
AcDbEntity
  8
Defpoints
 62
     0
100
AcDbPoint
 10
123.6394205972072
 20
161.9642406901222
 30
0.0
  0
ENDBLK
  5
89B
330
899
100
AcDbEntity
  8
0
100
AcDbBlockEnd
  0
BLOCK
  5
8A8
330
8A7
100
AcDbEntity
  8
0
100
AcDbBlockBegin
  2
*D41
 70
     1
 10
0.0
 20
0.0
 30
0.0
  3
*D41
  1

  0
LINE
  5
927
330
8A7
100
AcDbEntity
  8
0
 62
     0
370
    -2
100
AcDbLine
 10
144.4373036802942
 20
155.23424069012
 30
0.0
 11
106.6552881542345
 21
155.23424069012
 31
0.0
  0
LINE
  5
928
330
8A7
100
AcDbEntity
  8
0
 62
     0
370
    -2
100
AcDbLine
 10
144.4373036802942
 20
175.0342406901211
 30
0.0
 11
106.6552881542345
 21
175.0342406901211
 31
0.0
  0
LINE
  5
929
330
8A7
100
AcDbEntity
  8
0
 62
     0
370
    -2
100
AcDbLine
 10
108.6552881542345
 20
160.23424069012
 30
0.0
 11
108.6552881542345
 21
170.034240690121
 31
0.0
  0
LINE
  5
92A
330
8A7
100
AcDbEntity
  8
0
 62
     0
370
    -2
100
AcDbLine
 10
108.6552881542345
 20
175.0342406901211
 30
0.0
 11
108.6552881542345
 21
201.8476725235663
 31
0.0
  0
INSERT
  5
92B
330
8A7
100
AcDbEntity
  8
0
 62
     0
370
    -2
100
AcDbBlockReference
  2
_Open30
 10
108.6552881542345
 20
155.23424069012
 30
0.0
 41
5.0
 42
5.0
 43
5.0
 50
270.0
  0
INSERT
  5
92C
330
8A7
100
AcDbEntity
  8
0
 62
     0
370
    -2
100
AcDbBlockReference
  2
_Open30
 10
108.6552881542345
 20
175.0342406901211
 30
0.0
 41
5.0
 42
5.0
 43
5.0
 50
90.0
  0
MTEXT
  5
92D
330
8A7
100
AcDbEntity
  8
0
 62
     0
100
AcDbMText
 10
104.0166044739122
 20
191.534240690121
 30
0.0
 40
7.0
 41
0.0
 71
     5
 72
     1
  1
%%C9.9
 11
0.0000000000000001
 21
1.0
 31
0.0
 73
     1
 44
1.0
1001
ACAD
1000
MTEXTBEGIN
1070
    73
1070
     1
1070
    44
1040
1.0
1070
    74
1070
     0
1000
MTEXTEND
  0
POINT
  5
92E
330
8A7
100
AcDbEntity
  8
Defpoints
 62
     0
100
AcDbPoint
 10
145.4373036802942
 20
155.23424069012
 30
0.0
  0
POINT
  5
92F
330
8A7
100
AcDbEntity
  8
Defpoints
 62
     0
100
AcDbPoint
 10
145.4373036802942
 20
175.0342406901211
 30
0.0
  0
POINT
  5
930
330
8A7
100
AcDbEntity
  8
Defpoints
 62
     0
100
AcDbPoint
 10
108.6552881542345
 20
175.0342406901211
 30
0.0
  0
ENDBLK
  5
8A9
330
8A7
100
AcDbEntity
  8
0
100
AcDbBlockEnd
  0
BLOCK
  5
8B5
330
8B4
100
AcDbEntity
  8
0
100
AcDbBlockBegin
  2
*D42
 70
     1
 10
0.0
 20
0.0
 30
0.0
  3
*D42
  1

  0
LINE
  5
931
330
8B4
100
AcDbEntity
  8
0
 62
     0
370
    -2
100
AcDbLine
 10
144.4373036802942
 20
175.0342406901211
 30
0.0
 11
144.4373036802942
 21
224.3999358900539
 31
0.0
  0
LINE
  5
932
330
8B4
100
AcDbEntity
  8
0
 62
     0
370
    -2
100
AcDbLine
 10
151.6373036802944
 20
194.534240690121
 30
0.0
 11
151.6373036802944
 21
224.3999358900539
 31
0.0
  0
LINE
  5
933
330
8B4
100
AcDbEntity
  8
0
 62
     0
370
    -2
100
AcDbLine
 10
139.4373036802942
 20
222.3999358900539
 30
0.0
 11
134.4373036802942
 21
222.3999358900539
 31
0.0
  0
LINE
  5
934
330
8B4
100
AcDbEntity
  8
0
 62
     0
370
    -2
100
AcDbLine
 10
156.6373036802944
 20
222.3999358900539
 30
0.0
 11
176.9650404163589
 21
222.3999358900539
 31
0.0
  0
LINE
  5
935
330
8B4
100
AcDbEntity
  8
0
 62
     0
370
    -2
100
AcDbLine
 10
144.4373036802942
 20
222.3999358900539
 30
0.0
 11
151.6373036802944
 21
222.3999358900539
 31
0.0
  0
INSERT
  5
936
330
8B4
100
AcDbEntity
  8
0
 62
     0
370
    -2
100
AcDbBlockReference
  2
_Open30
 10
144.4373036802942
 20
222.3999358900539
 30
0.0
 41
5.0
 42
5.0
 43
5.0
  0
INSERT
  5
937
330
8B4
100
AcDbEntity
  8
0
 62
     0
370
    -2
100
AcDbBlockReference
  2
_Open30
 10
151.6373036802944
 20
222.3999358900539
 30
0.0
 41
5.0
 42
5.0
 43
5.0
 50
180.0
  0
MTEXT
  5
938
330
8B4
100
AcDbEntity
  8
0
 62
     0
100
AcDbMText
 10
169.6373036802944
 20
227.045671282935
 30
0.0
 40
7.0
 41
0.0
 71
     5
 72
     1
  1
3.6
 73
     1
 44
1.0
1001
ACAD
1000
MTEXTBEGIN
1070
    73
1070
     1
1070
    44
1040
1.0
1070
    74
1070
     0
1000
MTEXTEND
  0
POINT
  5
939
330
8B4
100
AcDbEntity
  8
Defpoints
 62
     0
100
AcDbPoint
 10
144.4373036802942
 20
174.0342406901211
 30
0.0
  0
POINT
  5
93A
330
8B4
100
AcDbEntity
  8
Defpoints
 62
     0
100
AcDbPoint
 10
151.6373036802944
 20
193.534240690121
 30
0.0
  0
POINT
  5
93B
330
8B4
100
AcDbEntity
  8
Defpoints
 62
     0
100
AcDbPoint
 10
151.6373036802944
 20
222.3999358900539
 30
0.0
  0
ENDBLK
  5
8B6
330
8B4
100
AcDbEntity
  8
0
100
AcDbBlockEnd
  0
BLOCK
  5
93E
330
93D
100
AcDbEntity
  8
0
100
AcDbBlockBegin
  2
*S6743
 70
     1
 10
0.0
 20
0.0
 30
0.0
  3
*S6743
  1

  0
LINE
  5
93F
330
93D
100
AcDbEntity
  8
AM_5
100
AcDbLine
 10
30.94915945230516
 20
61.38274011684186
 30
0.0
 11
6.201842003132433
 21
61.38274011684186
 31
0.0
  0
LINE
  5
940
330
93D
100
AcDbEntity
  8
AM_5
100
AcDbLine
 10
6.201842003132433
 20
61.38274011684186
 30
0.0
 11
12.93830926528161
 21
34.46379932536169
 31
0.0
  0
LINE
  5
941
330
93D
100
AcDbEntity
  8
AM_5
  6
Continuous
100
AcDbLine
 10
12.93830926528161
 20
34.46379932536169
 30
0.0
 11
13.54521914703402
 21
32.03858585116373
 31
0.0
  0
LINE
  5
942
330
93D
100
AcDbEntity
  8
AM_5
  6
Continuous
100
AcDbLine
 10
12.28847527929318
 20
34.30117831414313
 30
0.0
 11
13.54521914703402
 21
32.03858585116373
 31
0.0
  0
LINE
  5
943
330
93D
100
AcDbEntity
  8
AM_5
  6
Continuous
100
AcDbLine
 10
13.54521914703402
 20
32.03858585116373
 30
0.0
 11
13.58814325127003
 21
34.62642033658023
 31
0.0
  0
MTEXT
  5
944
102
{ACAD_XDICTIONARY
360
119A
102
}
330
93D
100
AcDbEntity
  8
AM_5
 62
   140
100
AcDbMText
 10
9.701842003132432
 20
65.67018135257054
 30
0.0
 40
3.5
 41
0.0
 71
     1
 72
     5
  1
2-M2.6\P\U+6709\U+52B9\U+6DF1\U+30553
 73
     1
 44
1.0
1001
ACAD
1000
MTEXTBEGIN
1070
    73
1070
     1
1070
    44
1040
1.0
1070
    74
1070
     0
1000
MTEXTEND
  0
LINE
  5
945
330
93D
100
AcDbEntity
  8
AM_5
100
AcDbLine
 10
9.701842003132432
 20
61.38274011684186
 30
0.0
 11
30.94915945230516
 21
61.38274011684186
 31
0.0
  0
ENDBLK
  5
946
330
93D
100
AcDbEntity
  8
0
100
AcDbBlockEnd
  0
BLOCK
  5
985
330
984
100
AcDbEntity
  8
0
100
AcDbBlockBegin
  2
*D47
 70
     1
 10
0.0
 20
0.0
 30
0.0
  3
*D47
  1

  0
LINE
  5
ED9
330
984
100
AcDbEntity
  8
AM_5
  6
ByBlock
100
AcDbLine
 10
21.91732615332339
 20
29.3901420996109
 30
0.0
 11
21.91732615332339
 21
4.207440468907947
 31
0.0
  0
LINE
  5
EDA
330
984
100
AcDbEntity
  8
AM_5
  6
ByBlock
100
AcDbLine
 10
42.91732615332338
 20
29.3901420996109
 30
0.0
 11
42.91732615332338
 21
4.207440468907947
 31
0.0
  0
LINE
  5
EDB
330
984
100
AcDbEntity
  8
AM_5
  6
ByBlock
100
AcDbLine
 10
24.41732615332339
 20
5.207440468907947
 30
0.0
 11
40.41732615332338
 21
5.207440468907947
 31
0.0
  0
INSERT
  5
EDC
330
984
100
AcDbEntity
  8
AM_5
100
AcDbBlockReference
  2
_Open
 10
21.91732615332339
 20
5.207440468907947
 30
0.0
 41
2.5
 42
2.5
 43
2.5
 50
180.0
  0
INSERT
  5
EDD
330
984
100
AcDbEntity
  8
AM_5
100
AcDbBlockReference
  2
_Open
 10
42.91732615332338
 20
5.207440468907947
 30
0.0
 41
2.5
 42
2.5
 43
2.5
  0
MTEXT
  5
EDE
330
984
100
AcDbEntity
  8
AM_5
 62
   140
100
AcDbMText
 10
32.41732615332339
 20
7.793874317128229
 30
0.0
 40
3.5
 41
0.0
 71
     5
 72
     1
  1
21
 73
     1
 44
1.0
1001
ACAD
1000
MTEXTBEGIN
1070
    73
1070
     1
1070
    44
1040
1.0
1070
    74
1070
     0
1000
MTEXTEND
  0
POINT
  5
EDF
330
984
100
AcDbEntity
  8
Defpoints
 62
     0
100
AcDbPoint
 10
21.91732615332339
 20
29.8901420996109
 30
0.0
  0
POINT
  5
EE0
330
984
100
AcDbEntity
  8
Defpoints
 62
     0
100
AcDbPoint
 10
42.91732615332338
 20
29.8901420996109
 30
0.0
  0
POINT
  5
EE1
330
984
100
AcDbEntity
  8
Defpoints
 62
     0
100
AcDbPoint
 10
42.91732615332338
 20
5.207440468907947
 30
0.0
  0
ENDBLK
  5
986
330
984
100
AcDbEntity
  8
0
100
AcDbBlockEnd
  0
BLOCK
  5
9AF
330
9AE
100
AcDbEntity
  8
0
100
AcDbBlockBegin
  2
*D48
 70
     1
 10
0.0
 20
0.0
 30
0.0
  3
*D48
  1

  0
LINE
  5
9D7
330
9AE
100
AcDbEntity
  8
AM_5
  6
ByBlock
100
AcDbLine
 10
59.26304123333057
 20
149.0280060021341
 30
0.0
 11
46.76304123333056
 21
149.0280060021341
 31
0.0
  0
LINE
  5
9D8
330
9AE
100
AcDbEntity
  8
AM_5
  6
ByBlock
100
AcDbLine
 10
59.26304123333057
 20
139.1280060021335
 30
0.0
 11
46.76304123333055
 21
139.1280060021335
 31
0.0
  0
LINE
  5
9D9
330
9AE
100
AcDbEntity
  8
AM_5
  6
ByBlock
100
AcDbLine
 10
47.76304123333056
 20
146.528006002134
 30
0.0
 11
47.76304123333055
 21
141.6280060021335
 31
0.0
  0
LINE
  5
9DA
330
9AE
100
AcDbEntity
  8
AM_5
  6
ByBlock
100
AcDbLine
 10
47.76304123333055
 20
139.1280060021335
 30
0.0
 11
47.76304123333055
 21
125.7145741686882
 31
0.0
  0
INSERT
  5
9DB
330
9AE
100
AcDbEntity
  8
AM_5
100
AcDbBlockReference
  2
_Open
 10
47.76304123333056
 20
149.0280060021341
 30
0.0
 41
2.5
 42
2.5
 43
2.5
 50
90.0
  0
INSERT
  5
9DC
330
9AE
100
AcDbEntity
  8
AM_5
100
AcDbBlockReference
  2
_Open
 10
47.76304123333055
 20
139.1280060021335
 30
0.0
 41
2.5
 42
2.5
 43
2.5
 50
270.0
  0
MTEXT
  5
9DD
330
9AE
100
AcDbEntity
  8
AM_5
 62
   140
100
AcDbMText
 10
45.14369939316934
 20
131.1712900854109
 30
0.0
 40
3.5
 41
0.0
 71
     5
 72
     1
  1
%%c9.9
 11
0.0000000000000001
 21
1.0
 31
0.0
 73
     1
 44
1.0
1001
ACAD
1000
MTEXTBEGIN
1070
    73
1070
     1
1070
    44
1040
1.0
1070
    74
1070
     0
1000
MTEXTEND
  0
POINT
  5
9DE
330
9AE
100
AcDbEntity
  8
Defpoints
 62
     0
100
AcDbPoint
 10
59.76304123333057
 20
149.0280060021341
 30
0.0
  0
POINT
  5
9DF
330
9AE
100
AcDbEntity
  8
Defpoints
 62
     0
100
AcDbPoint
 10
59.76304123333057
 20
139.1280060021335
 30
0.0
  0
POINT
  5
9E0
330
9AE
100
AcDbEntity
  8
Defpoints
 62
     0
100
AcDbPoint
 10
47.76304123333055
 20
139.1280060021335
 30
0.0
  0
ENDBLK
  5
9B0
330
9AE
100
AcDbEntity
  8
0
100
AcDbBlockEnd
  0
BLOCK
  5
9E3
330
9E2
100
AcDbEntity
  8
0
100
AcDbBlockBegin
  2
*D49
 70
     1
 10
0.0
 20
0.0
 30
0.0
  3
*D49
  1

  0
LINE
  5
EE2
330
9E2
100
AcDbEntity
  8
AM_5
  6
ByBlock
100
AcDbLine
 10
69.65268281432426
 20
32.30514209961086
 30
0.0
 11
63.81572367846214
 21
32.30514209961086
 31
0.0
  0
LINE
  5
EE3
330
9E2
100
AcDbEntity
  8
AM_5
  6
ByBlock
100
AcDbLine
 10
69.65268281432426
 20
35.47514209961093
 30
0.0
 11
63.81572367846214
 21
35.47514209961093
 31
0.0
  0
LINE
  5
EE4
330
9E2
100
AcDbEntity
  8
AM_5
  6
ByBlock
100
AcDbLine
 10
64.81572367846213
 20
29.80514209961086
 30
0.0
 11
64.81572367846213
 21
27.30514209961086
 31
0.0
  0
LINE
  5
EE5
330
9E2
100
AcDbEntity
  8
AM_5
  6
ByBlock
100
AcDbLine
 10
64.81572367846215
 20
37.97514209961093
 30
0.0
 11
64.81572367846215
 21
54.04236842600449
 31
0.0
  0
LINE
  5
EE6
330
9E2
100
AcDbEntity
  8
AM_5
  6
ByBlock
100
AcDbLine
 10
64.81572367846215
 20
32.30514209961086
 30
0.0
 11
64.81572367846215
 21
35.47514209961093
 31
0.0
  0
INSERT
  5
EE7
330
9E2
100
AcDbEntity
  8
AM_5
100
AcDbBlockReference
  2
_Open
 10
64.81572367846215
 20
32.30514209961086
 30
0.0
 41
2.5
 42
2.5
 43
2.5
 50
90.0
  0
INSERT
  5
EE8
330
9E2
100
AcDbEntity
  8
AM_5
100
AcDbBlockReference
  2
_Open
 10
64.81572367846215
 20
35.47514209961093
 30
0.0
 41
2.5
 42
2.5
 43
2.5
 50
270.0
  0
MTEXT
  5
EE9
330
9E2
100
AcDbEntity
  8
AM_5
 62
   140
100
AcDbMText
 10
62.19285598202157
 20
47.25875526280772
 30
0.0
 40
3.5
 41
0.0
 71
     5
 72
     1
  1
%%c3.17
 11
0.0000000000000001
 21
1.0
 31
0.0
 73
     1
 44
1.0
1001
ACAD
1000
MTEXTBEGIN
1070
    73
1070
     1
1070
    44
1040
1.0
1070
    74
1070
     0
1000
MTEXTEND
  0
POINT
  5
EEA
330
9E2
100
AcDbEntity
  8
Defpoints
 62
     0
100
AcDbPoint
 10
70.15268281432426
 20
32.30514209961086
 30
0.0
  0
POINT
  5
EEB
330
9E2
100
AcDbEntity
  8
Defpoints
 62
     0
100
AcDbPoint
 10
70.15268281432426
 20
35.47514209961093
 30
0.0
  0
POINT
  5
EEC
330
9E2
100
AcDbEntity
  8
Defpoints
 62
     0
100
AcDbPoint
 10
64.81572367846215
 20
35.47514209961093
 30
0.0
  0
ENDBLK
  5
9E4
330
9E2
100
AcDbEntity
  8
0
100
AcDbBlockEnd
  0
BLOCK
  5
A20
330
A1F
100
AcDbEntity
  8
0
100
AcDbBlockBegin
  2
*D50
 70
     1
 10
0.0
 20
0.0
 30
0.0
  3
*D50
  1

  0
LINE
  5
EED
330
A1F
100
AcDbEntity
  8
AM_5
  6
ByBlock
100
AcDbLine
 10
75.05268281432435
 20
38.84014209961072
 30
0.0
 11
57.50953230493246
 21
38.84014209961072
 31
0.0
  0
LINE
  5
EEE
330
A1F
100
AcDbEntity
  8
AM_5
  6
ByBlock
100
AcDbLine
 10
75.05268281432435
 20
28.94014209961017
 30
0.0
 11
57.50953230493246
 21
28.94014209961018
 31
0.0
  0
LINE
  5
EEF
330
A1F
100
AcDbEntity
  8
AM_5
  6
ByBlock
100
AcDbLine
 10
58.50953230493246
 20
31.44014209961018
 30
0.0
 11
58.50953230493246
 21
36.34014209961072
 31
0.0
  0
LINE
  5
EF0
330
A1F
100
AcDbEntity
  8
AM_5
  6
ByBlock
100
AcDbLine
 10
58.50953230493246
 20
38.84014209961072
 30
0.0
 11
58.50953230493247
 21
53.96547117953033
 31
0.0
  0
INSERT
  5
EF1
330
A1F
100
AcDbEntity
  8
AM_5
100
AcDbBlockReference
  2
_Open
 10
58.50953230493246
 20
28.94014209961018
 30
0.0
 41
2.5
 42
2.5
 43
2.5
 50
270.0
  0
INSERT
  5
EF2
330
A1F
100
AcDbEntity
  8
AM_5
100
AcDbBlockReference
  2
_Open
 10
58.50953230493246
 20
38.84014209961072
 30
0.0
 41
2.5
 42
2.5
 43
2.5
 50
90.0
  0
MTEXT
  5
EF3
330
A1F
100
AcDbEntity
  8
AM_5
 62
   140
100
AcDbMText
 10
55.89019046477127
 20
48.50875526280772
 30
0.0
 40
3.5
 41
0.0
 71
     5
 72
     1
  1
%%c9.9
 11
0.0000000000000001
 21
1.0
 31
0.0
 73
     1
 44
1.0
1001
ACAD
1000
MTEXTBEGIN
1070
    73
1070
     1
1070
    44
1040
1.0
1070
    74
1070
     0
1000
MTEXTEND
  0
POINT
  5
EF4
330
A1F
100
AcDbEntity
  8
Defpoints
 62
     0
100
AcDbPoint
 10
75.55268281432436
 20
38.84014209961072
 30
0.0
  0
POINT
  5
EF5
330
A1F
100
AcDbEntity
  8
Defpoints
 62
     0
100
AcDbPoint
 10
75.55268281432436
 20
28.94014209961017
 30
0.0
  0
POINT
  5
EF6
330
A1F
100
AcDbEntity
  8
Defpoints
 62
     0
100
AcDbPoint
 10
58.50953230493246
 20
28.94014209961018
 30
0.0
  0
ENDBLK
  5
A21
330
A1F
100
AcDbEntity
  8
0
100
AcDbBlockEnd
  0
BLOCK
  5
A54
330
A53
100
AcDbEntity
  8
0
100
AcDbBlockBegin
  2
*D51
 70
     1
 10
0.0
 20
0.0
 30
0.0
  3
*D51
  1

  0
LINE
  5
A6E
330
A53
100
AcDbEntity
  8
AM_5
  6
ByBlock
100
AcDbLine
 10
53.86304123333059
 20
144.5780060021342
 30
0.0
 11
53.86304123333059
 21
162.028006002134
 31
0.0
  0
LINE
  5
A6F
330
A53
100
AcDbEntity
  8
AM_5
  6
ByBlock
100
AcDbLine
 10
59.76304123333057
 20
149.528006002134
 30
0.0
 11
59.76304123333057
 21
162.028006002134
 31
0.0
  0
LINE
  5
A70
330
A53
100
AcDbEntity
  8
AM_5
  6
ByBlock
100
AcDbLine
 10
51.36304123333059
 20
161.028006002134
 30
0.0
 11
48.86304123333059
 21
161.028006002134
 31
0.0
  0
LINE
  5
A71
330
A53
100
AcDbEntity
  8
AM_5
  6
ByBlock
100
AcDbLine
 10
62.26304123333057
 20
161.028006002134
 30
0.0
 11
72.58500228101357
 21
161.028006002134
 31
0.0
  0
LINE
  5
A72
330
A53
100
AcDbEntity
  8
AM_5
  6
ByBlock
100
AcDbLine
 10
53.86304123333059
 20
161.028006002134
 30
0.0
 11
59.76304123333057
 21
161.028006002134
 31
0.0
  0
INSERT
  5
A73
330
A53
100
AcDbEntity
  8
AM_5
100
AcDbBlockReference
  2
_Open
 10
53.86304123333059
 20
161.028006002134
 30
0.0
 41
2.5
 42
2.5
 43
2.5
  0
INSERT
  5
A74
330
A53
100
AcDbEntity
  8
AM_5
100
AcDbBlockReference
  2
_Open
 10
59.76304123333057
 20
161.028006002134
 30
0.0
 41
2.5
 42
2.5
 43
2.5
 50
180.0
  0
MTEXT
  5
A75
330
A53
100
AcDbEntity
  8
AM_5
 62
   140
100
AcDbMText
 10
68.67402175717207
 20
163.6496984131482
 30
0.0
 40
3.5
 41
0.0
 71
     5
 72
     1
  1
5.9
 73
     1
 44
1.0
1001
ACAD
1000
MTEXTBEGIN
1070
    73
1070
     1
1070
    44
1040
1.0
1070
    74
1070
     0
1000
MTEXTEND
  0
POINT
  5
A76
330
A53
100
AcDbEntity
  8
Defpoints
 62
     0
100
AcDbPoint
 10
53.86304123333059
 20
144.0780060021342
 30
0.0
  0
POINT
  5
A77
330
A53
100
AcDbEntity
  8
Defpoints
 62
     0
100
AcDbPoint
 10
59.76304123333057
 20
149.0280060021341
 30
0.0
  0
POINT
  5
A78
330
A53
100
AcDbEntity
  8
Defpoints
 62
     0
100
AcDbPoint
 10
59.76304123333057
 20
161.028006002134
 30
0.0
  0
ENDBLK
  5
A55
330
A53
100
AcDbEntity
  8
0
100
AcDbBlockEnd
  0
BLOCK
  5
A7B
330
A7A
100
AcDbEntity
  8
0
100
AcDbBlockBegin
  2
*D52
 70
     1
 10
0.0
 20
0.0
 30
0.0
  3
*D52
  1

  0
LINE
  5
EF7
330
A7A
100
AcDbEntity
  8
AM_5
  6
ByBlock
100
AcDbLine
 10
69.65268281432438
 20
34.3901420996109
 30
0.0
 11
69.65268281432438
 21
73.58013357973061
 31
0.0
  0
LINE
  5
EF8
330
A7A
100
AcDbEntity
  8
AM_5
  6
ByBlock
100
AcDbLine
 10
78.65268281432438
 20
48.59014209961071
 30
0.0
 11
78.65268281432438
 21
73.58013357973061
 31
0.0
  0
LINE
  5
EF9
330
A7A
100
AcDbEntity
  8
AM_5
  6
ByBlock
100
AcDbLine
 10
72.15268281432438
 20
72.58013357973061
 30
0.0
 11
76.15268281432438
 21
72.58013357973061
 31
0.0
  0
INSERT
  5
EFA
330
A7A
100
AcDbEntity
  8
AM_5
100
AcDbBlockReference
  2
_Open
 10
69.65268281432438
 20
72.58013357973061
 30
0.0
 41
2.5
 42
2.5
 43
2.5
 50
180.0
  0
INSERT
  5
EFB
330
A7A
100
AcDbEntity
  8
AM_5
100
AcDbBlockReference
  2
_Open
 10
78.65268281432438
 20
72.58013357973061
 30
0.0
 41
2.5
 42
2.5
 43
2.5
  0
MTEXT
  5
EFC
330
A7A
100
AcDbEntity
  8
AM_5
 62
   140
100
AcDbMText
 10
74.15268281432438
 20
75.19947541989179
 30
0.0
 40
3.5
 41
0.0
 71
     5
 72
     1
  1
9
 73
     1
 44
1.0
1001
ACAD
1000
MTEXTBEGIN
1070
    73
1070
     1
1070
    44
1040
1.0
1070
    74
1070
     0
1000
MTEXTEND
  0
POINT
  5
EFD
330
A7A
100
AcDbEntity
  8
Defpoints
 62
     0
100
AcDbPoint
 10
69.65268281432438
 20
33.8901420996109
 30
0.0
  0
POINT
  5
EFE
330
A7A
100
AcDbEntity
  8
Defpoints
 62
     0
100
AcDbPoint
 10
78.65268281432438
 20
48.09014209961071
 30
0.0
  0
POINT
  5
EFF
330
A7A
100
AcDbEntity
  8
Defpoints
 62
     0
100
AcDbPoint
 10
78.65268281432438
 20
72.58013357973061
 30
0.0
  0
ENDBLK
  5
A7C
330
A7A
100
AcDbEntity
  8
0
100
AcDbBlockEnd
  0
BLOCK
  5
AAE
330
AAD
100
AcDbEntity
  8
0
100
AcDbBlockBegin
  2
*D53
 70
     1
 10
0.0
 20
0.0
 30
0.0
  3
*D53
  1

  0
LINE
  5
F00
330
AAD
100
AcDbEntity
  8
AM_5
  6
ByBlock
100
AcDbLine
 10
75.05268281432435
 20
38.84014209961072
 30
0.0
 11
75.05268281432435
 21
66.28936913425992
 31
0.0
  0
LINE
  5
F01
330
AAD
100
AcDbEntity
  8
AM_5
  6
ByBlock
100
AcDbLine
 10
78.65268281432438
 20
48.59014209961071
 30
0.0
 11
78.65268281432438
 21
66.28936913425992
 31
0.0
  0
LINE
  5
F02
330
AAD
100
AcDbEntity
  8
AM_5
  6
ByBlock
100
AcDbLine
 10
72.55268281432435
 20
65.28936913425991
 30
0.0
 11
70.05268281432435
 21
65.28936913425991
 31
0.0
  0
LINE
  5
F03
330
AAD
100
AcDbEntity
  8
AM_5
  6
ByBlock
100
AcDbLine
 10
81.15268281432438
 20
65.28936913425991
 30
0.0
 11
91.58041955038886
 21
65.28936913425991
 31
0.0
  0
LINE
  5
F04
330
AAD
100
AcDbEntity
  8
AM_5
  6
ByBlock
100
AcDbLine
 10
75.05268281432435
 20
65.28936913425991
 30
0.0
 11
78.65268281432438
 21
65.28936913425991
 31
0.0
  0
INSERT
  5
F05
330
AAD
100
AcDbEntity
  8
AM_5
100
AcDbBlockReference
  2
_Open
 10
75.05268281432435
 20
65.28936913425991
 30
0.0
 41
2.5
 42
2.5
 43
2.5
  0
INSERT
  5
F06
330
AAD
100
AcDbEntity
  8
AM_5
100
AcDbBlockReference
  2
_Open
 10
78.65268281432438
 20
65.28936913425991
 30
0.0
 41
2.5
 42
2.5
 43
2.5
 50
180.0
  0
MTEXT
  5
F07
330
AAD
100
AcDbEntity
  8
AM_5
 62
   140
100
AcDbMText
 10
87.61655118235662
 20
67.91223683070048
 30
0.0
 40
3.5
 41
0.0
 71
     5
 72
     1
  1
3.6
 73
     1
 44
1.0
1001
ACAD
1000
MTEXTBEGIN
1070
    73
1070
     1
1070
    44
1040
1.0
1070
    74
1070
     0
1000
MTEXTEND
  0
POINT
  5
F08
330
AAD
100
AcDbEntity
  8
Defpoints
 62
     0
100
AcDbPoint
 10
75.05268281432435
 20
38.34014209961072
 30
0.0
  0
POINT
  5
F09
330
AAD
100
AcDbEntity
  8
Defpoints
 62
     0
100
AcDbPoint
 10
78.65268281432438
 20
48.09014209961071
 30
0.0
  0
POINT
  5
F0A
330
AAD
100
AcDbEntity
  8
Defpoints
 62
     0
100
AcDbPoint
 10
78.65268281432438
 20
65.28936913425991
 30
0.0
  0
ENDBLK
  5
AAF
330
AAD
100
AcDbEntity
  8
0
100
AcDbBlockEnd
  0
BLOCK
  5
AE0
330
ADF
100
AcDbEntity
  8
0
100
AcDbBlockBegin
  2
*D54
 70
     1
 10
0.0
 20
0.0
 30
0.0
  3
*D54
  1

  0
LINE
  5
F0B
330
ADF
100
AcDbEntity
  8
AM_5
  6
ByBlock
100
AcDbLine
 10
78.65268281432438
 20
48.59014209961071
 30
0.0
 11
78.65268281432438
 21
73.58013357973061
 31
0.0
  0
LINE
  5
F0C
330
ADF
100
AcDbEntity
  8
AM_5
  6
ByBlock
100
AcDbLine
 10
130.6526828143242
 20
49.59014209961072
 30
0.0
 11
130.6526828143242
 21
73.58013357973061
 31
0.0
  0
LINE
  5
F0D
330
ADF
100
AcDbEntity
  8
AM_5
  6
ByBlock
100
AcDbLine
 10
81.15268281432438
 20
72.58013357973061
 30
0.0
 11
128.1526828143242
 21
72.58013357973061
 31
0.0
  0
INSERT
  5
F0E
330
ADF
100
AcDbEntity
  8
AM_5
100
AcDbBlockReference
  2
_Open
 10
78.65268281432438
 20
72.58013357973061
 30
0.0
 41
2.5
 42
2.5
 43
2.5
 50
180.0
  0
INSERT
  5
F0F
330
ADF
100
AcDbEntity
  8
AM_5
100
AcDbBlockReference
  2
_Open
 10
130.6526828143242
 20
72.58013357973061
 30
0.0
 41
2.5
 42
2.5
 43
2.5
  0
MTEXT
  5
F10
330
ADF
100
AcDbEntity
  8
AM_5
 62
   140
100
AcDbMText
 10
104.6526828143243
 20
75.20300127617118
 30
0.0
 40
3.5
 41
0.0
 71
     5
 72
     1
  1
52
 73
     1
 44
1.0
1001
ACAD
1000
MTEXTBEGIN
1070
    73
1070
     1
1070
    44
1040
1.0
1070
    74
1070
     0
1000
MTEXTEND
  0
POINT
  5
F11
330
ADF
100
AcDbEntity
  8
Defpoints
 62
     0
100
AcDbPoint
 10
78.65268281432438
 20
48.09014209961071
 30
0.0
  0
POINT
  5
F12
330
ADF
100
AcDbEntity
  8
Defpoints
 62
     0
100
AcDbPoint
 10
130.6526828143242
 20
49.09014209961071
 30
0.0
  0
POINT
  5
F13
330
ADF
100
AcDbEntity
  8
Defpoints
 62
     0
100
AcDbPoint
 10
130.6526828143242
 20
72.58013357973061
 30
0.0
  0
ENDBLK
  5
AE1
330
ADF
100
AcDbEntity
  8
0
100
AcDbBlockEnd
  0
BLOCK
  5
B0A
330
B09
100
AcDbEntity
  8
0
100
AcDbBlockBegin
  2
*D55
 70
     1
 10
0.0
 20
0.0
 30
0.0
  3
*D55
  1

  0
LINE
  5
F14
330
B09
100
AcDbEntity
  8
AM_5
  6
ByBlock
100
AcDbLine
 10
130.6526828143242
 20
49.59014209961072
 30
0.0
 11
130.6526828143242
 21
66.28936913425992
 31
0.0
  0
LINE
  5
F15
330
B09
100
AcDbEntity
  8
AM_5
  6
ByBlock
100
AcDbLine
 10
133.2526828143244
 20
38.8901420996109
 30
0.0
 11
133.2526828143244
 21
66.28936913425992
 31
0.0
  0
LINE
  5
F16
330
B09
100
AcDbEntity
  8
AM_5
  6
ByBlock
100
AcDbLine
 10
135.7526828143244
 20
65.28936913425991
 30
0.0
 11
138.2526828143244
 21
65.28936913425991
 31
0.0
  0
LINE
  5
F17
330
B09
100
AcDbEntity
  8
AM_5
  6
ByBlock
100
AcDbLine
 10
128.1526828143242
 20
65.28936913425991
 30
0.0
 11
114.1614806652309
 21
65.28936913425991
 31
0.0
  0
LINE
  5
F18
330
B09
100
AcDbEntity
  8
AM_5
  6
ByBlock
100
AcDbLine
 10
133.2526828143244
 20
65.28936913425991
 30
0.0
 11
130.6526828143242
 21
65.28936913425991
 31
0.0
  0
INSERT
  5
F19
330
B09
100
AcDbEntity
  8
AM_5
100
AcDbBlockReference
  2
_Open
 10
133.2526828143244
 20
65.28936913425991
 30
0.0
 41
2.5
 42
2.5
 43
2.5
 50
180.0
  0
INSERT
  5
F1A
330
B09
100
AcDbEntity
  8
AM_5
100
AcDbBlockReference
  2
_Open
 10
130.6526828143242
 20
65.28936913425991
 30
0.0
 41
2.5
 42
2.5
 43
2.5
  0
MTEXT
  5
F1B
330
B09
100
AcDbEntity
  8
AM_5
 62
   140
100
AcDbMText
 10
119.9070817397776
 20
68.40233085353459
 30
0.0
 40
3.5
 41
0.0
 71
     5
 72
     1
  1
(2.6)
 73
     1
 44
1.0
1001
ACAD
1000
MTEXTBEGIN
1070
    73
1070
     1
1070
    44
1040
1.0
1070
    74
1070
     0
1000
MTEXTEND
  0
POINT
  5
F1C
330
B09
100
AcDbEntity
  8
Defpoints
 62
     0
100
AcDbPoint
 10
130.6526828143242
 20
49.09014209961071
 30
0.0
  0
POINT
  5
F1D
330
B09
100
AcDbEntity
  8
Defpoints
 62
     0
100
AcDbPoint
 10
133.2526828143244
 20
38.3901420996109
 30
0.0
  0
POINT
  5
F1E
330
B09
100
AcDbEntity
  8
Defpoints
 62
     0
100
AcDbPoint
 10
133.2526828143244
 20
65.28936913425991
 30
0.0
  0
ENDBLK
  5
B0B
330
B09
100
AcDbEntity
  8
0
100
AcDbBlockEnd
  0
BLOCK
  5
B68
330
B67
100
AcDbEntity
  8
0
100
AcDbBlockBegin
  2
*D56
 70
     1
 10
0.0
 20
0.0
 30
0.0
  3
*D56
  1

  0
LINE
  5
F1F
330
B67
100
AcDbEntity
  8
AM_5
  6
ByBlock
100
AcDbLine
 10
130.6526828143242
 20
49.59014209961072
 30
0.0
 11
130.6526828143242
 21
73.58013357973061
 31
0.0
  0
LINE
  5
F20
330
B67
100
AcDbEntity
  8
AM_5
  6
ByBlock
100
AcDbLine
 10
136.6526828143244
 20
34.3901420996109
 30
0.0
 11
136.6526828143244
 21
73.58013357973061
 31
0.0
  0
LINE
  5
F21
330
B67
100
AcDbEntity
  8
AM_5
  6
ByBlock
100
AcDbLine
 10
128.1526828143242
 20
72.58013357973061
 30
0.0
 11
125.6526828143242
 21
72.58013357973061
 31
0.0
  0
LINE
  5
F22
330
B67
100
AcDbEntity
  8
AM_5
  6
ByBlock
100
AcDbLine
 10
139.1526828143244
 20
72.58013357973061
 30
0.0
 11
149.0585928210403
 21
72.58013357973061
 31
0.0
  0
LINE
  5
F23
330
B67
100
AcDbEntity
  8
AM_5
  6
ByBlock
100
AcDbLine
 10
130.6526828143242
 20
72.58013357973061
 30
0.0
 11
136.6526828143244
 21
72.58013357973061
 31
0.0
  0
INSERT
  5
F24
330
B67
100
AcDbEntity
  8
AM_5
100
AcDbBlockReference
  2
_Open
 10
130.6526828143242
 20
72.58013357973061
 30
0.0
 41
2.5
 42
2.5
 43
2.5
  0
INSERT
  5
F25
330
B67
100
AcDbEntity
  8
AM_5
100
AcDbBlockReference
  2
_Open
 10
136.6526828143244
 20
72.58013357973061
 30
0.0
 41
2.5
 42
2.5
 43
2.5
 50
180.0
  0
MTEXT
  5
F26
330
B67
100
AcDbEntity
  8
AM_5
 62
   140
100
AcDbMText
 10
145.3556378176823
 20
75.69309529900529
 30
0.0
 40
3.5
 41
0.0
 71
     5
 72
     1
  1
(6)
 73
     1
 44
1.0
1001
ACAD
1000
MTEXTBEGIN
1070
    73
1070
     1
1070
    44
1040
1.0
1070
    74
1070
     0
1000
MTEXTEND
  0
POINT
  5
F27
330
B67
100
AcDbEntity
  8
Defpoints
 62
     0
100
AcDbPoint
 10
130.6526828143242
 20
49.09014209961071
 30
0.0
  0
POINT
  5
F28
330
B67
100
AcDbEntity
  8
Defpoints
 62
     0
100
AcDbPoint
 10
136.6526828143244
 20
33.8901420996109
 30
0.0
  0
POINT
  5
F29
330
B67
100
AcDbEntity
  8
Defpoints
 62
     0
100
AcDbPoint
 10
136.6526828143244
 20
72.58013357973061
 30
0.0
  0
ENDBLK
  5
B69
330
B67
100
AcDbEntity
  8
0
100
AcDbBlockEnd
  0
BLOCK
  5
BB0
330
BAF
100
AcDbEntity
  8
0
100
AcDbBlockBegin
  2
*D57
 70
     1
 10
0.0
 20
0.0
 30
0.0
  3
*D57
  1

  0
LINE
  5
F2A
330
BAF
100
AcDbEntity
  8
AM_5
  6
ByBlock
100
AcDbLine
 10
133.2526828143244
 20
28.8901420996109
 30
0.0
 11
146.7526828143244
 21
28.8901420996109
 31
0.0
  0
LINE
  5
F2B
330
BAF
100
AcDbEntity
  8
AM_5
  6
ByBlock
100
AcDbLine
 10
133.2526828143244
 20
38.8901420996109
 30
0.0
 11
146.7526828143244
 21
38.89014209961089
 31
0.0
  0
LINE
  5
F2C
330
BAF
100
AcDbEntity
  8
AM_5
  6
ByBlock
100
AcDbLine
 10
145.7526828143244
 20
31.3901420996109
 30
0.0
 11
145.7526828143244
 21
36.39014209961089
 31
0.0
  0
INSERT
  5
F2D
330
BAF
100
AcDbEntity
  8
AM_5
100
AcDbBlockReference
  2
_Open
 10
145.7526828143244
 20
28.8901420996109
 30
0.0
 41
2.5
 42
2.5
 43
2.5
 50
270.0
  0
INSERT
  5
F2E
330
BAF
100
AcDbEntity
  8
AM_5
100
AcDbBlockReference
  2
_Open
 10
145.7526828143244
 20
38.89014209961089
 30
0.0
 41
2.5
 42
2.5
 43
2.5
 50
90.0
  0
MTEXT
  5
F2F
330
BAF
100
AcDbEntity
  8
AM_5
 62
   140
100
AcDbMText
 10
143.1309904033103
 20
33.89014209961092
 30
0.0
 40
3.5
 41
0.0
 71
     5
 72
     1
  1
%%c10
 11
0.0000000000000001
 21
1.0
 31
0.0
 73
     1
 44
1.0
1001
ACAD
1000
MTEXTBEGIN
1070
    73
1070
     1
1070
    44
1040
1.0
1070
    74
1070
     0
1000
MTEXTEND
  0
POINT
  5
F30
330
BAF
100
AcDbEntity
  8
Defpoints
 62
     0
100
AcDbPoint
 10
132.7526828143244
 20
28.8901420996109
 30
0.0
  0
POINT
  5
F31
330
BAF
100
AcDbEntity
  8
Defpoints
 62
     0
100
AcDbPoint
 10
132.7526828143244
 20
38.8901420996109
 30
0.0
  0
POINT
  5
F32
330
BAF
100
AcDbEntity
  8
Defpoints
 62
     0
100
AcDbPoint
 10
145.7526828143244
 20
38.89014209961089
 30
0.0
  0
ENDBLK
  5
BB1
330
BAF
100
AcDbEntity
  8
0
100
AcDbBlockEnd
  0
BLOCK
  5
BE3
330
BE2
100
AcDbEntity
  8
0
100
AcDbBlockBegin
  2
*D58
 70
     1
 10
0.0
 20
0.0
 30
0.0
  3
*D58
  1

  0
LINE
  5
F33
330
BE2
100
AcDbEntity
  8
AM_5
  6
ByBlock
100
AcDbLine
 10
131.1526828143242
 20
49.09014209961071
 30
0.0
 11
154.1019455305131
 21
49.09014209961071
 31
0.0
  0
LINE
  5
F34
330
BE2
100
AcDbEntity
  8
AM_5
  6
ByBlock
100
AcDbLine
 10
131.1526828143242
 20
18.69014209961017
 30
0.0
 11
154.1019455305131
 21
18.69014209961016
 31
0.0
  0
LINE
  5
F35
330
BE2
100
AcDbEntity
  8
AM_5
  6
ByBlock
100
AcDbLine
 10
153.1019455305131
 20
46.5901420996107
 30
0.0
 11
153.1019455305131
 21
21.19014209961016
 31
0.0
  0
INSERT
  5
F36
330
BE2
100
AcDbEntity
  8
AM_5
100
AcDbBlockReference
  2
_Open
 10
153.1019455305131
 20
49.09014209961071
 30
0.0
 41
2.5
 42
2.5
 43
2.5
 50
90.0
  0
INSERT
  5
F37
330
BE2
100
AcDbEntity
  8
AM_5
100
AcDbBlockReference
  2
_Open
 10
153.1019455305131
 20
18.69014209961016
 30
0.0
 41
2.5
 42
2.5
 43
2.5
 50
270.0
  0
MTEXT
  5
F38
330
BE2
100
AcDbEntity
  8
AM_5
 62
   140
100
AcDbMText
 10
150.4790778340725
 20
33.89014209961047
 30
0.0
 40
3.5
 41
0.0
 71
     5
 72
     1
  1
%%c30.4
 11
0.0000000000000001
 21
1.0
 31
0.0
 73
     1
 44
1.0
1001
ACAD
1000
MTEXTBEGIN
1070
    73
1070
     1
1070
    44
1040
1.0
1070
    74
1070
     0
1000
MTEXTEND
  0
POINT
  5
F39
330
BE2
100
AcDbEntity
  8
Defpoints
 62
     0
100
AcDbPoint
 10
130.6526828143242
 20
49.09014209961071
 30
0.0
  0
POINT
  5
F3A
330
BE2
100
AcDbEntity
  8
Defpoints
 62
     0
100
AcDbPoint
 10
130.6526828143242
 20
18.69014209961017
 30
0.0
  0
POINT
  5
F3B
330
BE2
100
AcDbEntity
  8
Defpoints
 62
     0
100
AcDbPoint
 10
153.1019455305131
 20
18.69014209961016
 30
0.0
  0
ENDBLK
  5
BE4
330
BE2
100
AcDbEntity
  8
0
100
AcDbBlockEnd
  0
BLOCK
  5
C53
330
C52
100
AcDbEntity
  8
0
100
AcDbBlockBegin
  2
*D59
 70
     1
 10
0.0
 20
0.0
 30
0.0
  3
*D59
  1

  0
LINE
  5
F3C
330
C52
100
AcDbEntity
  8
AM_5
  6
ByBlock
100
AcDbLine
 10
114.1526828143244
 20
50.65694660933769
 30
0.0
 11
161.0316555013966
 21
50.65694660933768
 31
0.0
  0
LINE
  5
F3D
330
C52
100
AcDbEntity
  8
AM_5
  6
ByBlock
100
AcDbLine
 10
114.1526828143244
 20
17.20744147890775
 30
0.0
 11
161.0316555013966
 21
17.20744147890774
 31
0.0
  0
LINE
  5
F3E
330
C52
100
AcDbEntity
  8
AM_5
  6
ByBlock
100
AcDbLine
 10
160.0316555013966
 20
48.15694660933768
 30
0.0
 11
160.0316555013966
 21
19.70744147890774
 31
0.0
  0
INSERT
  5
F3F
330
C52
100
AcDbEntity
  8
AM_5
100
AcDbBlockReference
  2
_Open
 10
160.0316555013966
 20
50.65694660933768
 30
0.0
 41
2.5
 42
2.5
 43
2.5
 50
90.0
  0
INSERT
  5
F40
330
C52
100
AcDbEntity
  8
AM_5
100
AcDbBlockReference
  2
_Open
 10
160.0316555013966
 20
17.20744147890774
 30
0.0
 41
2.5
 42
2.5
 43
2.5
 50
270.0
  0
MTEXT
  5
F41
330
C52
100
AcDbEntity
  8
AM_5
 62
   140
100
AcDbMText
 10
157.4087878049561
 20
33.93219404412274
 30
0.0
 40
3.5
 41
0.0
 71
     5
 72
     1
  1
%%c33.5MAX
 11
0.0000000000000001
 21
1.0
 31
0.0
 73
     1
 44
1.0
1001
ACAD
1000
MTEXTBEGIN
1070
    73
1070
     1
1070
    44
1040
1.0
1070
    74
1070
     0
1000
MTEXTEND
  0
POINT
  5
F42
330
C52
100
AcDbEntity
  8
Defpoints
 62
     0
100
AcDbPoint
 10
113.6526828143244
 20
50.65694660933769
 30
0.0
  0
POINT
  5
F43
330
C52
100
AcDbEntity
  8
Defpoints
 62
     0
100
AcDbPoint
 10
113.6526828143244
 20
17.20744147890775
 30
0.0
  0
POINT
  5
F44
330
C52
100
AcDbEntity
  8
Defpoints
 62
     0
100
AcDbPoint
 10
160.0316555013966
 20
17.20744147890774
 30
0.0
  0
ENDBLK
  5
C54
330
C52
100
AcDbEntity
  8
0
100
AcDbBlockEnd
  0
BLOCK
  5
CB3
330
CB2
100
AcDbEntity
  8
0
100
AcDbBlockBegin
  2
*D60
 70
     1
 10
0.0
 20
0.0
 30
0.0
  3
*D60
  1

  0
LINE
  5
F45
330
CB2
100
AcDbEntity
  8
AM_5
  6
ByBlock
100
AcDbLine
 10
130.6526828143242
 20
18.19014209961017
 30
0.0
 11
130.6526828143242
 21
7.967939660838055
 31
0.0
  0
LINE
  5
F46
330
CB2
100
AcDbEntity
  8
AM_5
  6
ByBlock
100
AcDbLine
 10
135.6526828143208
 20
33.39014209961045
 30
0.0
 11
135.6526828143208
 21
7.967939660838055
 31
0.0
  0
LINE
  5
F47
330
CB2
100
AcDbEntity
  8
AM_5
  6
ByBlock
100
AcDbLine
 10
138.1526828143208
 20
8.967939660838055
 30
0.0
 11
140.6526828143208
 21
8.967939660838055
 31
0.0
  0
LINE
  5
F48
330
CB2
100
AcDbEntity
  8
AM_5
  6
ByBlock
100
AcDbLine
 10
128.1526828143242
 20
8.967939660838055
 30
0.0
 11
118.2467728076083
 21
8.967939660838055
 31
0.0
  0
LINE
  5
F49
330
CB2
100
AcDbEntity
  8
AM_5
  6
ByBlock
100
AcDbLine
 10
135.6526828143208
 20
8.967939660838055
 30
0.0
 11
130.6526828143242
 21
8.967939660838055
 31
0.0
  0
INSERT
  5
F4A
330
CB2
100
AcDbEntity
  8
AM_5
100
AcDbBlockReference
  2
_Open
 10
135.6526828143208
 20
8.967939660838055
 30
0.0
 41
2.5
 42
2.5
 43
2.5
 50
180.0
  0
INSERT
  5
F4B
330
CB2
100
AcDbEntity
  8
AM_5
100
AcDbBlockReference
  2
_Open
 10
130.6526828143242
 20
8.967939660838055
 30
0.0
 41
2.5
 42
2.5
 43
2.5
  0
MTEXT
  5
F4C
330
CB2
100
AcDbEntity
  8
AM_5
 62
   140
100
AcDbMText
 10
121.9497278109663
 20
12.08090138011274
 30
0.0
 40
3.5
 41
0.0
 71
     5
 72
     1
  1
(5)
 73
     1
 44
1.0
1001
ACAD
1000
MTEXTBEGIN
1070
    73
1070
     1
1070
    44
1040
1.0
1070
    74
1070
     0
1000
MTEXTEND
  0
POINT
  5
F4D
330
CB2
100
AcDbEntity
  8
Defpoints
 62
     0
100
AcDbPoint
 10
130.6526828143242
 20
18.69014209961017
 30
0.0
  0
POINT
  5
F4E
330
CB2
100
AcDbEntity
  8
Defpoints
 62
     0
100
AcDbPoint
 10
135.6526828143208
 20
33.89014209961044
 30
0.0
  0
POINT
  5
F4F
330
CB2
100
AcDbEntity
  8
Defpoints
 62
     0
100
AcDbPoint
 10
135.6526828143208
 20
8.967939660838055
 30
0.0
  0
ENDBLK
  5
CB4
330
CB2
100
AcDbEntity
  8
0
100
AcDbBlockEnd
  0
BLOCK
  5
1135
330
112D
100
AcDbEntity
  8
0
100
AcDbBlockBegin
  2
*S62
 70
     1
 10
0.0
 20
0.0
 30
0.0
  3
*S62
  1

  0
LINE
  5
112E
330
112D
100
AcDbEntity
  8
AM_5
  6
Continuous
 62
    92
100
AcDbLine
 10
38.18818243266312
 20
64.19227963926028
 30
0.0
 11
13.4197098458141
 21
64.19227963926028
 31
0.0
  0
LINE
  5
112F
330
112D
100
AcDbEntity
  8
AM_5
  6
Continuous
 62
    92
100
AcDbLine
 10
13.4197098458141
 20
64.19227963926028
 30
0.0
 11
20.15617710796328
 21
37.2733388477801
 31
0.0
  0
LINE
  5
1130
330
112D
100
AcDbEntity
  8
AM_5
  6
Continuous
 62
    92
100
AcDbLine
 10
20.15617710796328
 20
37.2733388477801
 30
0.0
 11
20.76308698971569
 21
34.84812537358215
 31
0.0
  0
LINE
  5
1131
330
112D
100
AcDbEntity
  8
AM_5
  6
Continuous
 62
    92
100
AcDbLine
 10
19.50634312197485
 20
37.11071783656154
 30
0.0
 11
20.76308698971569
 21
34.84812537358215
 31
0.0
  0
LINE
  5
1132
330
112D
100
AcDbEntity
  8
AM_5
  6
Continuous
 62
    92
100
AcDbLine
 10
20.76308698971569
 20
34.84812537358215
 30
0.0
 11
20.80601109395171
 21
37.43595985899865
 31
0.0
  0
MTEXT
  5
1133
102
{ACAD_XDICTIONARY
360
119C
102
}
330
112D
100
AcDbEntity
  8
AM_5
 62
   140
100
AcDbMText
 10
16.9197098458141
 20
68.47972087498895
 30
0.0
 40
3.5
 41
0.0
 71
     1
 72
     5
  1
2-M3\P\U+6709\U+52B9\U+6DF1\U+30555
 73
     1
 44
1.0
1001
ACAD
1000
MTEXTBEGIN
1070
    73
1070
     1
1070
    44
1040
1.0
1070
    74
1070
     0
1000
MTEXTEND
  0
LINE
  5
1134
330
112D
100
AcDbEntity
  8
AM_5
  6
Continuous
 62
    92
100
AcDbLine
 10
16.9197098458141
 20
64.19227963926028
 30
0.0
 11
38.18818243266312
 21
64.19227963926028
 31
0.0
  0
ENDBLK
  5
1136
330
112D
100
AcDbEntity
  8
0
100
AcDbBlockEnd
  0
BLOCK
  5
113F
330
1138
100
AcDbEntity
  8
0
100
AcDbBlockBegin
  2
*S63
 70
     1
 10
0.0
 20
0.0
 30
0.0
  3
*S63
  1

  0
LINE
  5
1139
330
1138
100
AcDbEntity
  8
AM_5
  6
Continuous
 62
    92
100
AcDbLine
 10
190.293141975582
 20
55.94629757190839
 30
0.0
 11
206.8099756497991
 21
55.94629757190839
 31
0.0
  0
LINE
  5
113A
330
1138
100
AcDbEntity
  8
AM_5
  6
Continuous
 62
    92
100
AcDbLine
 10
206.8099756497991
 20
55.94629757190839
 30
0.0
 11
197.0644116048469
 21
36.13344797392183
 31
0.0
  0
LINE
  5
113B
330
1138
100
AcDbEntity
  8
AM_5
  6
Continuous
 62
    92
100
AcDbLine
 10
197.0644116048469
 20
36.13344797392183
 30
0.0
 11
195.9609720939175
 21
33.89014209961044
 31
0.0
  0
LINE
  5
113C
330
1138
100
AcDbEntity
  8
AM_5
  6
Continuous
 62
    92
100
AcDbLine
 10
196.4633196129029
 20
36.42911369708935
 30
0.0
 11
195.9609720939175
 21
33.89014209961044
 31
0.0
  0
LINE
  5
113D
330
1138
100
AcDbEntity
  8
AM_5
  6
Continuous
 62
    92
100
AcDbLine
 10
195.9609720939175
 20
33.89014209961044
 30
0.0
 11
197.6655035967908
 21
35.83778225075433
 31
0.0
  0
MTEXT
  5
113E
102
{ACAD_XDICTIONARY
360
119E
102
}
330
1138
100
AcDbEntity
  8
AM_5
 62
   140
100
AcDbMText
 10
190.293141975582
 20
57.69629757190839
 30
0.0
 40
3.5
 41
0.0
 71
     7
 72
     5
  1
+\U+7AEF\U+5B50
 73
     1
 44
1.0
1001
ACAD
1000
MTEXTBEGIN
1070
    73
1070
     1
1070
    44
1040
1.0
1070
    74
1070
     0
1000
MTEXTEND
  0
ENDBLK
  5
1140
330
1138
100
AcDbEntity
  8
0
100
AcDbBlockEnd
  0
BLOCK
  5
1149
330
1142
100
AcDbEntity
  8
0
100
AcDbBlockBegin
  2
*S64
 70
     1
 10
0.0
 20
0.0
 30
0.0
  3
*S64
  1

  0
LINE
  5
1143
330
1142
100
AcDbEntity
  8
AM_5
  6
Continuous
 62
    92
100
AcDbLine
 10
164.2939774256891
 20
8.964302481663708
 30
0.0
 11
141.04681833478
 21
8.964302481663708
 31
0.0
  0
LINE
  5
1144
330
1142
100
AcDbEntity
  8
AM_5
  6
Continuous
 62
    92
100
AcDbLine
 10
141.04681833478
 20
8.964302481663708
 30
0.0
 11
135.7602515450073
 21
30.06509359751972
 31
0.0
  0
LINE
  5
1145
330
1142
100
AcDbEntity
  8
AM_5
  6
Continuous
 62
    92
100
AcDbLine
 10
135.7602515450073
 20
30.06509359751972
 30
0.0
 11
135.1526828143208
 21
32.49014209961035
 31
0.0
  0
LINE
  5
1146
330
1142
100
AcDbEntity
  8
AM_5
  6
Continuous
 62
    92
100
AcDbLine
 10
136.4100413268532
 20
30.22789114677647
 30
0.0
 11
135.1526828143208
 21
32.49014209961035
 31
0.0
  0
LINE
  5
1147
330
1142
100
AcDbEntity
  8
AM_5
  6
Continuous
 62
    92
100
AcDbLine
 10
135.1526828143208
 20
32.49014209961035
 30
0.0
 11
135.1104617631614
 21
29.90229604826295
 31
0.0
  0
MTEXT
  5
1148
102
{ACAD_XDICTIONARY
360
11A0
102
}
330
1142
100
AcDbEntity
  8
AM_5
 62
   140
100
AcDbMText
 10
144.54681833478
 20
10.71430248166371
 30
0.0
 40
3.5
 41
0.0
 71
     7
 72
     5
  1
\U+5165\U+529B\U+7AEF\U+5B50
 73
     1
 44
1.0
1001
ACAD
1000
MTEXTBEGIN
1070
    73
1070
     1
1070
    44
1040
1.0
1070
    74
1070
     0
1000
MTEXTEND
  0
ENDBLK
  5
114A
330
1142
100
AcDbEntity
  8
0
100
AcDbBlockEnd
  0
BLOCK
  5
1152
330
114C
100
AcDbEntity
  8
0
100
AcDbBlockBegin
  2
*S65
 70
     1
 10
0.0
 20
0.0
 30
0.0
  3
*S65
  1

  0
LINE
  5
114D
330
114C
100
AcDbEntity
  8
AM_5
  6
Continuous
 62
    92
100
AcDbLine
 10
110.116727436751
 20
56.45848242581113
 30
0.0
 11
90.78041955038884
 21
56.45848242581113
 31
0.0
  0
LINE
  5
114E
330
114C
100
AcDbEntity
  8
AM_5
  6
Continuous
 62
    92
100
AcDbLine
 10
90.78041955038884
 20
56.45848242581113
 30
0.0
 11
94.14561648870467
 21
49.22635071729451
 31
0.0
  0
HATCH
  5
114F
330
114C
100
AcDbEntity
  8
AM_5
 62
    92
100
AcDbHatch
 10
0.0
 20
0.0
 30
0.0
210
0.0
220
0.0
230
1.0
  2
SOLID
 70
     1
 71
     0
 91
        1
 92
        0
 93
        1
 72
     2
 10
95.20030788631203
 20
46.95971751895538
 40
0.4464285714285717
 50
0.0
 51
360.0
 73
     1
 97
        0
 75
     0
 76
     1
 98
        1
 10
95.20030788631203
 20
46.95971751895538
  0
LINE
  5
1150
330
114C
100
AcDbEntity
  8
AM_5
  6
Continuous
 62
    92
100
AcDbLine
 10
95.01197013673928
 20
47.36447344723023
 30
0.0
 11
94.14561648870467
 21
49.22635071729451
 31
0.0
  0
MTEXT
  5
1151
102
{ACAD_XDICTIONARY
360
11A2
102
}
330
114C
100
AcDbEntity
  8
AM_5
 62
   140
100
AcDbMText
 10
90.36956834584191
 20
58.20848242581113
 30
0.0
 40
3.5
 41
0.0
 71
     7
 72
     5
  1
\U+5B9A\U+683C\U+9298\U+677F
 73
     1
 44
1.0
1001
ACAD
1000
MTEXTBEGIN
1070
    73
1070
     1
1070
    44
1040
1.0
1070
    74
1070
     0
1000
MTEXTEND
  0
ENDBLK
  5
1153
330
114C
100
AcDbEntity
  8
0
100
AcDbBlockEnd
  0
ENDSEC
  0
SECTION
  2
ENTITIES
  0
LWPOLYLINE
  5
C8
330
67
100
AcDbEntity
  8
AM_VIEWS
  6
Continuous
100
AcDbPolyline
 90
        4
 70
     1
 43
0.0
 10
0.0
 20
0.0
 10
220.793655024101
 20
0.0
 10
220.793655024101
 20
80.0
 10
0.0
 20
80.0
  0
LWPOLYLINE
  5
2D7
330
67
100
AcDbEntity
  8
AM_VIEWS
100
AcDbPolyline
 90
        2
 70
     0
 43
0.0
 10
220.793655024101
 20
-0.0000000000000071
 10
220.793655024101
 20
80.0
1001
GENIUS_GENSCREG_15
1040
1.0
1040
1.0
1011
0.0
1021
0.0
1031
0.0
1011
220.793655024101
1021
80.0
1031
0.0
1070
     2
1001
GENIUS_GENODEF_13
1002
{
1000
HIER
1070
     0
1002
}
1002
{
1000
MANEDIT
1070
     0
1002
}
1002
{
1000
NOSEL
1070
     0
1002
}
1002
{
1000
BEHIND
1070
     0
1002
}
1002
{
1000
OTHER
1070
     0
1002
}
1002
{
1000
REACTOR
1002
}
1001
GENIUS_GENOBJ-N-SDF_13
1002
{
1000
OWNER
1000
GEN
1002
}
  0
LWPOLYLINE
  5
2D8
330
67
100
AcDbEntity
  8
AM_VIEWS
100
AcDbPolyline
 90
        2
 70
     0
 43
0.0
 10
220.793655024101
 20
80.0
 10
-0.0000000000000044
 20
80.0
1001
GENIUS_GENSCREG_15
1040
1.0
1040
1.0
1011
0.0
1021
0.0
1031
0.0
1011
220.793655024101
1021
80.0
1031
0.0
1070
     2
1001
GENIUS_GENODEF_13
1002
{
1000
HIER
1070
     0
1002
}
1002
{
1000
MANEDIT
1070
     0
1002
}
1002
{
1000
NOSEL
1070
     0
1002
}
1002
{
1000
BEHIND
1070
     0
1002
}
1002
{
1000
OTHER
1070
     0
1002
}
1002
{
1000
REACTOR
1002
}
1001
GENIUS_GENOBJ-N-SDF_13
1002
{
1000
OWNER
1000
GEN
1002
}
  0
LWPOLYLINE
  5
2D9
330
67
100
AcDbEntity
  8
AM_VIEWS
100
AcDbPolyline
 90
        3
 70
     0
 43
0.0
 10
-0.0000000000000044
 20
80.0
 10
0.0
 20
0.0
 10
180.0
 20
-0.0000000000000071
1001
GENIUS_GENSCREG_15
1040
1.0
1040
1.0
1011
0.0
1021
0.0
1031
0.0
1011
180.0
1021
80.0
1031
0.0
1070
     2
1001
GENIUS_GENODEF_13
1002
{
1000
HIER
1070
     0
1002
}
1002
{
1000
MANEDIT
1070
     0
1002
}
1002
{
1000
NOSEL
1070
     0
1002
}
1002
{
1000
BEHIND
1070
     0
1002
}
1002
{
1000
OTHER
1070
     0
1002
}
1002
{
1000
REACTOR
1002
}
1001
GENIUS_GENOBJ-N-SDF_13
1002
{
1000
OWNER
1000
GEN
1002
}
  0
LWPOLYLINE
  5
2DA
330
67
100
AcDbEntity
  8
AM_VIEWS
100
AcDbPolyline
 90
        2
 70
     0
 43
0.0
 10
0.0
 20
0.0
 10
62.5
 20
0.0
1001
GENIUS_GENSCREG_15
1040
1.0
1040
1.0
1011
0.0
1021
-45.0
1031
0.0
1011
62.5
1021
0.0
1031
0.0
1070
     2
1001
GENIUS_GENOBJ-N-SDF_13
1002
{
1000
OWNER
1000
GEN
1002
}
1001
GENIUS_GENODEF_13
1002
{
1000
HIER
1070
     0
1002
}
1002
{
1000
MANEDIT
1070
     0
1002
}
1002
{
1000
NOSEL
1070
     0
1002
}
1002
{
1000
BEHIND
1070
     0
1002
}
1002
{
1000
OTHER
1070
     0
1002
}
1002
{
1000
REACTOR
1002
}
  0
LWPOLYLINE
  5
2DB
330
67
100
AcDbEntity
  8
AM_VIEWS
100
AcDbPolyline
 90
        2
 70
     0
 43
0.0
 10
73.7313392340485
 20
-0.0000000000000069
 10
161.7661319176011
 20
-0.0000000000000069
1001
GENIUS_GENSCREG_15
1040
1.0
1040
1.0
1011
73.7313392340485
1021
-48.8577448430018
1031
0.0
1011
161.7661319176011
1021
-0.0000000000000069
1031
0.0
1070
     2
1001
GENIUS_GENODEF_13
1002
{
1000
HIER
1070
     0
1002
}
1002
{
1000
MANEDIT
1070
     0
1002
}
1002
{
1000
NOSEL
1070
     0
1002
}
1002
{
1000
BEHIND
1070
     0
1002
}
1002
{
1000
OTHER
1070
     0
1002
}
1002
{
1000
REACTOR
1002
}
1001
GENIUS_GENOBJ-N-SDF_13
1002
{
1000
OWNER
1000
GEN
1002
}
  0
LINE
  5
7B0
330
67
100
AcDbEntity
  8
AM_7
  6
CENTERX2
370
     0
100
AcDbLine
 10
51.52904551823858
 20
33.8901420996109
 30
0.0
 11
13.3056067884082
 21
33.8901420996109
 31
0.0
  0
LINE
  5
7B1
330
67
100
AcDbEntity
  8
AM_7
  6
CENTERX2
370
     0
100
AcDbLine
 10
32.41732615332339
 20
53.00186146452609
 30
0.0
 11
32.41732615332339
 21
14.77842273469571
 31
0.0
  0
LINE
  5
7B2
330
67
100
AcDbEntity
  8
AM_0
370
    30
100
AcDbLine
 10
172.3609720939175
 20
32.99014209961035
 30
0.0
 11
172.3609720939175
 21
32.49014209961035
 31
0.0
  0
LINE
  5
7B3
330
67
100
AcDbEntity
  8
AM_0
370
    30
100
AcDbLine
 10
172.3609720939175
 20
32.49014209961035
 30
0.0
 11
172.8609720939175
 21
32.49014209961035
 31
0.0
  0
LINE
  5
7B4
330
67
100
AcDbEntity
  8
AM_0
370
    30
100
AcDbLine
 10
172.8609720939175
 20
32.49014209961035
 30
0.0
 11
172.8609720939175
 21
32.99014209961035
 31
0.0
  0
LINE
  5
7B5
330
67
100
AcDbEntity
  8
AM_0
370
    30
100
AcDbLine
 10
172.8609720939175
 20
32.99014209961035
 30
0.0
 11
172.3609720939175
 21
32.99014209961035
 31
0.0
  0
LINE
  5
7B6
330
67
100
AcDbEntity
  8
AM_0
370
    30
100
AcDbLine
 10
172.3609720939175
 20
35.29014209961053
 30
0.0
 11
172.3609720939175
 21
34.79014209961054
 31
0.0
  0
LINE
  5
7B7
330
67
100
AcDbEntity
  8
AM_0
370
    30
100
AcDbLine
 10
172.3609720939175
 20
34.79014209961054
 30
0.0
 11
172.8609720939175
 21
34.79014209961054
 31
0.0
  0
LINE
  5
7B8
330
67
100
AcDbEntity
  8
AM_0
370
    30
100
AcDbLine
 10
172.8609720939175
 20
34.79014209961054
 30
0.0
 11
172.8609720939175
 21
35.29014209961053
 31
0.0
  0
LINE
  5
7B9
330
67
100
AcDbEntity
  8
AM_0
370
    30
100
AcDbLine
 10
172.8609720939175
 20
35.29014209961053
 30
0.0
 11
172.3609720939175
 21
35.29014209961053
 31
0.0
  0
LINE
  5
7BA
330
67
100
AcDbEntity
  8
AM_0
370
    30
100
AcDbLine
 10
172.3609720939175
 20
32.99014209961035
 30
0.0
 11
172.3609720939175
 21
34.79014209961054
 31
0.0
  0
LINE
  5
7BB
330
67
100
AcDbEntity
  8
AM_0
370
    30
100
AcDbLine
 10
172.8609720939175
 20
34.79014209961054
 30
0.0
 11
172.8609720939175
 21
32.99014209961035
 31
0.0
  0
LINE
  5
7BC
330
67
100
AcDbEntity
  8
AM_0
370
    30
100
AcDbLine
 10
195.4609720939175
 20
32.99014209961035
 30
0.0
 11
195.4609720939175
 21
34.79014209961054
 31
0.0
  0
LINE
  5
7BD
330
67
100
AcDbEntity
  8
AM_0
370
    30
100
AcDbLine
 10
195.9609720939175
 20
34.79014209961054
 30
0.0
 11
195.9609720939175
 21
32.99014209961035
 31
0.0
  0
LINE
  5
7BE
330
67
100
AcDbEntity
  8
AM_0
370
    30
100
AcDbLine
 10
195.4609720939175
 20
32.99014209961035
 30
0.0
 11
195.4609720939175
 21
32.49014209961035
 31
0.0
  0
LINE
  5
7BF
330
67
100
AcDbEntity
  8
AM_0
370
    30
100
AcDbLine
 10
195.4609720939175
 20
32.49014209961035
 30
0.0
 11
195.9609720939175
 21
32.49014209961035
 31
0.0
  0
LINE
  5
7C0
330
67
100
AcDbEntity
  8
AM_0
370
    30
100
AcDbLine
 10
195.9609720939175
 20
32.49014209961035
 30
0.0
 11
195.9609720939175
 21
32.99014209961035
 31
0.0
  0
LINE
  5
7C1
330
67
100
AcDbEntity
  8
AM_0
370
    30
100
AcDbLine
 10
195.9609720939175
 20
32.99014209961035
 30
0.0
 11
195.4609720939175
 21
32.99014209961035
 31
0.0
  0
LINE
  5
7C2
330
67
100
AcDbEntity
  8
AM_0
370
    30
100
AcDbLine
 10
195.4609720939175
 20
35.29014209961053
 30
0.0
 11
195.4609720939175
 21
34.79014209961054
 31
0.0
  0
LINE
  5
7C3
330
67
100
AcDbEntity
  8
AM_0
370
    30
100
AcDbLine
 10
195.4609720939175
 20
34.79014209961054
 30
0.0
 11
195.9609720939175
 21
34.79014209961054
 31
0.0
  0
LINE
  5
7C4
330
67
100
AcDbEntity
  8
AM_0
370
    30
100
AcDbLine
 10
195.9609720939175
 20
34.79014209961054
 30
0.0
 11
195.9609720939175
 21
35.29014209961053
 31
0.0
  0
LINE
  5
7C5
330
67
100
AcDbEntity
  8
AM_0
370
    30
100
AcDbLine
 10
195.9609720939175
 20
35.29014209961053
 30
0.0
 11
195.4609720939175
 21
35.29014209961053
 31
0.0
  0
CIRCLE
  5
7C6
330
67
100
AcDbEntity
  8
AM_0
370
    30
100
AcDbCircle
 10
184.1609720939176
 20
33.8901420996109
 30
0.0
 40
4.5
  0
CIRCLE
  5
7C7
330
67
100
AcDbEntity
  8
AM_0
370
    30
100
AcDbCircle
 10
184.1609720939176
 20
33.8901420996109
 30
0.0
 40
5.0
  0
CIRCLE
  5
7C8
330
67
100
AcDbEntity
  8
AM_0
370
    30
100
AcDbCircle
 10
184.1609720939176
 20
33.8901420996109
 30
0.0
 40
1.584999999999999
  0
LINE
  5
7C9
330
67
100
AcDbEntity
  8
AM_0
370
    30
100
AcDbLine
 10
182.6609720939176
 20
18.76433633594945
 30
0.0
 11
182.6609720939176
 21
17.20744147890775
 31
0.0
  0
ARC
  5
7CA
330
67
100
AcDbEntity
  8
AM_0
370
    30
100
AcDbCircle
 10
184.1609720939175
 20
33.8901420996109
 30
0.0
 40
16.75
100
AcDbArc
 50
275.1378482490326
 51
264.8621517509673
  0
LINE
  5
7CB
330
67
100
AcDbEntity
  8
AM_0
370
    30
100
AcDbLine
 10
185.6609720939174
 20
17.20744147890775
 30
0.0
 11
185.6609720939174
 21
18.76433633594945
 31
0.0
  0
CIRCLE
  5
7CC
330
67
100
AcDbEntity
  8
AM_0
370
    30
100
AcDbCircle
 10
184.1609720939176
 20
33.8901420996109
 30
0.0
 40
15.2
  0
ARC
  5
7CD
330
67
100
AcDbEntity
  8
AM_0
370
    30
100
AcDbCircle
 10
133.6526828143208
 20
33.8901420996109
 30
0.0
 40
0.7499999999999999
100
AcDbArc
 50
90.0
 51
270.0
  0
LINE
  5
7CE
330
67
100
AcDbEntity
  8
AM_0
370
    30
100
AcDbLine
 10
133.6526828143208
 20
34.6401420996109
 30
0.0
 11
134.1526828143208
 21
34.6401420996109
 31
0.0
  0
ARC
  5
7CF
330
67
100
AcDbEntity
  8
AM_0
370
    30
100
AcDbCircle
 10
134.1526828143208
 20
33.8901420996109
 30
0.0
 40
0.7500000000000002
100
AcDbArc
 50
270.0
 51
90.0
  0
LINE
  5
7D0
330
67
100
AcDbEntity
  8
AM_0
370
    30
100
AcDbLine
 10
134.1526828143208
 20
33.1401420996109
 30
0.0
 11
133.6526828143208
 21
33.1401420996109
 31
0.0
  0
LINE
  5
7D1
330
67
100
AcDbEntity
  8
AM_0
370
    30
100
AcDbLine
 10
135.6526828143208
 20
32.99014209961035
 30
0.0
 11
135.1526828143208
 21
32.49014209961035
 31
0.0
  0
LINE
  5
7D2
330
67
100
AcDbEntity
  8
AM_0
370
    30
100
AcDbLine
 10
135.1526828143208
 20
35.29014209961053
 30
0.0
 11
135.6526828143208
 21
34.79014209961054
 31
0.0
  0
LINE
  5
7D3
330
67
100
AcDbEntity
  8
AM_0
370
    30
100
AcDbLine
 10
135.6526828143208
 20
32.99014209961035
 30
0.0
 11
135.6526828143208
 21
34.79014209961054
 31
0.0
  0
LINE
  5
7D4
330
67
100
AcDbEntity
  8
AM_0
370
    30
100
AcDbLine
 10
130.6526828143208
 20
35.29014209961053
 30
0.0
 11
135.1526828143208
 21
35.29014209961053
 31
0.0
  0
LINE
  5
7D5
330
67
100
AcDbEntity
  8
AM_0
370
    30
100
AcDbLine
 10
130.6526828143208
 20
32.49014209961035
 30
0.0
 11
135.1526828143208
 21
32.49014209961035
 31
0.0
  0
LINE
  5
7D6
330
67
100
AcDbEntity
  8
AM_0
370
    30
100
AcDbLine
 10
133.252682814323
 20
32.49014209961035
 30
0.0
 11
133.2526828143244
 21
29.3901420996109
 31
0.0
  0
LINE
  5
7D7
330
67
100
AcDbEntity
  8
AM_0
370
    30
100
AcDbLine
 10
133.252682814323
 20
34.5245709766333
 30
0.0
 11
133.252682814323
 21
33.2557132225885
 31
0.0
  0
LINE
  5
7D8
330
67
100
AcDbEntity
  8
AM_0
370
    30
100
AcDbLine
 10
133.2526828143244
 20
38.3901420996109
 30
0.0
 11
133.252682814323
 21
35.29014209961053
 31
0.0
  0
LINE
  5
7D9
330
67
100
AcDbEntity
  8
AM_0
370
    30
100
AcDbLine
 10
132.7526828143229
 20
35.29014209961053
 30
0.0
 11
132.7526828143244
 21
38.8901420996109
 31
0.0
  0
LINE
  5
7DA
330
67
100
AcDbEntity
  8
AM_0
370
    30
100
AcDbLine
 10
132.7526828143244
 20
28.8901420996109
 30
0.0
 11
132.7526828143229
 21
32.49014209961035
 31
0.0
  0
LINE
  5
7DB
330
67
100
AcDbEntity
  8
AM_0
370
    30
100
AcDbLine
 10
133.2526828143244
 20
29.3901420996109
 30
0.0
 11
132.7526828143244
 21
28.8901420996109
 31
0.0
  0
LINE
  5
7DC
102
{ACAD_REACTORS
330
B18
102
}
330
67
100
AcDbEntity
  8
AM_0
370
    30
100
AcDbLine
 10
133.2526828143244
 20
38.3901420996109
 30
0.0
 11
132.7526828143244
 21
38.8901420996109
 31
0.0
  0
LINE
  5
7DD
102
{ACAD_REACTORS
330
B76
102
}
330
67
100
AcDbEntity
  8
AM_0
370
    30
100
AcDbLine
 10
136.6526828143244
 20
34.97514209961094
 30
0.0
 11
136.6526828143244
 21
32.80514209961086
 31
0.0
  0
ARC
  5
7DE
330
67
100
AcDbEntity
  8
AM_0
370
    30
100
AcDbCircle
 10
136.1526828143243
 20
34.97514209961094
 30
0.0
 40
0.5
100
AcDbArc
 50
0.0
 51
90.0
  0
ARC
  5
7DF
330
67
100
AcDbEntity
  8
AM_0
370
    30
100
AcDbCircle
 10
136.1526828143243
 20
32.80514209961086
 30
0.0
 40
0.5
100
AcDbArc
 50
270.0
 51
0.0
  0
LINE
  5
7E0
102
{ACAD_REACTORS
330
C5F
102
}
330
67
100
AcDbEntity
  8
AM_0
370
    30
100
AcDbLine
 10
83.65268281432381
 20
17.20744147890775
 30
0.0
 11
113.6526828143238
 21
17.20744147890775
 31
0.0
  0
LINE
  5
7E1
330
67
100
AcDbEntity
  8
AM_0
370
    30
100
AcDbLine
 10
113.6526828143244
 20
50.6401420996109
 30
0.0
 11
113.6526828143238
 21
17.20744147890775
 31
0.0
  0
LINE
  5
7E2
330
67
100
AcDbEntity
  8
AM_0
370
    30
100
AcDbLine
 10
83.65268281432438
 20
50.6401420996109
 30
0.0
 11
83.65268281432381
 21
17.20744147890775
 31
0.0
  0
LINE
  5
7E3
330
67
100
AcDbEntity
  8
AM_0
370
    30
100
AcDbLine
 10
83.65268281432438
 20
50.6401420996109
 30
0.0
 11
113.6526828143244
 21
50.6401420996109
 31
0.0
  0
LINE
  5
7E4
330
67
100
AcDbEntity
  8
AM_0
370
    30
100
AcDbLine
 10
78.65268281432438
 20
19.69014209961017
 30
0.0
 11
78.65268281432438
 21
48.09014209961071
 31
0.0
  0
ARC
  5
7E5
330
67
100
AcDbEntity
  8
AM_0
370
    30
100
AcDbCircle
 10
79.65268281432438
 20
48.09014209961071
 30
0.0
 40
1.0
100
AcDbArc
 50
90.0
 51
180.0
  0
ARC
  5
7E6
330
67
100
AcDbEntity
  8
AM_0
370
    30
100
AcDbCircle
 10
79.65268281432438
 20
19.69014209961017
 30
0.0
 40
1.0
100
AcDbArc
 50
180.0
 51
270.0
  0
LINE
  5
7E7
330
67
100
AcDbEntity
  8
AM_0
370
    30
100
AcDbLine
 10
130.6526828143242
 20
49.09014209961071
 30
0.0
 11
130.6526828143242
 21
18.69014209961017
 31
0.0
  0
LINE
  5
7E8
330
67
100
AcDbEntity
  8
AM_0
370
    30
100
AcDbLine
 10
79.65268281432438
 20
49.09014209961071
 30
0.0
 11
83.65268281432438
 21
49.09014209961071
 31
0.0
  0
LINE
  5
7E9
102
{ACAD_REACTORS
330
AEC
102
}
330
67
100
AcDbEntity
  8
AM_0
370
    30
100
AcDbLine
 10
113.6526828143244
 20
49.09014209961071
 30
0.0
 11
130.6526828143242
 21
49.09014209961071
 31
0.0
  0
LINE
  5
7EA
330
67
100
AcDbEntity
  8
AM_0
370
    30
100
AcDbLine
 10
79.65268281432438
 20
18.69014209961017
 30
0.0
 11
83.65268281432438
 21
18.69014209961017
 31
0.0
  0
LINE
  5
7EB
102
{ACAD_REACTORS
330
BEF
102
}
330
67
100
AcDbEntity
  8
AM_0
370
    30
100
AcDbLine
 10
113.6526828143244
 20
18.69014209961017
 30
0.0
 11
130.6526828143242
 21
18.69014209961017
 31
0.0
  0
LINE
  5
7EC
330
67
100
AcDbEntity
  8
AM_0
370
    30
100
AcDbLine
 10
75.05268281432435
 20
29.44014209961017
 30
0.0
 11
75.05268281432435
 21
38.34014209961072
 31
0.0
  0
LINE
  5
7ED
330
67
100
AcDbEntity
  8
AM_0
370
    30
100
AcDbLine
 10
75.55268281432436
 20
38.84014209961072
 30
0.0
 11
75.55268281432436
 21
28.94014209961017
 31
0.0
  0
LINE
  5
7EE
102
{ACAD_REACTORS
330
ABC
102
}
330
67
100
AcDbEntity
  8
AM_0
370
    30
100
AcDbLine
 10
75.05268281432435
 20
38.34014209961072
 30
0.0
 11
75.55268281432436
 21
38.84014209961072
 31
0.0
  0
LINE
  5
7EF
330
67
100
AcDbEntity
  8
AM_0
370
    30
100
AcDbLine
 10
75.05268281432435
 20
29.44014209961017
 30
0.0
 11
75.55268281432436
 21
28.94014209961017
 31
0.0
  0
LINE
  5
7F0
102
{ACAD_REACTORS
330
A87
102
}
330
67
100
AcDbEntity
  8
AM_0
370
    30
100
AcDbLine
 10
69.65268281432438
 20
32.80514209961086
 30
0.0
 11
69.65268281432438
 21
34.97514209961094
 31
0.0
  0
ARC
  5
7F1
330
67
100
AcDbEntity
  8
AM_0
370
    30
100
AcDbCircle
 10
70.15268281432426
 20
32.80514209961086
 30
0.0
 40
0.5
100
AcDbArc
 50
180.0
 51
270.0
  0
ARC
  5
7F2
330
67
100
AcDbEntity
  8
AM_0
370
    30
100
AcDbCircle
 10
70.15268281432426
 20
34.97514209961094
 30
0.0
 40
0.5
100
AcDbArc
 50
90.0
 51
180.0
  0
LINE
  5
7F3
102
{ACAD_REACTORS
330
BBC
102
}
330
67
100
AcDbEntity
  8
AM_0
370
    30
100
AcDbLine
 10
130.6526828143242
 20
38.8901420996109
 30
0.0
 11
132.7526828143244
 21
38.8901420996109
 31
0.0
  0
LINE
  5
7F4
102
{ACAD_REACTORS
330
BBC
102
}
330
67
100
AcDbEntity
  8
AM_0
370
    30
100
AcDbLine
 10
130.6526828143242
 20
28.8901420996109
 30
0.0
 11
132.7526828143244
 21
28.8901420996109
 31
0.0
  0
LINE
  5
7F5
330
67
100
AcDbEntity
  8
AM_0
370
    30
100
AcDbLine
 10
133.2526828143244
 20
35.47514209961093
 30
0.0
 11
136.1526828143243
 21
35.47514209961093
 31
0.0
  0
LINE
  5
7F6
330
67
100
AcDbEntity
  8
AM_0
370
    30
100
AcDbLine
 10
133.2526828143244
 20
32.30514209961086
 30
0.0
 11
136.1526828143243
 21
32.30514209961086
 31
0.0
  0
LINE
  5
7F7
102
{ACAD_REACTORS
330
A2C
102
}
330
67
100
AcDbEntity
  8
AM_0
370
    30
100
AcDbLine
 10
78.65268281432438
 20
28.94014209961017
 30
0.0
 11
75.55268281432436
 21
28.94014209961017
 31
0.0
  0
LINE
  5
7F8
102
{ACAD_REACTORS
330
A2C
102
}
330
67
100
AcDbEntity
  8
AM_0
370
    30
100
AcDbLine
 10
78.65268281432438
 20
38.84014209961072
 30
0.0
 11
75.55268281432436
 21
38.84014209961072
 31
0.0
  0
LINE
  5
7F9
102
{ACAD_REACTORS
330
9F1
102
}
330
67
100
AcDbEntity
  8
AM_0
370
    30
100
AcDbLine
 10
75.05268281432435
 20
32.30514209961086
 30
0.0
 11
70.15268281432426
 21
32.30514209961086
 31
0.0
  0
LINE
  5
7FA
102
{ACAD_REACTORS
330
9F1
102
}
330
67
100
AcDbEntity
  8
AM_0
370
    30
100
AcDbLine
 10
75.05268281432435
 20
35.47514209961093
 30
0.0
 11
70.15268281432426
 21
35.47514209961093
 31
0.0
  0
LINE
  5
7FB
330
67
100
AcDbEntity
  8
AM_0
370
    30
100
AcDbLine
 10
33.91732615332009
 20
18.76433633594945
 30
0.0
 11
33.91732615332009
 21
17.20744147890775
 31
0.0
  0
ARC
  5
7FC
330
67
100
AcDbEntity
  8
AM_0
370
    30
100
AcDbCircle
 10
32.41732615332009
 20
33.8901420996109
 30
0.0
 40
16.75
100
AcDbArc
 50
275.1378482490326
 51
264.8621517509673
  0
LINE
  5
7FD
330
67
100
AcDbEntity
  8
AM_0
370
    30
100
AcDbLine
 10
30.91732615332009
 20
17.20744147890775
 30
0.0
 11
30.91732615332009
 21
18.76433633594945
 31
0.0
  0
CIRCLE
  5
7FE
330
67
100
AcDbEntity
  8
AM_0
370
    30
100
AcDbCircle
 10
32.41732615331713
 20
21.8901420996109
 30
0.0
 40
1.25
  0
CIRCLE
  5
7FF
330
67
100
AcDbEntity
  8
AM_0
370
    30
100
AcDbCircle
 10
42.91732615331713
 20
33.8901420996109
 30
0.0
 40
1.2295
  0
CIRCLE
  5
800
330
67
100
AcDbEntity
  8
AM_0
370
    30
100
AcDbCircle
 10
21.91732615331714
 20
33.8901420996109
 30
0.0
 40
1.2295
  0
CIRCLE
  5
801
330
67
100
AcDbEntity
  8
AM_0
370
     0
100
AcDbCircle
 10
42.91732615331713
 20
33.8901420996109
 30
0.0
 40
1.5
  0
CIRCLE
  5
802
330
67
100
AcDbEntity
  8
AM_0
370
     0
100
AcDbCircle
 10
21.91732615331714
 20
33.8901420996109
 30
0.0
 40
1.5
  0
CIRCLE
  5
803
330
67
100
AcDbEntity
  8
AM_0
370
    30
100
AcDbCircle
 10
32.4173261533177
 20
33.8901420996109
 30
0.0
 40
15.2
  0
CIRCLE
  5
804
330
67
100
AcDbEntity
  8
AM_0
370
    30
100
AcDbCircle
 10
32.41732615331498
 20
33.8901420996109
 30
0.0
 40
4.450000000000001
  0
CIRCLE
  5
805
330
67
100
AcDbEntity
  8
AM_0
370
    30
100
AcDbCircle
 10
32.4173261533152
 20
33.8901420996109
 30
0.0
 40
4.95
  0
CIRCLE
  5
806
330
67
100
AcDbEntity
  8
AM_0
370
    30
100
AcDbCircle
 10
32.41732615331202
 20
33.8901420996109
 30
0.0
 40
1.584999999999999
  0
LINE
  5
807
102
{ACAD_REACTORS
330
991
102
}
330
67
100
AcDbEntity
  8
AM_7
  6
CENTERX2
370
     0
100
AcDbLine
 10
21.91732615332339
 20
37.8901420996109
 30
0.0
 11
21.91732615332339
 21
29.8901420996109
 31
0.0
  0
LINE
  5
808
102
{ACAD_REACTORS
330
991
102
}
330
67
100
AcDbEntity
  8
AM_7
  6
CENTERX2
370
     0
100
AcDbLine
 10
42.91732615332338
 20
37.8901420996109
 30
0.0
 11
42.91732615332338
 21
29.8901420996109
 31
0.0
  0
LINE
  5
80D
330
67
100
AcDbEntity
  8
AM_7
  6
CENTERX2
370
     0
100
AcDbLine
 10
139.0970059300053
 20
33.8901420996109
 30
0.0
 11
67.079665741203
 21
33.8901420996109
 31
0.0
  0
LINE
  5
810
330
67
100
AcDbEntity
  8
AM_7
  6
CENTERX2
370
     0
100
AcDbLine
 10
203.272691458831
 20
33.8901420996109
 30
0.0
 11
165.0492527290006
 21
33.8901420996109
 31
0.0
  0
LINE
  5
811
330
67
100
AcDbEntity
  8
AM_7
  6
CENTERX2
370
     0
100
AcDbLine
 10
184.1609720939158
 20
53.00186146452609
 30
0.0
 11
184.1609720939158
 21
14.77842273469571
 31
0.0
  0
LINE
  5
814
330
67
100
AcDbEntity
  8
AM_0
370
    30
100
AcDbLine
 10
106.1526828143246
 20
34.94014209961017
 30
0.0
 11
106.1526828143246
 21
50.6401420996109
 31
0.0
  0
LINE
  5
815
330
67
100
AcDbEntity
  8
AM_0
370
    30
100
AcDbLine
 10
91.15268281432461
 20
34.94014209961017
 30
0.0
 11
91.15268281432461
 21
50.6401420996109
 31
0.0
  0
LINE
  5
816
330
67
100
AcDbEntity
  8
AM_0
370
    30
100
AcDbLine
 10
91.15268281432461
 20
34.94014209961017
 30
0.0
 11
106.1526828143246
 21
34.94014209961017
 31
0.0
  0
INSERT
  5
972
330
67
100
AcDbEntity
  8
AM_5
100
AcDbBlockReference
  2
*S62
 10
0.0
 20
0.0
 30
0.0
  0
INSERT
  5
97F
330
67
100
AcDbEntity
  8
AM_5
100
AcDbBlockReference
  2
*S63
 10
0.0
 20
0.0
 30
0.0
  0
INSERT
  5
980
330
67
100
AcDbEntity
  8
AM_5
100
AcDbBlockReference
  2
*S64
 10
0.0
 20
0.0
 30
0.0
  0
INSERT
  5
981
330
67
100
AcDbEntity
  8
AM_5
100
AcDbBlockReference
  2
*S65
 10
0.0
 20
0.0
 30
0.0
  0
DIMENSION
  5
983
102
{ACAD_XDICTIONARY
360
990
102
}
102
{ACAD_REACTORS
330
991
102
}
330
67
100
AcDbEntity
  8
AM_5
100
AcDbDimension
  2
*D47
 10
42.91732615332338
 20
5.207440468907947
 30
0.0
 11
32.41732615332339
 21
7.793874317128229
 31
0.0
 70
    32
 71
     5
 42
21.0
  3
AM_JIS$0
100
AcDbAlignedDimension
 13
21.91732615332339
 23
29.8901420996109
 33
0.0
 14
42.91732615332338
 24
29.8901420996109
 34
0.0
100
AcDbRotatedDimension
1001
ACAD
1000
DSTYLE
1002
{
1070
    47
1040
0.0
1070
    48
1040
0.0
1002
}
1001
ACAD_DSTYLE_DIMINSPECT
1070
   396
1000
100%
1070
   395
1000

1070
   394
1070
    33
1070
   393
1070
     0
  0
DIMENSION
  5
9E1
102
{ACAD_XDICTIONARY
360
9F0
102
}
102
{ACAD_REACTORS
330
9F1
102
}
330
67
100
AcDbEntity
  8
AM_5
100
AcDbDimension
  2
*D49
 10
64.81572367846215
 20
35.47514209961093
 30
0.0
 11
62.19285598202157
 21
47.25875526280772
 31
0.0
 70
    32
  1
%%c<>
 71
     5
 42
3.170000000000072
  3
AM_JIS$0
100
AcDbAlignedDimension
 13
70.15268281432426
 23
32.30514209961086
 33
0.0
 14
70.15268281432426
 24
35.47514209961093
 34
0.0
 50
90.0
100
AcDbRotatedDimension
1001
ACAD
1000
DSTYLE
1002
{
1070
    47
1040
0.0
1070
    48
1040
0.0
1002
}
1001
ACAD_DSTYLE_DIMINSPECT
1070
   396
1000
100%
1070
   395
1000

1070
   394
1070
    33
1070
   393
1070
     0
  0
DIMENSION
  5
A1E
102
{ACAD_XDICTIONARY
360
A2B
102
}
102
{ACAD_REACTORS
330
A2C
102
}
330
67
100
AcDbEntity
  8
AM_5
100
AcDbDimension
  2
*D50
 10
58.50953230493246
 20
28.94014209961018
 30
0.0
 11
58.50953230493246
 21
48.50875526280771
 31
0.0
 70
   160
  1
%%c<>
 71
     5
 42
9.900000000000542
  3
AM_JIS$0
100
AcDbAlignedDimension
 13
75.55268281432436
 23
38.84014209961072
 33
0.0
 14
75.55268281432436
 24
28.94014209961017
 34
0.0
 50
90.0
100
AcDbRotatedDimension
1001
ACAD
1000
DSTYLE
1002
{
1070
    47
1040
0.0
1070
    48
1040
0.0
1002
}
1001
ACAD_DSTYLE_DIMINSPECT
1070
   396
1000
100%
1070
   395
1000

1070
   394
1070
    33
1070
   393
1070
     0
  0
DIMENSION
  5
A79
102
{ACAD_XDICTIONARY
360
A86
102
}
102
{ACAD_REACTORS
330
A87
102
}
330
67
100
AcDbEntity
  8
AM_5
100
AcDbDimension
  2
*D52
 10
78.65268281432438
 20
72.58013357973061
 30
0.0
 11
74.15268281432438
 21
75.19947541989179
 31
0.0
 70
    32
 71
     5
 42
9.0
  3
AM_JIS$0
100
AcDbAlignedDimension
 13
69.65268281432438
 23
33.8901420996109
 33
0.0
 14
78.65268281432438
 24
48.09014209961071
 34
0.0
100
AcDbRotatedDimension
1001
ACAD
1000
DSTYLE
1002
{
1070
    47
1040
0.0
1070
    48
1040
0.0
1002
}
1001
ACAD_DSTYLE_DIMINSPECT
1070
   396
1000
100%
1070
   395
1000

1070
   394
1070
    33
1070
   393
1070
     0
  0
DIMENSION
  5
AAC
102
{ACAD_XDICTIONARY
360
ABB
102
}
102
{ACAD_REACTORS
330
ABC
102
}
330
67
100
AcDbEntity
  8
AM_5
100
AcDbDimension
  2
*D53
 10
78.65268281432438
 20
65.28936913425991
 30
0.0
 11
87.61655118235662
 21
67.91223683070048
 31
0.0
 70
    32
 71
     5
 42
3.600000000000022
  3
AM_JIS$0
100
AcDbAlignedDimension
 13
75.05268281432435
 23
38.34014209961072
 33
0.0
 14
78.65268281432438
 24
48.09014209961071
 34
0.0
100
AcDbRotatedDimension
1001
ACAD
1000
DSTYLE
1002
{
1070
    47
1040
0.0
1070
    48
1040
0.0
1002
}
1001
ACAD_DSTYLE_DIMINSPECT
1070
   396
1000
100%
1070
   395
1000

1070
   394
1070
    33
1070
   393
1070
     0
  0
DIMENSION
  5
ADE
102
{ACAD_XDICTIONARY
360
AEB
102
}
102
{ACAD_REACTORS
330
AEC
102
}
330
67
100
AcDbEntity
  8
AM_5
100
AcDbDimension
  2
*D54
 10
130.6526828143242
 20
72.58013357973061
 30
0.0
 11
104.6526828143243
 21
75.20300127617118
 31
0.0
 70
    32
 71
     5
 42
51.99999999999988
  3
AM_JIS$0
100
AcDbAlignedDimension
 13
78.65268281432438
 23
48.09014209961071
 33
0.0
 14
130.6526828143242
 24
49.09014209961071
 34
0.0
100
AcDbRotatedDimension
1001
ACAD
1000
DSTYLE
1002
{
1070
    47
1040
0.0
1070
    48
1040
0.0
1002
}
1001
ACAD_DSTYLE_DIMINSPECT
1070
   396
1000
100%
1070
   395
1000

1070
   394
1070
    33
1070
   393
1070
     0
  0
DIMENSION
  5
B08
102
{ACAD_XDICTIONARY
360
B17
102
}
102
{ACAD_REACTORS
330
B18
102
}
330
67
100
AcDbEntity
  8
AM_5
100
AcDbDimension
  2
*D55
 10
133.2526828143244
 20
65.28936913425991
 30
0.0
 11
119.9070817397776
 21
65.28936913425991
 31
0.0
 70
   160
  1
(<>)
 71
     5
 42
2.600000000000136
  3
AM_JIS$0
100
AcDbAlignedDimension
 13
130.6526828143242
 23
49.09014209961071
 33
0.0
 14
133.2526828143244
 24
38.3901420996109
 34
0.0
100
AcDbRotatedDimension
1001
ACAD
1000
DSTYLE
1002
{
1070
    47
1040
0.0
1070
    48
1040
0.0
1002
}
1001
ACAD_DSTYLE_DIMINSPECT
1070
   396
1000
100%
1070
   395
1000

1070
   394
1070
    33
1070
   393
1070
     0
  0
DIMENSION
  5
B66
102
{ACAD_XDICTIONARY
360
B75
102
}
102
{ACAD_REACTORS
330
B76
102
}
330
67
100
AcDbEntity
  8
AM_5
100
AcDbDimension
  2
*D56
 10
136.6526828143244
 20
72.58013357973061
 30
0.0
 11
145.3556378176823
 21
75.69309529900529
 31
0.0
 70
    32
  1
(<>)
 71
     5
 42
6.000000000000113
  3
AM_JIS$0
100
AcDbAlignedDimension
 13
130.6526828143242
 23
49.09014209961071
 33
0.0
 14
136.6526828143244
 24
33.8901420996109
 34
0.0
100
AcDbRotatedDimension
1001
ACAD
1000
DSTYLE
1002
{
1070
    47
1040
0.0
1070
    48
1040
0.0
1002
}
1001
ACAD_DSTYLE_DIMINSPECT
1070
   396
1000
100%
1070
   395
1000

1070
   394
1070
    33
1070
   393
1070
     0
  0
DIMENSION
  5
BAE
102
{ACAD_XDICTIONARY
360
BBB
102
}
102
{ACAD_REACTORS
330
BBC
102
}
330
67
100
AcDbEntity
  8
AM_5
100
AcDbDimension
  2
*D57
 10
145.7526828143244
 20
38.89014209961089
 30
0.0
 11
143.1309904033103
 21
33.89014209961092
 31
0.0
 70
    32
  1
%%c<>
 71
     5
 42
10.0
  3
AM_JIS$0
100
AcDbAlignedDimension
 13
132.7526828143244
 23
28.8901420996109
 33
0.0
 14
132.7526828143244
 24
38.8901420996109
 34
0.0
 50
90.0
100
AcDbRotatedDimension
1001
ACAD
1000
DSTYLE
1002
{
1070
    47
1040
0.0
1070
    48
1040
0.0
1002
}
1001
ACAD_DSTYLE_DIMINSPECT
1070
   396
1000
100%
1070
   395
1000

1070
   394
1070
    33
1070
   393
1070
     0
  0
DIMENSION
  5
BE1
102
{ACAD_XDICTIONARY
360
BEE
102
}
102
{ACAD_REACTORS
330
BEF
102
}
330
67
100
AcDbEntity
  8
AM_5
100
AcDbDimension
  2
*D58
 10
153.1019455305131
 20
18.69014209961016
 30
0.0
 11
150.4790778340725
 21
33.89014209961047
 31
0.0
 70
    32
  1
%%c<>
 71
     5
 42
30.40000000000055
  3
AM_JIS$0
100
AcDbAlignedDimension
 13
130.6526828143242
 23
49.09014209961071
 33
0.0
 14
130.6526828143242
 24
18.69014209961017
 34
0.0
 50
90.0
100
AcDbRotatedDimension
1001
ACAD
1000
DSTYLE
1002
{
1070
    47
1040
0.0
1070
    48
1040
0.0
1002
}
1001
ACAD_DSTYLE_DIMINSPECT
1070
   396
1000
100%
1070
   395
1000

1070
   394
1070
    33
1070
   393
1070
     0
  0
DIMENSION
  5
C51
102
{ACAD_XDICTIONARY
360
C5E
102
}
102
{ACAD_REACTORS
330
C5F
102
}
330
67
100
AcDbEntity
  8
AM_5
100
AcDbDimension
  2
*D59
 10
160.0316555013966
 20
17.20744147890774
 30
0.0
 11
157.4087878049561
 21
33.93219404412274
 31
0.0
 70
    32
  1
%%c33.5MAX
 71
     5
 42
33.44950513042994
  3
AM_JIS$0
100
AcDbAlignedDimension
 13
113.6526828143244
 23
50.65694660933769
 33
0.0
 14
113.6526828143244
 24
17.20744147890775
 34
0.0
 50
90.0
100
AcDbRotatedDimension
1001
ACAD
1000
DSTYLE
1002
{
1070
    47
1040
0.0
1070
    48
1040
0.0
1070
   271
1070
     1
1002
}
1001
ACAD_DSTYLE_DIMINSPECT
1070
   396
1000
100%
1070
   395
1000

1070
   394
1070
    33
1070
   393
1070
     0
  0
DIMENSION
  5
CB1
330
67
100
AcDbEntity
  8
AM_5
100
AcDbDimension
  2
*D60
 10
135.6526828143208
 20
8.967939660838055
 30
0.0
 11
121.9497278109663
 21
8.967939660838055
 31
0.0
 70
   160
  1
(<>)
 71
     5
 42
4.999999999996589
  3
AM_JIS$0
100
AcDbAlignedDimension
 13
130.6526828143242
 23
18.69014209961017
 33
0.0
 14
135.6526828143208
 24
33.89014209961044
 34
0.0
100
AcDbRotatedDimension
1001
ACAD
1000
DSTYLE
1002
{
1070
    47
1040
0.0
1070
    48
1040
0.0
1070
   271
1070
     1
1002
}
1001
ACAD_DSTYLE_DIMINSPECT
1070
   396
1000
100%
1070
   395
1000

1070
   394
1070
    33
1070
   393
1070
     0
  0
ENDSEC
  0
SECTION
  2
OBJECTS
  0
DICTIONARY
  5
C
330
0
100
AcDbDictionary
281
     1
  3
ACAD_2007HEADERVARS_RT
350
1159
  3
ACAD_COLOR
350
5E
  3
ACAD_GROUP
350
D
  3
ACAD_LAYOUT
350
5D
  3
ACAD_MATERIAL
350
10
  3
ACAD_MLEADERSTYLE
350
61
  3
ACAD_MLINESTYLE
350
5A
  3
ACAD_PLOTSETTINGS
350
5C
  3
ACAD_PLOTSTYLENAME
350
E
  3
ACAD_SCALELIST
350
3D
  3
ACAD_TABLESTYLE
350
5F
  3
ACAD_VISUALSTYLE
350
29
  3
ACDB_RECOMPOSE_DATA
350
1157
  3
AcDbVariableDictionary
350
4EC
  3
AcmDictionary
350
54A
  3
AMG
350
503
  3
AMGSNAPSETTINGS
350
5B5
  3
DWGPROPS
350
1158
  0
DICTIONARY
  5
734
330
2
100
AcDbDictionary
280
     1
281
     1
  3
ACAD_LAYERSTATES
360
735
  0
DICTIONARY
  5
5B1
330
4F
100
AcDbDictionary
280
     1
281
     1
  3
ADSK_XREC_LAYER_RECONCILED
360
5B2
  0
DICTIONARY
  5
CA
330
C9
100
AcDbDictionary
280
     1
281
     1
  3
ADSK_XREC_LAYER_RECONCILED
360
CB
  0
DICTIONARY
  5
D3
330
D2
100
AcDbDictionary
280
     1
281
     1
  3
ADSK_XREC_LAYER_RECONCILED
360
D4
  0
DICTIONARY
  5
F2
330
F1
100
AcDbDictionary
280
     1
281
     1
  3
ADSK_XREC_LAYER_RECONCILED
360
F3
  0
DICTIONARY
  5
137
330
136
100
AcDbDictionary
280
     1
281
     1
  3
ADSK_XREC_LAYER_RECONCILED
360
138
  0
DICTIONARY
  5
5B3
330
200
100
AcDbDictionary
280
     1
281
     1
  3
ADSK_XREC_LAYER_RECONCILED
360
5B4
  0
DICTIONARY
  5
470
330
67
100
AcDbDictionary
280
     1
281
     1
  3
ACAD_SORTENTS
360
471
  0
DICTIONARY
  5
118B
330
474
100
AcDbDictionary
280
     1
281
     1
  3
ACAD_MTEXT_RT
360
118C
  0
DICTIONARY
  5
118D
330
47F
100
AcDbDictionary
280
     1
281
     1
  3
ACAD_MTEXT_RT
360
118E
  0
DICTIONARY
  5
118F
330
4E6
100
AcDbDictionary
280
     1
281
     1
  3
ACAD_MTEXT_RT
360
1190
  0
DICTIONARY
  5
119A
330
944
100
AcDbDictionary
280
     1
281
     1
  3
ACAD_MTEXT_RT
360
119B
  0
DICTIONARY
  5
119C
330
1133
100
AcDbDictionary
280
     1
281
     1
  3
ACAD_MTEXT_RT
360
119D
  0
DICTIONARY
  5
119E
330
113E
100
AcDbDictionary
280
     1
281
     1
  3
ACAD_MTEXT_RT
360
119F
  0
DICTIONARY
  5
11A0
330
1148
100
AcDbDictionary
280
     1
281
     1
  3
ACAD_MTEXT_RT
360
11A1
  0
DICTIONARY
  5
11A2
330
1151
100
AcDbDictionary
280
     1
281
     1
  3
ACAD_MTEXT_RT
360
11A3
  0
DICTIONARY
  5
990
330
983
100
AcDbDictionary
280
     1
281
     1
  3
ACAD_DIMASSOC
360
991
  0
DICTIONARY
  5
9F0
330
9E1
100
AcDbDictionary
280
     1
281
     1
  3
ACAD_DIMASSOC
360
9F1
  0
DICTIONARY
  5
A2B
330
A1E
100
AcDbDictionary
280
     1
281
     1
  3
ACAD_DIMASSOC
360
A2C
  0
DICTIONARY
  5
A86
330
A79
100
AcDbDictionary
280
     1
281
     1
  3
ACAD_DIMASSOC
360
A87
  0
DICTIONARY
  5
ABB
330
AAC
100
AcDbDictionary
280
     1
281
     1
  3
ACAD_DIMASSOC
360
ABC
  0
DICTIONARY
  5
AEB
330
ADE
100
AcDbDictionary
280
     1
281
     1
  3
ACAD_DIMASSOC
360
AEC
  0
DICTIONARY
  5
B17
330
B08
100
AcDbDictionary
280
     1
281
     1
  3
ACAD_DIMASSOC
360
B18
  0
DICTIONARY
  5
B75
330
B66
100
AcDbDictionary
280
     1
281
     1
  3
ACAD_DIMASSOC
360
B76
  0
DICTIONARY
  5
BBB
330
BAE
100
AcDbDictionary
280
     1
281
     1
  3
ACAD_DIMASSOC
360
BBC
  0
DICTIONARY
  5
BEE
330
BE1
100
AcDbDictionary
280
     1
281
     1
  3
ACAD_DIMASSOC
360
BEF
  0
DICTIONARY
  5
C5E
330
C51
100
AcDbDictionary
280
     1
281
     1
  3
ACAD_DIMASSOC
360
C5F
  0
DICTIONARY
  5
1159
102
{ACAD_REACTORS
330
C
102
}
330
C
100
AcDbDictionary
281
     1
  3
DIMARCSYM
350
115A
  3
DIMLTEX1
350
115C
  3
DIMLTEX2
350
115D
  3
DIMLTYPE
350
115B
  0
DICTIONARY
  5
5E
102
{ACAD_REACTORS
330
C
102
}
330
C
100
AcDbDictionary
281
     1
  0
DICTIONARY
  5
D
102
{ACAD_REACTORS
330
C
102
}
330
C
100
AcDbDictionary
281
     1
  0
DICTIONARY
  5
5D
102
{ACAD_REACTORS
330
C
102
}
330
C
100
AcDbDictionary
281
     1
  3
Model
350
6A
  3
レイアウト1
350
66
  3
レイアウト2
350
6E
  0
DICTIONARY
  5
10
102
{ACAD_REACTORS
330
C
102
}
330
C
100
AcDbDictionary
281
     1
  3
ByBlock
350
19
  3
ByLayer
350
11
  3
Global
350
21
  0
DICTIONARY
  5
61
102
{ACAD_REACTORS
330
C
102
}
330
C
100
AcDbDictionary
281
     1
  3
Standard
350
62
  0
DICTIONARY
  5
5A
102
{ACAD_REACTORS
330
C
102
}
330
C
100
AcDbDictionary
281
     1
  3
Standard
350
5B
  0
DICTIONARY
  5
5C
102
{ACAD_REACTORS
330
C
102
}
330
C
100
AcDbDictionary
281
     1
  0
ACDBDICTIONARYWDFLT
  5
E
102
{ACAD_REACTORS
330
C
102
}
330
C
100
AcDbDictionary
281
     1
  3
Normal
350
F
100
AcDbDictionaryWithDefault
340
F
  0
DICTIONARY
  5
3D
102
{ACAD_REACTORS
330
C
102
}
330
C
100
AcDbDictionary
281
     1
  3
*A1
350
B6
  3
*A10
350
BE
  3
*A11
350
BF
  3
*A12
350
C0
  3
*A13
350
C1
  3
*A14
350
C2
  3
*A15
350
C3
  3
*A16
350
C4
  3
*A17
350
C5
  3
*A18
350
C6
  3
*A2
350
C7
  3
*A3
350
B7
  3
*A4
350
B8
  3
*A5
350
B9
  3
*A6
350
BA
  3
*A7
350
BB
  3
*A8
350
BC
  3
*A9
350
BD
  3
A0
350
3E
  3
A1
350
3F
  3
A2
350
40
  3
A3
350
41
  3
A4
350
42
  3
A5
350
43
  3
A6
350
44
  3
A7
350
45
  3
A8
350
46
  3
A9
350
47
  3
B0
350
48
  3
B1
350
49
  3
B2
350
4A
  3
B3
350
4B
  3
B4
350
4C
  3
B5
350
4D
  3
B6
350
4E
  0
DICTIONARY
  5
5F
102
{ACAD_REACTORS
330
C
102
}
330
C
100
AcDbDictionary
281
     1
  3
Standard
350
60
  0
DICTIONARY
  5
29
102
{ACAD_REACTORS
330
C
102
}
330
C
100
AcDbDictionary
281
     1
  3
2dWireframe
350
2F
  3
3D Hidden
350
31
  3
3dWireframe
350
30
  3
Basic
350
2E
  3
Brighten
350
35
  3
ColorChange
350
39
  3
Conceptual
350
32
  3
Dim
350
34
  3
EdgeColorOff
350
3C
  3
Facepattern
350
38
  3
Flat
350
2A
  3
FlatWithEdges
350
2B
  3
Gouraud
350
2C
  3
GouraudWithEdges
350
2D
  3
JitterOff
350
3A
  3
Linepattern
350
37
  3
OverhangOff
350
3B
  3
Realistic
350
33
  3
Thicken
350
36
  0
XRECORD
  5
1157
102
{ACAD_REACTORS
330
C
102
}
330
C
100
AcDbXrecord
280
     1
 90
        1
330
60
  0
DICTIONARY
  5
4EC
102
{ACAD_REACTORS
330
C
102
}
330
C
100
AcDbDictionary
281
     1
  3
ANNOALLVISIBLE
350
4F0
  3
CANNOSCALE
350
4F1
  3
CMLEADERSTYLE
350
4EE
  3
CTABLESTYLE
350
4ED
  3
DIMASSOC
350
5C0
  3
HIDETEXT
350
5BE
  3
INDEXCTL
350
5BD
  3
LAYEREVAL
350
4F3
  3
LAYERNOTIFY
350
4F4
  3
LIGHTINGUNITS
350
4F2
  3
MSLTSCALE
350
4EF
  3
SORTENTS
350
5BC
  3
XCLIPFRAME
350
1155
  0
DICTIONARY
  5
54A
102
{ACAD_REACTORS
330
C
102
}
330
C
100
AcDbDictionary
281
     1
  3
AcmStdDictionary
350
557
  0
DICTIONARY
  5
503
102
{ACAD_REACTORS
330
C
102
}
330
C
100
AcDbDictionary
281
     1
  0
DICTIONARY
  5
5B5
102
{ACAD_REACTORS
330
C
102
}
330
C
100
AcDbDictionary
281
     1
  0
XRECORD
  5
1158
102
{ACAD_REACTORS
330
C
102
}
330
C
100
AcDbXrecord
280
     1
  1
DWGPROPS COOKIE
  2

  3

  4

  6

  7

  8
Administrator
  9

300
AmdtFileType=84
301
=
302
=
303
=
304
=
305
=
306
=
307
=
308
=
309
=
 40
0.0142800231481482
 41
2456512.499609827
 42
2457683.6262075
  1

 90
        1
  0
DICTIONARY
  5
735
102
{ACAD_REACTORS
330
734
102
}
330
734
100
AcDbDictionary
281
     1
  0
XRECORD
  5
5B2
102
{ACAD_REACTORS
330
5B1
102
}
330
5B1
100
AcDbXrecord
280
     1
290
     1
  0
XRECORD
  5
CB
102
{ACAD_REACTORS
330
CA
102
}
330
CA
100
AcDbXrecord
280
     1
290
     1
  0
XRECORD
  5
D4
102
{ACAD_REACTORS
330
D3
102
}
330
D3
100
AcDbXrecord
280
     1
290
     1
  0
XRECORD
  5
F3
102
{ACAD_REACTORS
330
F2
102
}
330
F2
100
AcDbXrecord
280
     1
290
     1
  0
XRECORD
  5
138
102
{ACAD_REACTORS
330
137
102
}
330
137
100
AcDbXrecord
280
     1
290
     1
  0
XRECORD
  5
5B4
102
{ACAD_REACTORS
330
5B3
102
}
330
5B3
100
AcDbXrecord
280
     1
290
     1
  0
SORTENTSTABLE
  5
471
102
{ACAD_REACTORS
330
470
102
}
330
470
100
AcDbSortentsTable
330
67
  0
XRECORD
  5
118C
102
{ACAD_REACTORS
330
118B
102
}
330
118B
100
AcDbXrecord
280
     1
 40
6709.0
  1
P.C.D.\U+220526
  0
XRECORD
  5
118E
102
{ACAD_REACTORS
330
118D
102
}
330
118D
100
AcDbXrecord
280
     1
 40
4433.0
  1
3-120\U+00B0
  0
XRECORD
  5
1190
102
{ACAD_REACTORS
330
118F
102
}
330
118F
100
AcDbXrecord
280
     1
 40
2561.0
  1
20\U+00B0
  0
XRECORD
  5
119B
102
{ACAD_REACTORS
330
119A
102
}
330
119A
100
AcDbXrecord
280
     1
 40
43376.0
  1
2-M2.6\P有効深さ3
  0
XRECORD
  5
119D
102
{ACAD_REACTORS
330
119C
102
}
330
119C
100
AcDbXrecord
280
     1
 40
38918.0
  1
2-M3\P有効深さ5
  0
XRECORD
  5
119F
102
{ACAD_REACTORS
330
119E
102
}
330
119E
100
AcDbXrecord
280
     1
 40
7469.0
  1
+端子
  0
XRECORD
  5
11A1
102
{ACAD_REACTORS
330
11A0
102
}
330
11A0
100
AcDbXrecord
280
     1
 40
25695.0
  1
入力端子
  0
XRECORD
  5
11A3
102
{ACAD_REACTORS
330
11A2
102
}
330
11A2
100
AcDbXrecord
280
     1
 40
25527.0
  1
定格銘板
  0
DIMASSOC
  5
991
102
{ACAD_REACTORS
330
990
102
}
330
990
100
AcDbDimAssoc
330
983
 90
        3
 70
     0
 71
     0
  1
AcDbOsnapPointRef
 72
     1
331
807
 73
     0
 91
        0
 40
0.0
 10
0.0
 20
0.0
 30
2.000000000000000E+50
 75
     0
  1
AcDbOsnapPointRef
 72
     1
331
808
 73
     0
 91
        0
 40
0.0
 10
0.0
 20
0.0
 30
2.000000000000000E+50
 75
     0
  0
DIMASSOC
  5
9F1
102
{ACAD_REACTORS
330
9F0
102
}
330
9F0
100
AcDbDimAssoc
330
9E1
 90
        3
 70
     0
 71
     0
  1
AcDbOsnapPointRef
 72
     1
331
7F9
 73
     0
 91
        0
 40
0.0
 10
0.0
 20
0.0
 30
2.000000000000000E+50
 75
     0
  1
AcDbOsnapPointRef
 72
     1
331
7FA
 73
     0
 91
        0
 40
0.0
 10
0.0
 20
0.0
 30
2.000000000000000E+50
 75
     0
  0
DIMASSOC
  5
A2C
102
{ACAD_REACTORS
330
A2B
102
}
330
A2B
100
AcDbDimAssoc
330
A1E
 90
        3
 70
     0
 71
     0
  1
AcDbOsnapPointRef
 72
     1
331
7F8
 73
     0
 91
        0
 40
0.0
 10
0.0
 20
0.0
 30
2.000000000000000E+50
 75
     0
  1
AcDbOsnapPointRef
 72
     1
331
7F7
 73
     0
 91
        0
 40
0.0
 10
0.0
 20
0.0
 30
2.000000000000000E+50
 75
     0
  0
DIMASSOC
  5
A87
102
{ACAD_REACTORS
330
A86
102
}
330
A86
100
AcDbDimAssoc
330
A79
 90
        1
 70
     0
 71
     0
  1
AcDbOsnapPointRef
 72
     2
331
7F0
 73
     0
 91
        0
 40
0.0
 10
0.0
 20
0.0
 30
0.0
 75
     0
  0
DIMASSOC
  5
ABC
102
{ACAD_REACTORS
330
ABB
102
}
330
ABB
100
AcDbDimAssoc
330
AAC
 90
        1
 70
     0
 71
     0
  1
AcDbOsnapPointRef
 72
    13
331
7EE
 73
     0
 91
        0
 40
0.0
 10
0.0
 20
0.0
 30
2.000000000000000E+50
 75
     0
  0
DIMASSOC
  5
AEC
102
{ACAD_REACTORS
330
AEB
102
}
330
AEB
100
AcDbDimAssoc
330
ADE
 90
        2
 70
     0
 71
     0
  1
AcDbOsnapPointRef
 72
     1
331
7E9
 73
     0
 91
        0
 40
0.0
 10
0.0
 20
0.0
 30
2.000000000000000E+50
 75
     0
  0
DIMASSOC
  5
B18
102
{ACAD_REACTORS
330
B17
102
}
330
B17
100
AcDbDimAssoc
330
B08
 90
        2
 70
     0
 71
     0
  1
AcDbOsnapPointRef
 72
    13
331
7DC
 73
     0
 91
        0
 40
0.0
 10
0.0
 20
0.0
 30
2.000000000000000E+50
 75
     0
  0
DIMASSOC
  5
B76
102
{ACAD_REACTORS
330
B75
102
}
330
B75
100
AcDbDimAssoc
330
B66
 90
        2
 70
     0
 71
     0
  1
AcDbOsnapPointRef
 72
     2
331
7DD
 73
     0
 91
        0
 40
0.0
 10
0.0
 20
0.0
 30
0.0
 75
     0
  0
DIMASSOC
  5
BBC
102
{ACAD_REACTORS
330
BBB
102
}
330
BBB
100
AcDbDimAssoc
330
BAE
 90
        3
 70
     0
 71
     0
  1
AcDbOsnapPointRef
 72
     1
331
7F4
 73
     0
 91
        0
 40
0.0
 10
0.0
 20
0.0
 30
2.000000000000000E+50
 75
     0
  1
AcDbOsnapPointRef
 72
     1
331
7F3
 73
     0
 91
        0
 40
0.0
 10
0.0
 20
0.0
 30
2.000000000000000E+50
 75
     0
  0
DIMASSOC
  5
BEF
102
{ACAD_REACTORS
330
BEE
102
}
330
BEE
100
AcDbDimAssoc
330
BE1
 90
        2
 70
     0
 71
     0
  1
AcDbOsnapPointRef
 72
     1
331
7EB
 73
     0
 91
        0
 40
0.0
 10
0.0
 20
0.0
 30
2.000000000000000E+50
 75
     0
  0
DIMASSOC
  5
C5F
102
{ACAD_REACTORS
330
C5E
102
}
330
C5E
100
AcDbDimAssoc
330
C51
 90
        2
 70
     0
 71
     0
  1
AcDbOsnapPointRef
 72
     8
331
7E0
 73
     0
 91
        0
 40
1.0
 10
0.0
 20
0.0
 30
0.0
 75
     0
  0
XRECORD
  5
115A
102
{ACAD_REACTORS
330
1159
102
}
330
1159
100
AcDbXrecord
280
     1
 70
     1
  0
XRECORD
  5
115C
102
{ACAD_REACTORS
330
1159
102
}
330
1159
100
AcDbXrecord
280
     1
340
56
  0
XRECORD
  5
115D
102
{ACAD_REACTORS
330
1159
102
}
330
1159
100
AcDbXrecord
280
     1
340
56
  0
XRECORD
  5
115B
102
{ACAD_REACTORS
330
1159
102
}
330
1159
100
AcDbXrecord
280
     1
340
56
  0
LAYOUT
  5
6A
102
{ACAD_XDICTIONARY
360
1187
102
}
102
{ACAD_REACTORS
330
5D
102
}
330
5D
100
AcDbPlotSettings
  1

  2
KONICA MINOLTA 350_250_200 PCL.pc3
  4
A4
  6

 40
5.027082920074462
 41
5.027085781097412
 42
5.027069091796875
 43
5.027069091796875
 44
209.9733276367186
 45
296.9259948730469
 46
0.0
 47
0.0
 48
0.0
 49
0.0
140
0.0
141
0.0
142
1.0
143
0.6299745284921736
 70
 11952
 72
     1
 73
     1
 74
     0
  7

 75
     0
147
1.587365766031004
148
0.3536938643061944
149
7.555586801406112
100
AcDbLayout
  1
Model
 70
     1
 71
     0
 10
0.0
 20
0.0
 11
12.0
 21
9.0
 12
0.0
 22
0.0
 32
0.0
 14
0.0
 24
0.0
 34
0.0
 15
0.0
 25
0.0
 35
0.0
146
0.0
 13
0.0
 23
0.0
 33
0.0
 16
1.0
 26
0.0
 36
0.0
 17
0.0
 27
1.0
 37
0.0
 76
     0
330
67
331
52
1001
ACAD_PSEXT
1000
KONICA MINOLTA 350_250_200 PCL.pc3
1000
KONICA MINOLTA 350/250/200 PCL
1000
IP_192.168.3.100
1000

1070
     0
  0
LAYOUT
  5
66
102
{ACAD_XDICTIONARY
360
1185
102
}
102
{ACAD_REACTORS
330
5D
102
}
330
5D
100
AcDbPlotSettings
  1

  2
KONICA MINOLTA 350/250/200 PCL
  4

  6

 40
0.0
 41
0.0
 42
0.0
 43
0.0
 44
0.0
 45
0.0
 46
0.0
 47
0.0
 48
0.0
 49
0.0
140
0.0
141
0.0
142
1.0
143
1.0
 70
   688
 72
     0
 73
     0
 74
     5
  7

 75
    16
147
1.0
148
0.0
149
0.0
100
AcDbLayout
  1
レイアウト1
 70
     1
 71
     1
 10
0.0
 20
0.0
 11
12.0
 21
9.0
 12
0.0
 22
0.0
 32
0.0
 14
1.000000000000000E+20
 24
1.000000000000000E+20
 34
1.000000000000000E+20
 15
-1.000000000000000E+20
 25
-1.000000000000000E+20
 35
-1.000000000000000E+20
146
0.0
 13
0.0
 23
0.0
 33
0.0
 16
1.0
 26
0.0
 36
0.0
 17
0.0
 27
1.0
 37
0.0
 76
     0
330
63
  0
LAYOUT
  5
6E
102
{ACAD_XDICTIONARY
360
1189
102
}
102
{ACAD_REACTORS
330
5D
102
}
330
5D
100
AcDbPlotSettings
  1

  2
KONICA MINOLTA 350/250/200 PCL
  4

  6

 40
0.0
 41
0.0
 42
0.0
 43
0.0
 44
0.0
 45
0.0
 46
0.0
 47
0.0
 48
0.0
 49
0.0
140
0.0
141
0.0
142
1.0
143
1.0
 70
   688
 72
     0
 73
     0
 74
     5
  7

 75
    16
147
1.0
148
0.0
149
0.0
100
AcDbLayout
  1
レイアウト2
 70
     1
 71
     2
 10
0.0
 20
0.0
 11
12.0
 21
9.0
 12
0.0
 22
0.0
 32
0.0
 14
0.0
 24
0.0
 34
0.0
 15
0.0
 25
0.0
 35
0.0
146
0.0
 13
0.0
 23
0.0
 33
0.0
 16
1.0
 26
0.0
 36
0.0
 17
0.0
 27
1.0
 37
0.0
 76
     0
330
6B
  0
MATERIAL
  5
19
102
{ACAD_XDICTIONARY
360
1A
102
}
102
{ACAD_REACTORS
330
10
102
}
330
10
100
AcDbMaterial
  1
ByBlock
 72
     0
 43
0.0208333333333333
 43
0.0
 43
0.0
 43
0.0
 43
0.0
 43
0.0208333333333333
 43
0.0
 43
0.0
 43
0.0
 43
0.0
 43
1.0
 43
0.0
 43
0.0
 43
0.0
 43
0.0
 43
1.0
 77
     0
 47
0.0208333333333333
 47
0.0
 47
0.0
 47
0.0
 47
0.0
 47
0.0208333333333333
 47
0.0
 47
0.0
 47
0.0
 47
0.0
 47
1.0
 47
0.0
 47
0.0
 47
0.0
 47
0.0
 47
1.0
171
     0
 49
0.0208333333333333
 49
0.0
 49
0.0
 49
0.0
 49
0.0
 49
0.0208333333333333
 49
0.0
 49
0.0
 49
0.0
 49
0.0
 49
1.0
 49
0.0
 49
0.0
 49
0.0
 49
0.0
 49
1.0
175
     0
142
0.0208333333333333
142
0.0
142
0.0
142
0.0
142
0.0
142
0.0208333333333333
142
0.0
142
0.0
142
0.0
142
0.0
142
1.0
142
0.0
142
0.0
142
0.0
142
0.0
142
1.0
179
     0
144
0.0208333333333333
144
0.0
144
0.0
144
0.0
144
0.0
144
0.0208333333333333
144
0.0
144
0.0
144
0.0
144
0.0
144
1.0
144
0.0
144
0.0
144
0.0
144
0.0
144
1.0
147
0.0208333333333333
147
0.0
147
0.0
147
0.0
147
0.0
147
0.0208333333333333
147
0.0
147
0.0
147
0.0
147
0.0
147
1.0
147
0.0
147
0.0
147
0.0
147
0.0
147
1.0
  0
MATERIAL
  5
11
102
{ACAD_XDICTIONARY
360
12
102
}
102
{ACAD_REACTORS
330
10
102
}
330
10
100
AcDbMaterial
  1
ByLayer
 72
     0
 43
0.0208333333333333
 43
0.0
 43
0.0
 43
0.0
 43
0.0
 43
0.0208333333333333
 43
0.0
 43
0.0
 43
0.0
 43
0.0
 43
1.0
 43
0.0
 43
0.0
 43
0.0
 43
0.0
 43
1.0
 77
     0
 47
0.0208333333333333
 47
0.0
 47
0.0
 47
0.0
 47
0.0
 47
0.0208333333333333
 47
0.0
 47
0.0
 47
0.0
 47
0.0
 47
1.0
 47
0.0
 47
0.0
 47
0.0
 47
0.0
 47
1.0
171
     0
 49
0.0208333333333333
 49
0.0
 49
0.0
 49
0.0
 49
0.0
 49
0.0208333333333333
 49
0.0
 49
0.0
 49
0.0
 49
0.0
 49
1.0
 49
0.0
 49
0.0
 49
0.0
 49
0.0
 49
1.0
175
     0
142
0.0208333333333333
142
0.0
142
0.0
142
0.0
142
0.0
142
0.0208333333333333
142
0.0
142
0.0
142
0.0
142
0.0
142
1.0
142
0.0
142
0.0
142
0.0
142
0.0
142
1.0
179
     0
144
0.0208333333333333
144
0.0
144
0.0
144
0.0
144
0.0
144
0.0208333333333333
144
0.0
144
0.0
144
0.0
144
0.0
144
1.0
144
0.0
144
0.0
144
0.0
144
0.0
144
1.0
147
0.0208333333333333
147
0.0
147
0.0
147
0.0
147
0.0
147
0.0208333333333333
147
0.0
147
0.0
147
0.0
147
0.0
147
1.0
147
0.0
147
0.0
147
0.0
147
0.0
147
1.0
  0
MATERIAL
  5
21
102
{ACAD_XDICTIONARY
360
22
102
}
102
{ACAD_REACTORS
330
10
102
}
330
10
100
AcDbMaterial
  1
Global
 72
     0
 43
0.0208333333333333
 43
0.0
 43
0.0
 43
0.0
 43
0.0
 43
0.0208333333333333
 43
0.0
 43
0.0
 43
0.0
 43
0.0
 43
1.0
 43
0.0
 43
0.0
 43
0.0
 43
0.0
 43
1.0
 77
     0
 47
0.0208333333333333
 47
0.0
 47
0.0
 47
0.0
 47
0.0
 47
0.0208333333333333
 47
0.0
 47
0.0
 47
0.0
 47
0.0
 47
1.0
 47
0.0
 47
0.0
 47
0.0
 47
0.0
 47
1.0
171
     0
 49
0.0208333333333333
 49
0.0
 49
0.0
 49
0.0
 49
0.0
 49
0.0208333333333333
 49
0.0
 49
0.0
 49
0.0
 49
0.0
 49
1.0
 49
0.0
 49
0.0
 49
0.0
 49
0.0
 49
1.0
175
     0
142
0.0208333333333333
142
0.0
142
0.0
142
0.0
142
0.0
142
0.0208333333333333
142
0.0
142
0.0
142
0.0
142
0.0
142
1.0
142
0.0
142
0.0
142
0.0
142
0.0
142
1.0
179
     0
144
0.0208333333333333
144
0.0
144
0.0
144
0.0
144
0.0
144
0.0208333333333333
144
0.0
144
0.0
144
0.0
144
0.0
144
1.0
144
0.0
144
0.0
144
0.0
144
0.0
144
1.0
147
0.0208333333333333
147
0.0
147
0.0
147
0.0
147
0.0
147
0.0208333333333333
147
0.0
147
0.0
147
0.0
147
0.0
147
1.0
147
0.0
147
0.0
147
0.0
147
0.0
147
1.0
  0
MLEADERSTYLE
  5
62
102
{ACAD_REACTORS
330
61
102
}
330
61
100
AcDbMLeaderStyle
170
     2
171
     1
172
     0
 90
        2
 40
0.0
 41
0.0
173
     1
 91
-1056964608
340
56
 92
       -2
290
     1
 42
0.09
291
     1
 43
0.36
  3
Standard
 44
0.18
300

342
50
174
     1
178
     6
175
     1
176
     0
 93
-1056964608
 45
0.18
292
     0
297
     0
 46
0.18
 94
-1056964608
 47
1.0
 49
1.0
140
1.0
293
     1
141
0.0
294
     1
177
     0
142
1.0
295
     0
296
     0
143
0.125
1001
ACAD_MLEADERVER
1070
     2
  0
MLINESTYLE
  5
5B
102
{ACAD_REACTORS
330
5A
102
}
330
5A
100
AcDbMlineStyle
  2
STANDARD
 70
     0
  3

 62
   256
 51
90.0
 52
90.0
 71
     2
 49
0.5
 62
   256
  6
BYLAYER
 49
-0.5
 62
   256
  6
BYLAYER
  0
ACDBPLACEHOLDER
  5
F
102
{ACAD_REACTORS
330
E
102
}
330
E
  0
SCALE
  5
B6
102
{ACAD_REACTORS
330
3D
102
}
330
3D
100
AcDbScale
 70
     0
300
1.5:1
140
1.5
141
1.0
290
     0
  0
SCALE
  5
BE
102
{ACAD_REACTORS
330
3D
102
}
330
3D
100
AcDbScale
 70
     0
300
3/16" = 1'-0"
140
0.1875
141
12.0
290
     0
  0
SCALE
  5
BF
102
{ACAD_REACTORS
330
3D
102
}
330
3D
100
AcDbScale
 70
     0
300
1/4" = 1'-0"
140
0.25
141
12.0
290
     0
  0
SCALE
  5
C0
102
{ACAD_REACTORS
330
3D
102
}
330
3D
100
AcDbScale
 70
     0
300
3/8" = 1'-0"
140
0.375
141
12.0
290
     0
  0
SCALE
  5
C1
102
{ACAD_REACTORS
330
3D
102
}
330
3D
100
AcDbScale
 70
     0
300
1/2" = 1'-0"
140
0.5
141
12.0
290
     0
  0
SCALE
  5
C2
102
{ACAD_REACTORS
330
3D
102
}
330
3D
100
AcDbScale
 70
     0
300
3/4" = 1'-0"
140
0.75
141
12.0
290
     0
  0
SCALE
  5
C3
102
{ACAD_REACTORS
330
3D
102
}
330
3D
100
AcDbScale
 70
     0
300
1" = 1'-0"
140
1.0
141
12.0
290
     0
  0
SCALE
  5
C4
102
{ACAD_REACTORS
330
3D
102
}
330
3D
100
AcDbScale
 70
     0
300
1-1/2" = 1'-0"
140
1.5
141
12.0
290
     0
  0
SCALE
  5
C5
102
{ACAD_REACTORS
330
3D
102
}
330
3D
100
AcDbScale
 70
     0
300
3" = 1'-0"
140
3.0
141
12.0
290
     0
  0
SCALE
  5
C6
102
{ACAD_REACTORS
330
3D
102
}
330
3D
100
AcDbScale
 70
     0
300
6" = 1'-0"
140
6.0
141
12.0
290
     0
  0
SCALE
  5
C7
102
{ACAD_REACTORS
330
3D
102
}
330
3D
100
AcDbScale
 70
     0
300
1'-0" = 1'-0"
140
12.0
141
12.0
290
     0
  0
SCALE
  5
B7
102
{ACAD_REACTORS
330
3D
102
}
330
3D
100
AcDbScale
 70
     0
300
1.25:1
140
1.25
141
1.0
290
     0
  0
SCALE
  5
B8
102
{ACAD_REACTORS
330
3D
102
}
330
3D
100
AcDbScale
 70
     0
300
1/128" = 1'-0"
140
0.0078125
141
12.0
290
     0
  0
SCALE
  5
B9
102
{ACAD_REACTORS
330
3D
102
}
330
3D
100
AcDbScale
 70
     0
300
1/64" = 1'-0"
140
0.015625
141
12.0
290
     0
  0
SCALE
  5
BA
102
{ACAD_REACTORS
330
3D
102
}
330
3D
100
AcDbScale
 70
     0
300
1/32" = 1'-0"
140
0.03125
141
12.0
290
     0
  0
SCALE
  5
BB
102
{ACAD_REACTORS
330
3D
102
}
330
3D
100
AcDbScale
 70
     0
300
1/16" = 1'-0"
140
0.0625
141
12.0
290
     0
  0
SCALE
  5
BC
102
{ACAD_REACTORS
330
3D
102
}
330
3D
100
AcDbScale
 70
     0
300
3/32" = 1'-0"
140
0.09375
141
12.0
290
     0
  0
SCALE
  5
BD
102
{ACAD_REACTORS
330
3D
102
}
330
3D
100
AcDbScale
 70
     0
300
1/8" = 1'-0"
140
0.125
141
12.0
290
     0
  0
SCALE
  5
3E
102
{ACAD_REACTORS
330
3D
102
}
330
3D
100
AcDbScale
 70
     0
300
1:1
140
1.0
141
1.0
290
     1
  0
SCALE
  5
3F
102
{ACAD_REACTORS
330
3D
102
}
330
3D
100
AcDbScale
 70
     0
300
1:2
140
1.0
141
2.0
290
     0
  0
SCALE
  5
40
102
{ACAD_REACTORS
330
3D
102
}
330
3D
100
AcDbScale
 70
     0
300
1:4
140
1.0
141
4.0
290
     0
  0
SCALE
  5
41
102
{ACAD_REACTORS
330
3D
102
}
330
3D
100
AcDbScale
 70
     0
300
1:5
140
1.0
141
5.0
290
     0
  0
SCALE
  5
42
102
{ACAD_REACTORS
330
3D
102
}
330
3D
100
AcDbScale
 70
     0
300
1:8
140
1.0
141
8.0
290
     0
  0
SCALE
  5
43
102
{ACAD_REACTORS
330
3D
102
}
330
3D
100
AcDbScale
 70
     0
300
1:10
140
1.0
141
10.0
290
     0
  0
SCALE
  5
44
102
{ACAD_REACTORS
330
3D
102
}
330
3D
100
AcDbScale
 70
     0
300
1:16
140
1.0
141
16.0
290
     0
  0
SCALE
  5
45
102
{ACAD_REACTORS
330
3D
102
}
330
3D
100
AcDbScale
 70
     0
300
1:20
140
1.0
141
20.0
290
     0
  0
SCALE
  5
46
102
{ACAD_REACTORS
330
3D
102
}
330
3D
100
AcDbScale
 70
     0
300
1:30
140
1.0
141
30.0
290
     0
  0
SCALE
  5
47
102
{ACAD_REACTORS
330
3D
102
}
330
3D
100
AcDbScale
 70
     0
300
1:40
140
1.0
141
40.0
290
     0
  0
SCALE
  5
48
102
{ACAD_REACTORS
330
3D
102
}
330
3D
100
AcDbScale
 70
     0
300
1:50
140
1.0
141
50.0
290
     0
  0
SCALE
  5
49
102
{ACAD_REACTORS
330
3D
102
}
330
3D
100
AcDbScale
 70
     0
300
1:100
140
1.0
141
100.0
290
     0
  0
SCALE
  5
4A
102
{ACAD_REACTORS
330
3D
102
}
330
3D
100
AcDbScale
 70
     0
300
2:1
140
2.0
141
1.0
290
     0
  0
SCALE
  5
4B
102
{ACAD_REACTORS
330
3D
102
}
330
3D
100
AcDbScale
 70
     0
300
4:1
140
4.0
141
1.0
290
     0
  0
SCALE
  5
4C
102
{ACAD_REACTORS
330
3D
102
}
330
3D
100
AcDbScale
 70
     0
300
8:1
140
8.0
141
1.0
290
     0
  0
SCALE
  5
4D
102
{ACAD_REACTORS
330
3D
102
}
330
3D
100
AcDbScale
 70
     0
300
10:1
140
10.0
141
1.0
290
     0
  0
SCALE
  5
4E
102
{ACAD_REACTORS
330
3D
102
}
330
3D
100
AcDbScale
 70
     0
300
100:1
140
100.0
141
1.0
290
     0
  0
TABLESTYLE
  5
60
102
{ACAD_XDICTIONARY
360
5C1
102
}
102
{ACAD_REACTORS
330
5F
102
}
330
5F
100
AcDbTableStyle
  3
Standard
 70
     0
 71
     3
 40
1.5
 41
1.5
280
     0
281
     0
  7
STANDARD
140
4.5
170
     2
 62
     0
 63
     7
283
     0
274
    -2
284
     1
 64
     0
275
    -2
285
     1
 65
     0
276
    -2
286
     1
 66
     0
277
    -2
287
     1
 67
     0
278
    -2
288
     1
 68
     0
279
    -2
289
     1
 69
     0
  7
STANDARD
140
6.0
170
     5
 62
     0
 63
     7
283
     0
274
    -2
284
     1
 64
     0
275
    -2
285
     1
 65
     0
276
    -2
286
     1
 66
     0
277
    -2
287
     1
 67
     0
278
    -2
288
     1
 68
     0
279
    -2
289
     1
 69
     0
  7
STANDARD
140
4.5
170
     5
 62
     0
 63
     7
283
     0
274
    -2
284
     1
 64
     0
275
    -2
285
     1
 65
     0
276
    -2
286
     1
 66
     0
277
    -2
287
     1
 67
     0
278
    -2
288
     1
 68
     0
279
    -2
289
     1
 69
     0
  0
VISUALSTYLE
  5
2F
102
{ACAD_XDICTIONARY
360
1168
102
}
102
{ACAD_REACTORS
330
29
102
}
330
29
100
AcDbVisualStyle
  2

 70
     4
 71
     0
 72
     2
 73
     0
 90
        0
 40
-0.6
 41
-30.0
 62
     5
 63
     7
 74
     1
 91
        4
 64
     7
 65
   257
 75
     1
175
     1
 42
1.0
 92
        0
 66
   257
 43
1.0
 76
     1
 77
     6
 78
     2
 67
     7
 79
     5
170
     0
171
     0
290
     0
174
     0
 93
        1
 44
0.0
173
     0
291
     0
 45
0.0
1001
ACAD
1000
AcDbSavedByObjectVersion
1070
     0
  0
VISUALSTYLE
  5
31
102
{ACAD_XDICTIONARY
360
116C
102
}
102
{ACAD_REACTORS
330
29
102
}
330
29
100
AcDbVisualStyle
  2

 70
     6
 71
     1
 72
     2
 73
     2
 90
        0
 40
-0.6
 41
-30.0
 62
     5
 63
     7
 74
     2
 91
        2
 64
     7
 65
   257
 75
     2
175
     1
 42
179.0
 92
        0
 66
   257
 43
1.0
 76
     1
 77
     6
 78
     2
 67
     7
 79
     3
170
     0
171
     0
290
     0
174
     0
 93
        1
 44
0.0
173
     0
291
     0
 45
0.0
1001
ACAD
1000
AcDbSavedByObjectVersion
1070
     0
  0
VISUALSTYLE
  5
30
102
{ACAD_XDICTIONARY
360
116A
102
}
102
{ACAD_REACTORS
330
29
102
}
330
29
100
AcDbVisualStyle
  2

 70
     5
 71
     0
 72
     2
 73
     0
 90
        0
 40
-0.6
 41
-30.0
 62
     5
 63
     7
 74
     1
 91
        4
 64
     7
 65
   257
 75
     1
175
     1
 42
1.0
 92
        0
 66
   257
 43
1.0
 76
     1
 77
     6
 78
     2
 67
     7
 79
     5
170
     0
171
     0
290
     0
174
     0
 93
        1
 44
0.0
173
     0
291
     0
 45
0.0
1001
ACAD
1000
AcDbSavedByObjectVersion
1070
     0
  0
VISUALSTYLE
  5
2E
102
{ACAD_XDICTIONARY
360
1166
102
}
102
{ACAD_REACTORS
330
29
102
}
330
29
100
AcDbVisualStyle
  2

 70
     7
 71
     1
 72
     0
 73
     1
 90
        0
 40
-0.6
 41
-30.0
 62
     5
 63
     7
 74
     0
 91
        4
 64
     7
 65
   257
 75
     1
175
     1
 42
1.0
 92
        8
 66
     7
 43
1.0
 76
     1
 77
     6
 78
     2
 67
     7
 79
     5
170
     0
171
     0
290
     0
174
     0
 93
        1
 44
0.0
173
     0
291
     1
 45
0.0
1001
ACAD
1000
AcDbSavedByObjectVersion
1070
     0
  0
VISUALSTYLE
  5
35
102
{ACAD_XDICTIONARY
360
1174
102
}
102
{ACAD_REACTORS
330
29
102
}
330
29
100
AcDbVisualStyle
  2

 70
    12
 71
     2
 72
     2
 73
     0
 90
        0
 40
-0.6
 41
-30.0
 62
     5
 63
     7
 74
     1
 91
        4
 64
     7
 65
   257
 75
     1
175
     1
 42
1.0
 92
        8
 66
     7
 43
1.0
 76
     1
 77
     6
 78
     2
 67
     7
 79
     5
170
     0
171
     0
290
     0
174
     0
 93
        1
 44
50.0
173
     0
291
     1
 45
0.0
1001
ACAD
1000
AcDbSavedByObjectVersion
1070
     0
  0
VISUALSTYLE
  5
39
102
{ACAD_XDICTIONARY
360
117C
102
}
102
{ACAD_REACTORS
330
29
102
}
330
29
100
AcDbVisualStyle
  2

 70
    16
 71
     2
 72
     2
 73
     3
 90
        0
 40
-0.6
 41
-30.0
 62
     5
 63
     8
 74
     1
 91
        4
 64
     7
 65
   257
 75
     1
175
     1
 42
1.0
 92
        8
 66
     8
 43
1.0
 76
     1
 77
     6
 78
     2
 67
     7
 79
     5
170
     0
171
     0
290
     0
174
     0
 93
        1
 44
0.0
173
     0
291
     1
 45
0.0
1001
ACAD
1000
AcDbSavedByObjectVersion
1070
     0
  0
VISUALSTYLE
  5
32
102
{ACAD_XDICTIONARY
360
116E
102
}
102
{ACAD_REACTORS
330
29
102
}
330
29
100
AcDbVisualStyle
  2

 70
     9
 71
     3
 72
     2
 73
     0
 90
        0
 40
-0.6
 41
-30.0
 62
     5
 63
     7
 74
     2
 91
        2
 64
     7
 65
   257
 75
     1
175
     1
 42
179.0
 92
        8
 66
     7
 43
1.0
 76
     1
 77
     6
 78
     2
 67
     7
 79
     3
170
     0
171
     0
290
     0
174
     0
 93
        1
 44
0.0
173
     0
291
     0
 45
0.0
1001
ACAD
1000
AcDbSavedByObjectVersion
1070
     0
  0
VISUALSTYLE
  5
34
102
{ACAD_XDICTIONARY
360
1172
102
}
102
{ACAD_REACTORS
330
29
102
}
330
29
100
AcDbVisualStyle
  2

 70
    11
 71
     2
 72
     2
 73
     0
 90
        0
 40
-0.6
 41
-30.0
 62
     5
 63
     7
 74
     1
 91
        4
 64
     7
 65
   257
 75
     1
175
     1
 42
1.0
 92
        8
 66
     7
 43
1.0
 76
     1
 77
     6
 78
     2
 67
     7
 79
     5
170
     0
171
     0
290
     0
174
     0
 93
        1
 44
-50.0
173
     0
291
     1
 45
0.0
1001
ACAD
1000
AcDbSavedByObjectVersion
1070
     0
  0
VISUALSTYLE
  5
3C
102
{ACAD_XDICTIONARY
360
1182
102
}
102
{ACAD_REACTORS
330
29
102
}
330
29
100
AcDbVisualStyle
  2

 70
    22
 71
     2
 72
     2
 73
     0
 90
        0
 40
-0.6
 41
-30.0
 62
     5
 63
     7
 74
     1
 91
        4
 64
     7
 65
   257
 75
     1
175
     1
 42
1.0
 92
        8
 66
     7
 43
1.0
 76
     1
 77
     6
 78
     2
 67
     7
 79
     5
170
     0
171
     0
290
     0
174
     0
 93
        1
 44
0.0
173
     0
291
     1
 45
0.0
1001
ACAD
1000
AcDbSavedByObjectVersion
1070
     0
  0
VISUALSTYLE
  5
38
102
{ACAD_XDICTIONARY
360
117A
102
}
102
{ACAD_REACTORS
330
29
102
}
330
29
100
AcDbVisualStyle
  2

 70
    15
 71
     2
 72
     2
 73
     0
 90
        0
 40
-0.6
 41
-30.0
 62
     5
 63
     7
 74
     1
 91
        4
 64
     7
 65
   257
 75
     1
175
     1
 42
1.0
 92
        8
 66
     7
 43
1.0
 76
     1
 77
     6
 78
     2
 67
     7
 79
     5
170
     0
171
     0
290
     0
174
     0
 93
        1
 44
0.0
173
     0
291
     1
 45
0.0
1001
ACAD
1000
AcDbSavedByObjectVersion
1070
     0
  0
VISUALSTYLE
  5
2A
102
{ACAD_XDICTIONARY
360
115E
102
}
102
{ACAD_REACTORS
330
29
102
}
330
29
100
AcDbVisualStyle
  2

 70
     0
 71
     2
 72
     1
 73
     1
 90
        2
 40
-0.6
 41
30.0
 62
     5
 63
     7
 74
     0
 91
        4
 64
     7
 65
   257
 75
     1
175
     1
 42
1.0
 92
        8
 66
     7
 43
1.0
 76
     1
 77
     6
 78
     2
 67
     7
 79
     5
170
     0
171
     0
290
     0
174
     0
 93
       13
 44
0.0
173
     0
291
     1
 45
0.0
1001
ACAD
1000
AcDbSavedByObjectVersion
1070
     0
  0
VISUALSTYLE
  5
2B
102
{ACAD_XDICTIONARY
360
1160
102
}
102
{ACAD_REACTORS
330
29
102
}
330
29
100
AcDbVisualStyle
  2

 70
     1
 71
     2
 72
     1
 73
     1
 90
        2
 40
-0.6
 41
30.0
 62
     5
 63
     7
 74
     1
 91
        4
 64
     7
 65
   257
 75
     1
175
     1
 42
1.0
 92
        0
 66
   257
 43
1.0
 76
     1
 77
     6
 78
     2
 67
     7
 79
     5
170
     0
171
     0
290
     0
174
     0
 93
       13
 44
0.0
173
     0
291
     1
 45
0.0
1001
ACAD
1000
AcDbSavedByObjectVersion
1070
     0
  0
VISUALSTYLE
  5
2C
102
{ACAD_XDICTIONARY
360
1162
102
}
102
{ACAD_REACTORS
330
29
102
}
330
29
100
AcDbVisualStyle
  2

 70
     2
 71
     2
 72
     2
 73
     1
 90
        2
 40
-0.6
 41
30.0
 62
     5
 63
     7
 74
     0
 91
        4
 64
     7
 65
   257
 75
     1
175
     1
 42
1.0
 92
        0
 66
     7
 43
1.0
 76
     1
 77
     6
 78
     2
 67
     7
 79
     5
170
     0
171
     0
290
     0
174
     0
 93
       13
 44
0.0
173
     0
291
     1
 45
0.0
1001
ACAD
1000
AcDbSavedByObjectVersion
1070
     0
  0
VISUALSTYLE
  5
2D
102
{ACAD_XDICTIONARY
360
1164
102
}
102
{ACAD_REACTORS
330
29
102
}
330
29
100
AcDbVisualStyle
  2

 70
     3
 71
     2
 72
     2
 73
     1
 90
        2
 40
-0.6
 41
30.0
 62
     5
 63
     7
 74
     1
 91
        4
 64
     7
 65
   257
 75
     1
175
     1
 42
1.0
 92
        0
 66
   257
 43
1.0
 76
     1
 77
     6
 78
     2
 67
     7
 79
     5
170
     0
171
     0
290
     0
174
     0
 93
       13
 44
0.0
173
     0
291
     1
 45
0.0
1001
ACAD
1000
AcDbSavedByObjectVersion
1070
     0
  0
VISUALSTYLE
  5
3A
102
{ACAD_XDICTIONARY
360
117E
102
}
102
{ACAD_REACTORS
330
29
102
}
330
29
100
AcDbVisualStyle
  2

 70
    20
 71
     2
 72
     2
 73
     0
 90
        0
 40
-0.6
 41
-30.0
 62
     5
 63
     7
 74
     1
 91
        4
 64
     7
 65
   257
 75
     1
175
     1
 42
1.0
 92
       10
 66
     7
 43
1.0
 76
     1
 77
     6
 78
     2
 67
     7
 79
     5
170
     0
171
     0
290
     0
174
     0
 93
        1
 44
0.0
173
     0
291
     1
 45
0.0
1001
ACAD
1000
AcDbSavedByObjectVersion
1070
     0
  0
VISUALSTYLE
  5
37
102
{ACAD_XDICTIONARY
360
1178
102
}
102
{ACAD_REACTORS
330
29
102
}
330
29
100
AcDbVisualStyle
  2

 70
    14
 71
     2
 72
     2
 73
     0
 90
        0
 40
-0.6
 41
-30.0
 62
     5
 63
     7
 74
     1
 91
        4
 64
     7
 65
   257
 75
     7
175
     7
 42
1.0
 92
        8
 66
     7
 43
1.0
 76
     1
 77
     6
 78
     2
 67
     7
 79
     5
170
     0
171
     0
290
     0
174
     0
 93
        1
 44
0.0
173
     0
291
     1
 45
0.0
1001
ACAD
1000
AcDbSavedByObjectVersion
1070
     0
  0
VISUALSTYLE
  5
3B
102
{ACAD_XDICTIONARY
360
1180
102
}
102
{ACAD_REACTORS
330
29
102
}
330
29
100
AcDbVisualStyle
  2

 70
    21
 71
     2
 72
     2
 73
     0
 90
        0
 40
-0.6
 41
-30.0
 62
     5
 63
     7
 74
     1
 91
        4
 64
     7
 65
   257
 75
     1
175
     1
 42
1.0
 92
        9
 66
     7
 43
1.0
 76
     1
 77
     6
 78
     2
 67
     7
 79
     5
170
     0
171
     0
290
     0
174
     0
 93
        1
 44
0.0
173
     0
291
     1
 45
0.0
1001
ACAD
1000
AcDbSavedByObjectVersion
1070
     0
  0
VISUALSTYLE
  5
33
102
{ACAD_XDICTIONARY
360
1170
102
}
102
{ACAD_REACTORS
330
29
102
}
330
29
100
AcDbVisualStyle
  2

 70
     8
 71
     2
 72
     2
 73
     0
 90
        0
 40
-0.6
 41
-30.0
 62
     5
 63
     7
 74
     1
 91
        0
 64
     7
 65
   257
 75
     1
175
     1
 42
1.0
 92
        8
 66
     8
 43
1.0
 76
     1
 77
     6
 78
     2
 67
     7
 79
     5
170
     0
171
     0
290
     0
174
     0
 93
       13
 44
0.0
173
     0
291
     0
 45
0.0
1001
ACAD
1000
AcDbSavedByObjectVersion
1070
     0
  0
VISUALSTYLE
  5
36
102
{ACAD_XDICTIONARY
360
1176
102
}
102
{ACAD_REACTORS
330
29
102
}
330
29
100
AcDbVisualStyle
  2

 70
    13
 71
     2
 72
     2
 73
     0
 90
        0
 40
-0.6
 41
-30.0
 62
     5
 63
     7
 74
     1
 91
        4
 64
     7
 65
   257
 75
     1
175
     1
 42
1.0
 92
       12
 66
     7
 43
1.0
 76
     1
 77
     6
 78
     2
 67
     7
 79
     5
170
     0
171
     0
290
     0
174
     0
 93
        1
 44
0.0
173
     0
291
     1
 45
0.0
1001
ACAD
1000
AcDbSavedByObjectVersion
1070
     0
  0
DICTIONARYVAR
  5
4F0
102
{ACAD_REACTORS
330
4EC
102
}
330
4EC
100
DictionaryVariables
280
     0
  1
1
  0
DICTIONARYVAR
  5
4F1
102
{ACAD_REACTORS
330
4EC
102
}
330
4EC
100
DictionaryVariables
280
     0
  1
1:1
  0
DICTIONARYVAR
  5
4EE
102
{ACAD_REACTORS
330
4EC
102
}
330
4EC
100
DictionaryVariables
280
     0
  1
STANDARD
  0
DICTIONARYVAR
  5
4ED
102
{ACAD_REACTORS
330
4EC
102
}
330
4EC
100
DictionaryVariables
280
     0
  1
STANDARD
  0
DICTIONARYVAR
  5
5C0
102
{ACAD_REACTORS
330
4EC
102
}
330
4EC
100
DictionaryVariables
280
     0
  1
2
  0
DICTIONARYVAR
  5
5BE
102
{ACAD_REACTORS
330
4EC
102
}
330
4EC
100
DictionaryVariables
280
     0
  1
1
  0
DICTIONARYVAR
  5
5BD
102
{ACAD_REACTORS
330
4EC
102
}
330
4EC
100
DictionaryVariables
280
     0
  1
0
  0
DICTIONARYVAR
  5
4F3
102
{ACAD_REACTORS
330
4EC
102
}
330
4EC
100
DictionaryVariables
280
     0
  1
1
  0
DICTIONARYVAR
  5
4F4
102
{ACAD_REACTORS
330
4EC
102
}
330
4EC
100
DictionaryVariables
280
     0
  1
15
  0
DICTIONARYVAR
  5
4F2
102
{ACAD_REACTORS
330
4EC
102
}
330
4EC
100
DictionaryVariables
280
     0
  1
0
  0
DICTIONARYVAR
  5
4EF
102
{ACAD_REACTORS
330
4EC
102
}
330
4EC
100
DictionaryVariables
280
     0
  1
0
  0
DICTIONARYVAR
  5
5BC
102
{ACAD_REACTORS
330
4EC
102
}
330
4EC
100
DictionaryVariables
280
     0
  1
127
  0
DICTIONARYVAR
  5
1155
102
{ACAD_REACTORS
330
4EC
102
}
330
4EC
100
DictionaryVariables
280
     0
  1
2
  0
DICTIONARY
  5
557
102
{ACAD_REACTORS
330
54A
102
}
330
54A
100
AcDbDictionary
281
     1
  0
DICTIONARY
  5
1187
330
6A
100
AcDbDictionary
280
     1
281
     1
  3
ACAD_XREC_ROUNDTRIP
360
1188
  0
DICTIONARY
  5
1185
330
66
100
AcDbDictionary
280
     1
281
     1
  3
ACAD_XREC_ROUNDTRIP
360
1186
  0
DICTIONARY
  5
1189
330
6E
100
AcDbDictionary
280
     1
281
     1
  3
ACAD_XREC_ROUNDTRIP
360
118A
  0
DICTIONARY
  5
1A
330
19
100
AcDbDictionary
280
     1
281
     1
  3
ACAD_XREC_ROUNDTRIP
360
5CB
  3
BUMPTILE
360
1C
  3
DIFFUSETILE
360
1B
  3
OPACITYTILE
360
1F
  3
REFLECTIONTILE
360
1E
  3
REFRACTIONTILE
360
20
  3
SPECULARTILE
360
1D
  0
DICTIONARY
  5
12
330
11
100
AcDbDictionary
280
     1
281
     1
  3
ACAD_XREC_ROUNDTRIP
360
5CA
  3
BUMPTILE
360
14
  3
DIFFUSETILE
360
13
  3
OPACITYTILE
360
17
  3
REFLECTIONTILE
360
16
  3
REFRACTIONTILE
360
18
  3
SPECULARTILE
360
15
  0
DICTIONARY
  5
22
330
21
100
AcDbDictionary
280
     1
281
     1
  3
ACAD_XREC_ROUNDTRIP
360
5CC
  3
BUMPTILE
360
24
  3
DIFFUSETILE
360
23
  3
OPACITYTILE
360
27
  3
REFLECTIONTILE
360
26
  3
REFRACTIONTILE
360
28
  3
SPECULARTILE
360
25
  0
DICTIONARY
  5
5C1
330
60
100
AcDbDictionary
280
     1
281
     1
  3
ACAD_ROUNDTRIP_2008_TABLESTYLE_CELLSTYLEMAP
360
1156
  3
ACAD_XREC_ROUNDTRIP
360
1184
  0
DICTIONARY
  5
1168
330
2F
100
AcDbDictionary
280
     1
281
     1
  3
ACAD_XREC_ROUNDTRIP
360
1169
  0
DICTIONARY
  5
116C
330
31
100
AcDbDictionary
280
     1
281
     1
  3
ACAD_XREC_ROUNDTRIP
360
116D
  0
DICTIONARY
  5
116A
330
30
100
AcDbDictionary
280
     1
281
     1
  3
ACAD_XREC_ROUNDTRIP
360
116B
  0
DICTIONARY
  5
1166
330
2E
100
AcDbDictionary
280
     1
281
     1
  3
ACAD_XREC_ROUNDTRIP
360
1167
  0
DICTIONARY
  5
1174
330
35
100
AcDbDictionary
280
     1
281
     1
  3
ACAD_XREC_ROUNDTRIP
360
1175
  0
DICTIONARY
  5
117C
330
39
100
AcDbDictionary
280
     1
281
     1
  3
ACAD_XREC_ROUNDTRIP
360
117D
  0
DICTIONARY
  5
116E
330
32
100
AcDbDictionary
280
     1
281
     1
  3
ACAD_XREC_ROUNDTRIP
360
116F
  0
DICTIONARY
  5
1172
330
34
100
AcDbDictionary
280
     1
281
     1
  3
ACAD_XREC_ROUNDTRIP
360
1173
  0
DICTIONARY
  5
1182
330
3C
100
AcDbDictionary
280
     1
281
     1
  3
ACAD_XREC_ROUNDTRIP
360
1183
  0
DICTIONARY
  5
117A
330
38
100
AcDbDictionary
280
     1
281
     1
  3
ACAD_XREC_ROUNDTRIP
360
117B
  0
DICTIONARY
  5
115E
330
2A
100
AcDbDictionary
280
     1
281
     1
  3
ACAD_XREC_ROUNDTRIP
360
115F
  0
DICTIONARY
  5
1160
330
2B
100
AcDbDictionary
280
     1
281
     1
  3
ACAD_XREC_ROUNDTRIP
360
1161
  0
DICTIONARY
  5
1162
330
2C
100
AcDbDictionary
280
     1
281
     1
  3
ACAD_XREC_ROUNDTRIP
360
1163
  0
DICTIONARY
  5
1164
330
2D
100
AcDbDictionary
280
     1
281
     1
  3
ACAD_XREC_ROUNDTRIP
360
1165
  0
DICTIONARY
  5
117E
330
3A
100
AcDbDictionary
280
     1
281
     1
  3
ACAD_XREC_ROUNDTRIP
360
117F
  0
DICTIONARY
  5
1178
330
37
100
AcDbDictionary
280
     1
281
     1
  3
ACAD_XREC_ROUNDTRIP
360
1179
  0
DICTIONARY
  5
1180
330
3B
100
AcDbDictionary
280
     1
281
     1
  3
ACAD_XREC_ROUNDTRIP
360
1181
  0
DICTIONARY
  5
1170
330
33
100
AcDbDictionary
280
     1
281
     1
  3
ACAD_XREC_ROUNDTRIP
360
1171
  0
DICTIONARY
  5
1176
330
36
100
AcDbDictionary
280
     1
281
     1
  3
ACAD_XREC_ROUNDTRIP
360
1177
  0
XRECORD
  5
1188
102
{ACAD_REACTORS
330
1187
102
}
330
1187
100
AcDbXrecord
280
     1
102
SHADEPLOT
 70
     0
102
SHADEPLOTRESLEVEL
 70
     2
102
SHADEPLOTCUSTOMDPI
 70
   300
  0
XRECORD
  5
1186
102
{ACAD_REACTORS
330
1185
102
}
330
1185
100
AcDbXrecord
280
     1
102
SHADEPLOT
 70
     0
102
SHADEPLOTRESLEVEL
 70
     2
102
SHADEPLOTCUSTOMDPI
 70
   300
  0
XRECORD
  5
118A
102
{ACAD_REACTORS
330
1189
102
}
330
1189
100
AcDbXrecord
280
     1
102
SHADEPLOT
 70
     0
102
SHADEPLOTRESLEVEL
 70
     2
102
SHADEPLOTCUSTOMDPI
 70
   300
  0
XRECORD
  5
5CB
102
{ACAD_REACTORS
330
1A
102
}
330
1A
100
AcDbXrecord
280
     1
102
MATERIAL
148
0.0
149
0.0
149
0.0
 93
        0
 94
      127
282
     0
 72
     0
 77
     0
171
     0
175
     0
179
     0
273
     0
  0
XRECORD
  5
1C
102
{ACAD_REACTORS
330
1A
102
}
330
1A
100
AcDbXrecord
280
     1
270
     1
271
     1
  0
XRECORD
  5
1B
102
{ACAD_REACTORS
330
1A
102
}
330
1A
100
AcDbXrecord
280
     1
270
     1
271
     1
  0
XRECORD
  5
1F
102
{ACAD_REACTORS
330
1A
102
}
330
1A
100
AcDbXrecord
280
     1
270
     1
271
     1
  0
XRECORD
  5
1E
102
{ACAD_REACTORS
330
1A
102
}
330
1A
100
AcDbXrecord
280
     1
270
     1
271
     1
  0
XRECORD
  5
20
102
{ACAD_REACTORS
330
1A
102
}
330
1A
100
AcDbXrecord
280
     1
270
     1
271
     1
  0
XRECORD
  5
1D
102
{ACAD_REACTORS
330
1A
102
}
330
1A
100
AcDbXrecord
280
     1
270
     1
271
     1
  0
XRECORD
  5
5CA
102
{ACAD_REACTORS
330
12
102
}
330
12
100
AcDbXrecord
280
     1
102
MATERIAL
148
0.0
149
0.0
149
0.0
 93
        0
 94
      127
282
     0
 72
     0
 77
     0
171
     0
175
     0
179
     0
273
     0
  0
XRECORD
  5
14
102
{ACAD_REACTORS
330
12
102
}
330
12
100
AcDbXrecord
280
     1
270
     1
271
     1
  0
XRECORD
  5
13
102
{ACAD_REACTORS
330
12
102
}
330
12
100
AcDbXrecord
280
     1
270
     1
271
     1
  0
XRECORD
  5
17
102
{ACAD_REACTORS
330
12
102
}
330
12
100
AcDbXrecord
280
     1
270
     1
271
     1
  0
XRECORD
  5
16
102
{ACAD_REACTORS
330
12
102
}
330
12
100
AcDbXrecord
280
     1
270
     1
271
     1
  0
XRECORD
  5
18
102
{ACAD_REACTORS
330
12
102
}
330
12
100
AcDbXrecord
280
     1
270
     1
271
     1
  0
XRECORD
  5
15
102
{ACAD_REACTORS
330
12
102
}
330
12
100
AcDbXrecord
280
     1
270
     1
271
     1
  0
XRECORD
  5
5CC
102
{ACAD_REACTORS
330
22
102
}
330
22
100
AcDbXrecord
280
     1
102
MATERIAL
148
0.0
149
0.0
149
0.0
 93
        0
 94
      127
282
     0
 72
     0
 77
     0
171
     0
175
     0
179
     0
273
     0
  0
XRECORD
  5
24
102
{ACAD_REACTORS
330
22
102
}
330
22
100
AcDbXrecord
280
     1
270
     1
271
     1
  0
XRECORD
  5
23
102
{ACAD_REACTORS
330
22
102
}
330
22
100
AcDbXrecord
280
     1
270
     1
271
     1
  0
XRECORD
  5
27
102
{ACAD_REACTORS
330
22
102
}
330
22
100
AcDbXrecord
280
     1
270
     1
271
     1
  0
XRECORD
  5
26
102
{ACAD_REACTORS
330
22
102
}
330
22
100
AcDbXrecord
280
     1
270
     1
271
     1
  0
XRECORD
  5
28
102
{ACAD_REACTORS
330
22
102
}
330
22
100
AcDbXrecord
280
     1
270
     1
271
     1
  0
XRECORD
  5
25
102
{ACAD_REACTORS
330
22
102
}
330
22
100
AcDbXrecord
280
     1
270
     1
271
     1
  0
CELLSTYLEMAP
  5
1156
102
{ACAD_REACTORS
330
5C1
102
}
330
5C1
100
AcDbCellStyleMap
 90
        3
300
CELLSTYLE
  1
TABLEFORMAT_BEGIN
 90
        5
170
     1
 91
        0
 92
    32768
 62
   257
 93
        1
300
CONTENTFORMAT
  1
CONTENTFORMAT_BEGIN
 90
        0
 91
        0
 92
      512
 93
        0
300

 40
0.0
140
1.0
 94
        5
 62
     0
340
50
144
6.0
309
CONTENTFORMAT_END
171
     1
301
MARGIN
  1
CELLMARGIN_BEGIN
 40
1.5
 40
1.5
 40
1.5
 40
1.5
 40
0.18
 40
0.18
309
CELLMARGIN_END
 94
        6
 95
        1
302
GRIDFORMAT
  1
GRIDFORMAT_BEGIN
 90
        0
 91
        1
 62
     0
 92
       -2
340
0
 93
        0
 40
0.045
309
GRIDFORMAT_END
 95
        2
302
GRIDFORMAT
  1
GRIDFORMAT_BEGIN
 90
        0
 91
        1
 62
     0
 92
       -2
340
0
 93
        0
 40
0.045
309
GRIDFORMAT_END
 95
        4
302
GRIDFORMAT
  1
GRIDFORMAT_BEGIN
 90
        0
 91
        1
 62
     0
 92
       -2
340
0
 93
        0
 40
0.045
309
GRIDFORMAT_END
 95
        8
302
GRIDFORMAT
  1
GRIDFORMAT_BEGIN
 90
        0
 91
        1
 62
     0
 92
       -2
340
0
 93
        0
 40
0.045
309
GRIDFORMAT_END
 95
       16
302
GRIDFORMAT
  1
GRIDFORMAT_BEGIN
 90
        0
 91
        1
 62
     0
 92
       -2
340
0
 93
        0
 40
0.045
309
GRIDFORMAT_END
 95
       32
302
GRIDFORMAT
  1
GRIDFORMAT_BEGIN
 90
        0
 91
        1
 62
     0
 92
       -2
340
0
 93
        0
 40
0.045
309
GRIDFORMAT_END
309
TABLEFORMAT_END
  1
CELLSTYLE_BEGIN
 90
        1
 91
        1
300
_TITLE
309
CELLSTYLE_END
300
CELLSTYLE
  1
TABLEFORMAT_BEGIN
 90
        5
170
     1
 91
        0
 92
        0
 62
   257
 93
        1
300
CONTENTFORMAT
  1
CONTENTFORMAT_BEGIN
 90
        0
 91
        0
 92
      512
 93
        0
300

 40
0.0
140
1.0
 94
        5
 62
     0
340
50
144
4.5
309
CONTENTFORMAT_END
171
     1
301
MARGIN
  1
CELLMARGIN_BEGIN
 40
1.5
 40
1.5
 40
1.5
 40
1.5
 40
0.18
 40
0.18
309
CELLMARGIN_END
 94
        6
 95
        1
302
GRIDFORMAT
  1
GRIDFORMAT_BEGIN
 90
        0
 91
        1
 62
     0
 92
       -2
340
0
 93
        0
 40
0.045
309
GRIDFORMAT_END
 95
        2
302
GRIDFORMAT
  1
GRIDFORMAT_BEGIN
 90
        0
 91
        1
 62
     0
 92
       -2
340
0
 93
        0
 40
0.045
309
GRIDFORMAT_END
 95
        4
302
GRIDFORMAT
  1
GRIDFORMAT_BEGIN
 90
        0
 91
        1
 62
     0
 92
       -2
340
0
 93
        0
 40
0.045
309
GRIDFORMAT_END
 95
        8
302
GRIDFORMAT
  1
GRIDFORMAT_BEGIN
 90
        0
 91
        1
 62
     0
 92
       -2
340
0
 93
        0
 40
0.045
309
GRIDFORMAT_END
 95
       16
302
GRIDFORMAT
  1
GRIDFORMAT_BEGIN
 90
        0
 91
        1
 62
     0
 92
       -2
340
0
 93
        0
 40
0.045
309
GRIDFORMAT_END
 95
       32
302
GRIDFORMAT
  1
GRIDFORMAT_BEGIN
 90
        0
 91
        1
 62
     0
 92
       -2
340
0
 93
        0
 40
0.045
309
GRIDFORMAT_END
309
TABLEFORMAT_END
  1
CELLSTYLE_BEGIN
 90
        2
 91
        1
300
_HEADER
309
CELLSTYLE_END
300
CELLSTYLE
  1
TABLEFORMAT_BEGIN
 90
        5
170
     1
 91
        0
 92
        0
 62
   257
 93
        1
300
CONTENTFORMAT
  1
CONTENTFORMAT_BEGIN
 90
        0
 91
        0
 92
      512
 93
        0
300

 40
0.0
140
1.0
 94
        2
 62
     0
340
50
144
4.5
309
CONTENTFORMAT_END
171
     1
301
MARGIN
  1
CELLMARGIN_BEGIN
 40
1.5
 40
1.5
 40
1.5
 40
1.5
 40
0.18
 40
0.18
309
CELLMARGIN_END
 94
        6
 95
        1
302
GRIDFORMAT
  1
GRIDFORMAT_BEGIN
 90
        0
 91
        1
 62
     0
 92
       -2
340
0
 93
        0
 40
0.045
309
GRIDFORMAT_END
 95
        2
302
GRIDFORMAT
  1
GRIDFORMAT_BEGIN
 90
        0
 91
        1
 62
     0
 92
       -2
340
0
 93
        0
 40
0.045
309
GRIDFORMAT_END
 95
        4
302
GRIDFORMAT
  1
GRIDFORMAT_BEGIN
 90
        0
 91
        1
 62
     0
 92
       -2
340
0
 93
        0
 40
0.045
309
GRIDFORMAT_END
 95
        8
302
GRIDFORMAT
  1
GRIDFORMAT_BEGIN
 90
        0
 91
        1
 62
     0
 92
       -2
340
0
 93
        0
 40
0.045
309
GRIDFORMAT_END
 95
       16
302
GRIDFORMAT
  1
GRIDFORMAT_BEGIN
 90
        0
 91
        1
 62
     0
 92
       -2
340
0
 93
        0
 40
0.045
309
GRIDFORMAT_END
 95
       32
302
GRIDFORMAT
  1
GRIDFORMAT_BEGIN
 90
        0
 91
        1
 62
     0
 92
       -2
340
0
 93
        0
 40
0.045
309
GRIDFORMAT_END
309
TABLEFORMAT_END
  1
CELLSTYLE_BEGIN
 90
        3
 91
        2
300
_DATA
309
CELLSTYLE_END
  0
XRECORD
  5
1184
102
{ACAD_REACTORS
330
5C1
102
}
330
5C1
100
AcDbXrecord
280
     1
102
ACAD_ROUNDTRIP_PRE2007_TABLESTYLE
 90
      512
 91
        0
  1

 92
      512
 93
        0
  2

 94
      512
 95
        0
  3

  0
XRECORD
  5
1169
102
{ACAD_REACTORS
330
1168
102
}
330
1168
100
AcDbXrecord
280
     1
102
RTVSPropertyOp0
 70
     1
102
RTVSPropertyOp1
 70
     1
102
RTVSPropertyOp2
 70
     1
102
RTVSPropertyOp3
 70
     1
102
RTVSPropertyOp4
 70
     1
102
RTVSPropertyOp5
 70
     1
102
RTVSPropertyOp6
 70
     1
102
RTVSPropertyOp7
 70
     1
102
RTVSPropertyOp8
 70
     1
102
RTVSPropertyOp9
 70
     1
102
RTVSPropertyOp10
 70
     1
102
RTVSPropertyOp11
 70
     1
102
RTVSPropertyOp12
 70
     1
102
RTVSPropertyOp13
 70
     1
102
RTVSPropertyOp14
 70
     1
102
RTVSPropertyOp15
 70
     1
102
RTVSPropertyOp16
 70
     1
102
RTVSPropertyOp17
 70
     1
102
RTVSPropertyOp18
 70
     1
102
RTVSPropertyOp19
 70
     1
102
RTVSPropertyOp20
 70
     1
102
RTVSPropertyOp21
 70
     1
102
RTVSPropertyOp22
 70
     1
102
RTVSPropertyOp23
 70
     1
102
RTVSPropertyOp24
 70
     1
102
RTVSPropertyOp25
 70
     1
102
RTVSPropertyOp26
 70
     1
102
RTVSPropertyOp27
 70
     1
  0
XRECORD
  5
116D
102
{ACAD_REACTORS
330
116C
102
}
330
116C
100
AcDbXrecord
280
     1
102
RTVSPropertyOp0
 70
     1
102
RTVSPropertyOp1
 70
     1
102
RTVSPropertyOp2
 70
     1
102
RTVSPropertyOp3
 70
     1
102
RTVSPropertyOp4
 70
     1
102
RTVSPropertyOp5
 70
     1
102
RTVSPropertyOp6
 70
     1
102
RTVSPropertyOp7
 70
     1
102
RTVSPropertyOp8
 70
     1
102
RTVSPropertyOp9
 70
     1
102
RTVSPropertyOp10
 70
     1
102
RTVSPropertyOp11
 70
     1
102
RTVSPropertyOp12
 70
     1
102
RTVSPropertyOp13
 70
     1
102
RTVSPropertyOp14
 70
     1
102
RTVSPropertyOp15
 70
     1
102
RTVSPropertyOp16
 70
     1
102
RTVSPropertyOp17
 70
     1
102
RTVSPropertyOp18
 70
     1
102
RTVSPropertyOp19
 70
     1
102
RTVSPropertyOp20
 70
     1
102
RTVSPropertyOp21
 70
     1
102
RTVSPropertyOp22
 70
     1
102
RTVSPropertyOp23
 70
     1
102
RTVSPropertyOp24
 70
     1
102
RTVSPropertyOp25
 70
     1
102
RTVSPropertyOp26
 70
     1
102
RTVSPropertyOp27
 70
     1
  0
XRECORD
  5
116B
102
{ACAD_REACTORS
330
116A
102
}
330
116A
100
AcDbXrecord
280
     1
102
RTVSPropertyOp0
 70
     1
102
RTVSPropertyOp1
 70
     1
102
RTVSPropertyOp2
 70
     1
102
RTVSPropertyOp3
 70
     1
102
RTVSPropertyOp4
 70
     1
102
RTVSPropertyOp5
 70
     1
102
RTVSPropertyOp6
 70
     1
102
RTVSPropertyOp7
 70
     1
102
RTVSPropertyOp8
 70
     1
102
RTVSPropertyOp9
 70
     1
102
RTVSPropertyOp10
 70
     1
102
RTVSPropertyOp11
 70
     1
102
RTVSPropertyOp12
 70
     1
102
RTVSPropertyOp13
 70
     1
102
RTVSPropertyOp14
 70
     1
102
RTVSPropertyOp15
 70
     1
102
RTVSPropertyOp16
 70
     1
102
RTVSPropertyOp17
 70
     1
102
RTVSPropertyOp18
 70
     1
102
RTVSPropertyOp19
 70
     1
102
RTVSPropertyOp20
 70
     1
102
RTVSPropertyOp21
 70
     1
102
RTVSPropertyOp22
 70
     1
102
RTVSPropertyOp23
 70
     1
102
RTVSPropertyOp24
 70
     1
102
RTVSPropertyOp25
 70
     1
102
RTVSPropertyOp26
 70
     1
102
RTVSPropertyOp27
 70
     1
  0
XRECORD
  5
1167
102
{ACAD_REACTORS
330
1166
102
}
330
1166
100
AcDbXrecord
280
     1
102
RTVSPropertyOp0
 70
     1
102
RTVSPropertyOp1
 70
     1
102
RTVSPropertyOp2
 70
     1
102
RTVSPropertyOp3
 70
     1
102
RTVSPropertyOp4
 70
     1
102
RTVSPropertyOp5
 70
     1
102
RTVSPropertyOp6
 70
     1
102
RTVSPropertyOp7
 70
     1
102
RTVSPropertyOp8
 70
     1
102
RTVSPropertyOp9
 70
     1
102
RTVSPropertyOp10
 70
     1
102
RTVSPropertyOp11
 70
     1
102
RTVSPropertyOp12
 70
     1
102
RTVSPropertyOp13
 70
     1
102
RTVSPropertyOp14
 70
     1
102
RTVSPropertyOp15
 70
     1
102
RTVSPropertyOp16
 70
     1
102
RTVSPropertyOp17
 70
     1
102
RTVSPropertyOp18
 70
     1
102
RTVSPropertyOp19
 70
     1
102
RTVSPropertyOp20
 70
     1
102
RTVSPropertyOp21
 70
     1
102
RTVSPropertyOp22
 70
     1
102
RTVSPropertyOp23
 70
     1
102
RTVSPropertyOp24
 70
     1
102
RTVSPropertyOp25
 70
     1
102
RTVSPropertyOp26
 70
     1
102
RTVSPropertyOp27
 70
     1
  0
XRECORD
  5
1175
102
{ACAD_REACTORS
330
1174
102
}
330
1174
100
AcDbXrecord
280
     1
102
RTVSPropertyOp0
 70
     1
102
RTVSPropertyOp1
 70
     1
102
RTVSPropertyOp2
 70
     1
102
RTVSPropertyOp3
 70
     1
102
RTVSPropertyOp4
 70
     1
102
RTVSPropertyOp5
 70
     1
102
RTVSPropertyOp6
 70
     1
102
RTVSPropertyOp7
 70
     1
102
RTVSPropertyOp8
 70
     1
102
RTVSPropertyOp9
 70
     1
102
RTVSPropertyOp10
 70
     1
102
RTVSPropertyOp11
 70
     1
102
RTVSPropertyOp12
 70
     1
102
RTVSPropertyOp13
 70
     1
102
RTVSPropertyOp14
 70
     1
102
RTVSPropertyOp15
 70
     1
102
RTVSPropertyOp16
 70
     1
102
RTVSPropertyOp17
 70
     1
102
RTVSPropertyOp18
 70
     1
102
RTVSPropertyOp19
 70
     1
102
RTVSPropertyOp20
 70
     1
102
RTVSPropertyOp21
 70
     1
102
RTVSPropertyOp22
 70
     1
102
RTVSPropertyOp23
 70
     1
102
RTVSPropertyOp24
 70
     1
102
RTVSPropertyOp25
 70
     1
102
RTVSPropertyOp26
 70
     1
102
RTVSPropertyOp27
 70
     1
  0
XRECORD
  5
117D
102
{ACAD_REACTORS
330
117C
102
}
330
117C
100
AcDbXrecord
280
     1
102
RTVSPropertyOp0
 70
     1
102
RTVSPropertyOp1
 70
     1
102
RTVSPropertyOp2
 70
     1
102
RTVSPropertyOp3
 70
     1
102
RTVSPropertyOp4
 70
     1
102
RTVSPropertyOp5
 70
     1
102
RTVSPropertyOp6
 70
     1
102
RTVSPropertyOp7
 70
     1
102
RTVSPropertyOp8
 70
     1
102
RTVSPropertyOp9
 70
     1
102
RTVSPropertyOp10
 70
     1
102
RTVSPropertyOp11
 70
     1
102
RTVSPropertyOp12
 70
     1
102
RTVSPropertyOp13
 70
     1
102
RTVSPropertyOp14
 70
     1
102
RTVSPropertyOp15
 70
     1
102
RTVSPropertyOp16
 70
     1
102
RTVSPropertyOp17
 70
     1
102
RTVSPropertyOp18
 70
     1
102
RTVSPropertyOp19
 70
     1
102
RTVSPropertyOp20
 70
     1
102
RTVSPropertyOp21
 70
     1
102
RTVSPropertyOp22
 70
     1
102
RTVSPropertyOp23
 70
     1
102
RTVSPropertyOp24
 70
     1
102
RTVSPropertyOp25
 70
     1
102
RTVSPropertyOp26
 70
     1
102
RTVSPropertyOp27
 70
     1
  0
XRECORD
  5
116F
102
{ACAD_REACTORS
330
116E
102
}
330
116E
100
AcDbXrecord
280
     1
102
RTVSPropertyOp0
 70
     1
102
RTVSPropertyOp1
 70
     1
102
RTVSPropertyOp2
 70
     1
102
RTVSPropertyOp3
 70
     1
102
RTVSPropertyOp4
 70
     1
102
RTVSPropertyOp5
 70
     1
102
RTVSPropertyOp6
 70
     1
102
RTVSPropertyOp7
 70
     1
102
RTVSPropertyOp8
 70
     1
102
RTVSPropertyOp9
 70
     1
102
RTVSPropertyOp10
 70
     1
102
RTVSPropertyOp11
 70
     1
102
RTVSPropertyOp12
 70
     1
102
RTVSPropertyOp13
 70
     1
102
RTVSPropertyOp14
 70
     1
102
RTVSPropertyOp15
 70
     1
102
RTVSPropertyOp16
 70
     1
102
RTVSPropertyOp17
 70
     1
102
RTVSPropertyOp18
 70
     1
102
RTVSPropertyOp19
 70
     1
102
RTVSPropertyOp20
 70
     1
102
RTVSPropertyOp21
 70
     1
102
RTVSPropertyOp22
 70
     1
102
RTVSPropertyOp23
 70
     1
102
RTVSPropertyOp24
 70
     1
102
RTVSPropertyOp25
 70
     1
102
RTVSPropertyOp26
 70
     1
102
RTVSPropertyOp27
 70
     1
  0
XRECORD
  5
1173
102
{ACAD_REACTORS
330
1172
102
}
330
1172
100
AcDbXrecord
280
     1
102
RTVSPropertyOp0
 70
     1
102
RTVSPropertyOp1
 70
     1
102
RTVSPropertyOp2
 70
     1
102
RTVSPropertyOp3
 70
     1
102
RTVSPropertyOp4
 70
     1
102
RTVSPropertyOp5
 70
     1
102
RTVSPropertyOp6
 70
     1
102
RTVSPropertyOp7
 70
     1
102
RTVSPropertyOp8
 70
     1
102
RTVSPropertyOp9
 70
     1
102
RTVSPropertyOp10
 70
     1
102
RTVSPropertyOp11
 70
     1
102
RTVSPropertyOp12
 70
     1
102
RTVSPropertyOp13
 70
     1
102
RTVSPropertyOp14
 70
     1
102
RTVSPropertyOp15
 70
     1
102
RTVSPropertyOp16
 70
     1
102
RTVSPropertyOp17
 70
     1
102
RTVSPropertyOp18
 70
     1
102
RTVSPropertyOp19
 70
     1
102
RTVSPropertyOp20
 70
     1
102
RTVSPropertyOp21
 70
     1
102
RTVSPropertyOp22
 70
     1
102
RTVSPropertyOp23
 70
     1
102
RTVSPropertyOp24
 70
     1
102
RTVSPropertyOp25
 70
     1
102
RTVSPropertyOp26
 70
     1
102
RTVSPropertyOp27
 70
     1
  0
XRECORD
  5
1183
102
{ACAD_REACTORS
330
1182
102
}
330
1182
100
AcDbXrecord
280
     1
102
RTVSPropertyOp0
 70
     0
102
RTVSPropertyOp1
 70
     0
102
RTVSPropertyOp2
 70
     0
102
RTVSPropertyOp3
 70
     0
102
RTVSPropertyOp4
 70
     0
102
RTVSPropertyOp5
 70
     0
102
RTVSPropertyOp6
 70
     0
102
RTVSPropertyOp7
 70
     0
102
RTVSPropertyOp8
 70
     0
102
RTVSPropertyOp9
 70
     0
102
RTVSPropertyOp10
 70
     0
102
RTVSPropertyOp11
 70
     0
102
RTVSPropertyOp12
 70
     0
102
RTVSPropertyOp13
 70
     0
102
RTVSPropertyOp14
 70
     2
102
RTVSPropertyOp15
 70
     0
102
RTVSPropertyOp16
 70
     0
102
RTVSPropertyOp17
 70
     0
102
RTVSPropertyOp18
 70
     0
102
RTVSPropertyOp19
 70
     0
102
RTVSPropertyOp20
 70
     0
102
RTVSPropertyOp21
 70
     0
102
RTVSPropertyOp22
 70
     0
102
RTVSPropertyOp23
 70
     0
102
RTVSPropertyOp24
 70
     0
102
RTVSPropertyOp25
 70
     0
102
RTVSPropertyOp26
 70
     0
102
RTVSPropertyOp27
 70
     0
  0
XRECORD
  5
117B
102
{ACAD_REACTORS
330
117A
102
}
330
117A
100
AcDbXrecord
280
     1
102
RTVSPropertyOp0
 70
     1
102
RTVSPropertyOp1
 70
     1
102
RTVSPropertyOp2
 70
     1
102
RTVSPropertyOp3
 70
     1
102
RTVSPropertyOp4
 70
     1
102
RTVSPropertyOp5
 70
     1
102
RTVSPropertyOp6
 70
     1
102
RTVSPropertyOp7
 70
     1
102
RTVSPropertyOp8
 70
     1
102
RTVSPropertyOp9
 70
     1
102
RTVSPropertyOp10
 70
     1
102
RTVSPropertyOp11
 70
     1
102
RTVSPropertyOp12
 70
     1
102
RTVSPropertyOp13
 70
     1
102
RTVSPropertyOp14
 70
     1
102
RTVSPropertyOp15
 70
     1
102
RTVSPropertyOp16
 70
     1
102
RTVSPropertyOp17
 70
     1
102
RTVSPropertyOp18
 70
     1
102
RTVSPropertyOp19
 70
     1
102
RTVSPropertyOp20
 70
     1
102
RTVSPropertyOp21
 70
     1
102
RTVSPropertyOp22
 70
     1
102
RTVSPropertyOp23
 70
     1
102
RTVSPropertyOp24
 70
     1
102
RTVSPropertyOp25
 70
     1
102
RTVSPropertyOp26
 70
     1
102
RTVSPropertyOp27
 70
     1
  0
XRECORD
  5
115F
102
{ACAD_REACTORS
330
115E
102
}
330
115E
100
AcDbXrecord
280
     1
102
RTVSPropertyOp0
 70
     1
102
RTVSPropertyOp1
 70
     1
102
RTVSPropertyOp2
 70
     1
102
RTVSPropertyOp3
 70
     1
102
RTVSPropertyOp4
 70
     1
102
RTVSPropertyOp5
 70
     1
102
RTVSPropertyOp6
 70
     1
102
RTVSPropertyOp7
 70
     1
102
RTVSPropertyOp8
 70
     1
102
RTVSPropertyOp9
 70
     1
102
RTVSPropertyOp10
 70
     1
102
RTVSPropertyOp11
 70
     1
102
RTVSPropertyOp12
 70
     1
102
RTVSPropertyOp13
 70
     1
102
RTVSPropertyOp14
 70
     1
102
RTVSPropertyOp15
 70
     1
102
RTVSPropertyOp16
 70
     1
102
RTVSPropertyOp17
 70
     1
102
RTVSPropertyOp18
 70
     1
102
RTVSPropertyOp19
 70
     1
102
RTVSPropertyOp20
 70
     1
102
RTVSPropertyOp21
 70
     1
102
RTVSPropertyOp22
 70
     1
102
RTVSPropertyOp23
 70
     1
102
RTVSPropertyOp24
 70
     1
102
RTVSPropertyOp25
 70
     1
102
RTVSPropertyOp26
 70
     1
102
RTVSPropertyOp27
 70
     1
  0
XRECORD
  5
1161
102
{ACAD_REACTORS
330
1160
102
}
330
1160
100
AcDbXrecord
280
     1
102
RTVSPropertyOp0
 70
     1
102
RTVSPropertyOp1
 70
     1
102
RTVSPropertyOp2
 70
     1
102
RTVSPropertyOp3
 70
     1
102
RTVSPropertyOp4
 70
     1
102
RTVSPropertyOp5
 70
     1
102
RTVSPropertyOp6
 70
     1
102
RTVSPropertyOp7
 70
     1
102
RTVSPropertyOp8
 70
     1
102
RTVSPropertyOp9
 70
     1
102
RTVSPropertyOp10
 70
     1
102
RTVSPropertyOp11
 70
     1
102
RTVSPropertyOp12
 70
     1
102
RTVSPropertyOp13
 70
     1
102
RTVSPropertyOp14
 70
     1
102
RTVSPropertyOp15
 70
     1
102
RTVSPropertyOp16
 70
     1
102
RTVSPropertyOp17
 70
     1
102
RTVSPropertyOp18
 70
     1
102
RTVSPropertyOp19
 70
     1
102
RTVSPropertyOp20
 70
     1
102
RTVSPropertyOp21
 70
     1
102
RTVSPropertyOp22
 70
     1
102
RTVSPropertyOp23
 70
     1
102
RTVSPropertyOp24
 70
     1
102
RTVSPropertyOp25
 70
     1
102
RTVSPropertyOp26
 70
     1
102
RTVSPropertyOp27
 70
     1
  0
XRECORD
  5
1163
102
{ACAD_REACTORS
330
1162
102
}
330
1162
100
AcDbXrecord
280
     1
102
RTVSPropertyOp0
 70
     1
102
RTVSPropertyOp1
 70
     1
102
RTVSPropertyOp2
 70
     1
102
RTVSPropertyOp3
 70
     1
102
RTVSPropertyOp4
 70
     1
102
RTVSPropertyOp5
 70
     1
102
RTVSPropertyOp6
 70
     1
102
RTVSPropertyOp7
 70
     1
102
RTVSPropertyOp8
 70
     1
102
RTVSPropertyOp9
 70
     1
102
RTVSPropertyOp10
 70
     1
102
RTVSPropertyOp11
 70
     1
102
RTVSPropertyOp12
 70
     1
102
RTVSPropertyOp13
 70
     1
102
RTVSPropertyOp14
 70
     1
102
RTVSPropertyOp15
 70
     1
102
RTVSPropertyOp16
 70
     1
102
RTVSPropertyOp17
 70
     1
102
RTVSPropertyOp18
 70
     1
102
RTVSPropertyOp19
 70
     1
102
RTVSPropertyOp20
 70
     1
102
RTVSPropertyOp21
 70
     1
102
RTVSPropertyOp22
 70
     1
102
RTVSPropertyOp23
 70
     1
102
RTVSPropertyOp24
 70
     1
102
RTVSPropertyOp25
 70
     1
102
RTVSPropertyOp26
 70
     1
102
RTVSPropertyOp27
 70
     1
  0
XRECORD
  5
1165
102
{ACAD_REACTORS
330
1164
102
}
330
1164
100
AcDbXrecord
280
     1
102
RTVSPropertyOp0
 70
     1
102
RTVSPropertyOp1
 70
     1
102
RTVSPropertyOp2
 70
     1
102
RTVSPropertyOp3
 70
     1
102
RTVSPropertyOp4
 70
     1
102
RTVSPropertyOp5
 70
     1
102
RTVSPropertyOp6
 70
     1
102
RTVSPropertyOp7
 70
     1
102
RTVSPropertyOp8
 70
     1
102
RTVSPropertyOp9
 70
     1
102
RTVSPropertyOp10
 70
     1
102
RTVSPropertyOp11
 70
     1
102
RTVSPropertyOp12
 70
     1
102
RTVSPropertyOp13
 70
     1
102
RTVSPropertyOp14
 70
     1
102
RTVSPropertyOp15
 70
     1
102
RTVSPropertyOp16
 70
     1
102
RTVSPropertyOp17
 70
     1
102
RTVSPropertyOp18
 70
     1
102
RTVSPropertyOp19
 70
     1
102
RTVSPropertyOp20
 70
     1
102
RTVSPropertyOp21
 70
     1
102
RTVSPropertyOp22
 70
     1
102
RTVSPropertyOp23
 70
     1
102
RTVSPropertyOp24
 70
     1
102
RTVSPropertyOp25
 70
     1
102
RTVSPropertyOp26
 70
     1
102
RTVSPropertyOp27
 70
     1
  0
XRECORD
  5
117F
102
{ACAD_REACTORS
330
117E
102
}
330
117E
100
AcDbXrecord
280
     1
102
RTVSPropertyOp0
 70
     0
102
RTVSPropertyOp1
 70
     0
102
RTVSPropertyOp2
 70
     0
102
RTVSPropertyOp3
 70
     0
102
RTVSPropertyOp4
 70
     0
102
RTVSPropertyOp5
 70
     0
102
RTVSPropertyOp6
 70
     0
102
RTVSPropertyOp7
 70
     0
102
RTVSPropertyOp8
 70
     0
102
RTVSPropertyOp9
 70
     0
102
RTVSPropertyOp10
 70
     0
102
RTVSPropertyOp11
 70
     0
102
RTVSPropertyOp12
 70
     0
102
RTVSPropertyOp13
 70
     0
102
RTVSPropertyOp14
 70
     2
102
RTVSPropertyOp15
 70
     0
102
RTVSPropertyOp16
 70
     0
102
RTVSPropertyOp17
 70
     0
102
RTVSPropertyOp18
 70
     0
102
RTVSPropertyOp19
 70
     0
102
RTVSPropertyOp20
 70
     0
102
RTVSPropertyOp21
 70
     0
102
RTVSPropertyOp22
 70
     0
102
RTVSPropertyOp23
 70
     0
102
RTVSPropertyOp24
 70
     0
102
RTVSPropertyOp25
 70
     0
102
RTVSPropertyOp26
 70
     0
102
RTVSPropertyOp27
 70
     0
  0
XRECORD
  5
1179
102
{ACAD_REACTORS
330
1178
102
}
330
1178
100
AcDbXrecord
280
     1
102
RTVSPropertyOp0
 70
     1
102
RTVSPropertyOp1
 70
     1
102
RTVSPropertyOp2
 70
     1
102
RTVSPropertyOp3
 70
     1
102
RTVSPropertyOp4
 70
     1
102
RTVSPropertyOp5
 70
     1
102
RTVSPropertyOp6
 70
     1
102
RTVSPropertyOp7
 70
     1
102
RTVSPropertyOp8
 70
     1
102
RTVSPropertyOp9
 70
     1
102
RTVSPropertyOp10
 70
     1
102
RTVSPropertyOp11
 70
     1
102
RTVSPropertyOp12
 70
     1
102
RTVSPropertyOp13
 70
     1
102
RTVSPropertyOp14
 70
     1
102
RTVSPropertyOp15
 70
     1
102
RTVSPropertyOp16
 70
     1
102
RTVSPropertyOp17
 70
     1
102
RTVSPropertyOp18
 70
     1
102
RTVSPropertyOp19
 70
     1
102
RTVSPropertyOp20
 70
     1
102
RTVSPropertyOp21
 70
     1
102
RTVSPropertyOp22
 70
     1
102
RTVSPropertyOp23
 70
     1
102
RTVSPropertyOp24
 70
     1
102
RTVSPropertyOp25
 70
     1
102
RTVSPropertyOp26
 70
     1
102
RTVSPropertyOp27
 70
     1
  0
XRECORD
  5
1181
102
{ACAD_REACTORS
330
1180
102
}
330
1180
100
AcDbXrecord
280
     1
102
RTVSPropertyOp0
 70
     0
102
RTVSPropertyOp1
 70
     0
102
RTVSPropertyOp2
 70
     0
102
RTVSPropertyOp3
 70
     0
102
RTVSPropertyOp4
 70
     0
102
RTVSPropertyOp5
 70
     0
102
RTVSPropertyOp6
 70
     0
102
RTVSPropertyOp7
 70
     0
102
RTVSPropertyOp8
 70
     0
102
RTVSPropertyOp9
 70
     0
102
RTVSPropertyOp10
 70
     0
102
RTVSPropertyOp11
 70
     0
102
RTVSPropertyOp12
 70
     0
102
RTVSPropertyOp13
 70
     0
102
RTVSPropertyOp14
 70
     2
102
RTVSPropertyOp15
 70
     0
102
RTVSPropertyOp16
 70
     0
102
RTVSPropertyOp17
 70
     0
102
RTVSPropertyOp18
 70
     0
102
RTVSPropertyOp19
 70
     0
102
RTVSPropertyOp20
 70
     0
102
RTVSPropertyOp21
 70
     0
102
RTVSPropertyOp22
 70
     0
102
RTVSPropertyOp23
 70
     0
102
RTVSPropertyOp24
 70
     0
102
RTVSPropertyOp25
 70
     0
102
RTVSPropertyOp26
 70
     0
102
RTVSPropertyOp27
 70
     0
  0
XRECORD
  5
1171
102
{ACAD_REACTORS
330
1170
102
}
330
1170
100
AcDbXrecord
280
     1
102
RTVSPropertyOp0
 70
     1
102
RTVSPropertyOp1
 70
     1
102
RTVSPropertyOp2
 70
     1
102
RTVSPropertyOp3
 70
     1
102
RTVSPropertyOp4
 70
     1
102
RTVSPropertyOp5
 70
     1
102
RTVSPropertyOp6
 70
     1
102
RTVSPropertyOp7
 70
     1
102
RTVSPropertyOp8
 70
     1
102
RTVSPropertyOp9
 70
     1
102
RTVSPropertyOp10
 70
     1
102
RTVSPropertyOp11
 70
     1
102
RTVSPropertyOp12
 70
     1
102
RTVSPropertyOp13
 70
     1
102
RTVSPropertyOp14
 70
     1
102
RTVSPropertyOp15
 70
     1
102
RTVSPropertyOp16
 70
     1
102
RTVSPropertyOp17
 70
     1
102
RTVSPropertyOp18
 70
     1
102
RTVSPropertyOp19
 70
     1
102
RTVSPropertyOp20
 70
     1
102
RTVSPropertyOp21
 70
     1
102
RTVSPropertyOp22
 70
     1
102
RTVSPropertyOp23
 70
     1
102
RTVSPropertyOp24
 70
     1
102
RTVSPropertyOp25
 70
     1
102
RTVSPropertyOp26
 70
     1
102
RTVSPropertyOp27
 70
     1
  0
XRECORD
  5
1177
102
{ACAD_REACTORS
330
1176
102
}
330
1176
100
AcDbXrecord
280
     1
102
RTVSPropertyOp0
 70
     1
102
RTVSPropertyOp1
 70
     1
102
RTVSPropertyOp2
 70
     1
102
RTVSPropertyOp3
 70
     1
102
RTVSPropertyOp4
 70
     1
102
RTVSPropertyOp5
 70
     1
102
RTVSPropertyOp6
 70
     1
102
RTVSPropertyOp7
 70
     1
102
RTVSPropertyOp8
 70
     1
102
RTVSPropertyOp9
 70
     1
102
RTVSPropertyOp10
 70
     1
102
RTVSPropertyOp11
 70
     1
102
RTVSPropertyOp12
 70
     1
102
RTVSPropertyOp13
 70
     1
102
RTVSPropertyOp14
 70
     1
102
RTVSPropertyOp15
 70
     1
102
RTVSPropertyOp16
 70
     1
102
RTVSPropertyOp17
 70
     1
102
RTVSPropertyOp18
 70
     1
102
RTVSPropertyOp19
 70
     1
102
RTVSPropertyOp20
 70
     1
102
RTVSPropertyOp21
 70
     1
102
RTVSPropertyOp22
 70
     1
102
RTVSPropertyOp23
 70
     1
102
RTVSPropertyOp24
 70
     1
102
RTVSPropertyOp25
 70
     1
102
RTVSPropertyOp26
 70
     1
102
RTVSPropertyOp27
 70
     1
  0
ENDSEC
  0
EOF
